VERSION	0.00.00	1.03.00
FES_MODE	0
BPM_DEF	172.000	172.000	172.000	172.000
MET_DEF	4	4
RESOLUTION	384
CLK_DEF	384
COMPATIBLE_CODE	MA2

BPM	0	0	172.000
MET	0	0	4	4

TAP	2	0	3
TAP	2	24	4
TAP	2	48	3
TAP	2	72	4
TAP	2	96	3
TAP	2	120	4
TAP	2	144	3
TAP	2	168	4
TAP	2	192	3
TAP	2	216	4
TAP	2	240	3
TAP	2	264	4
BRK	2	288	2
BRK	2	288	5
HLD	3	0	1	48
HLD	3	0	3	48
HLD	3	72	1	48
HLD	3	72	3	48
TAP	3	144	1
TAP	3	144	3
TAP	3	192	2
TAP	3	216	4
TAP	3	240	2
HLD	3	288	4	48
HLD	3	288	6	48
HLD	3	360	4	48
HLD	3	360	6	48
TAP	4	48	4
TAP	4	48	6
TAP	4	96	5
TAP	4	120	3
TAP	4	144	5
HLD	4	192	2	48
HLD	4	192	4	48
HLD	4	264	2	48
HLD	4	264	4	48
TAP	4	336	2
TAP	4	336	4
TAP	5	0	1
TAP	5	24	3
TAP	5	48	1
HLD	5	96	3	48
HLD	5	96	5	48
HLD	5	168	3	48
HLD	5	168	5	48
TAP	5	240	3
TAP	5	240	5
TAP	5	288	6
TAP	5	312	4
TAP	5	336	6
HLD	6	0	1	48
HLD	6	0	3	48
HLD	6	72	2	48
HLD	6	72	4	48
TAP	6	144	3
TAP	6	144	5
TAP	6	192	7
TAP	6	216	4
TAP	6	240	7
HLD	6	288	4	48
HLD	6	288	6	48
HLD	6	360	3	48
HLD	6	360	5	48
TAP	7	48	2
TAP	7	48	4
TAP	7	96	0
TAP	7	120	3
TAP	7	144	0
HLD	7	192	1	48
HLD	7	192	3	48
HLD	7	264	2	48
HLD	7	264	4	48
TAP	7	336	3
TAP	7	336	5
TAP	8	0	7
TAP	8	24	4
TAP	8	48	7
HLD	8	96	4	48
HLD	8	96	6	48
HLD	8	168	3	48
HLD	8	168	5	48
TAP	8	240	2
TAP	8	240	4
TAP	8	288	0
TAP	8	312	3
TAP	8	336	0
STR	9	0	6
SCL	9	0	6	96	48	4
TAP	9	72	3
STR	9	144	1
SCR	9	144	1	96	48	3
TAP	9	216	4
STR	9	288	6
SCR	9	288	6	96	48	0
TAP	9	360	1
STR	10	48	2
SCR	10	48	2	96	48	4
TAP	10	120	5
STR	10	192	6
SUL	10	192	6	96	48	2
TAP	10	264	7
STR	10	336	1
SUR	10	336	1	96	48	5
TAP	11	24	0
STR	11	96	6
SCL	11	96	6	96	48	3
TAP	11	168	7
STR	11	240	0
SI_	11	240	0	96	48	4
TAP	11	312	7
BRK	12	0	7
TAP	12	48	5
TAP	12	72	3
TAP	12	96	5
TAP	12	120	3
TAP	12	144	5
TAP	12	168	3
TAP	12	192	4
TAP	12	216	2
TAP	12	240	4
TAP	12	264	2
TAP	12	288	5
TAP	12	312	1
TAP	12	336	5
TAP	12	360	1
TAP	13	0	6
TAP	13	24	5
TAP	13	48	4
TAP	13	72	3
TAP	13	96	0
TAP	13	120	1
TAP	13	144	2
TAP	13	168	3
XTP	13	192	4
XHO	13	192	6	64
TAP	13	256	7
TAP	13	320	0
TAP	13	320	5
HLD	14	0	1	64
TAP	14	64	0
TAP	14	128	2
TAP	14	128	7
BST	14	192	7
SCL	14	192	7	96	48	4
SCR	14	192	7	96	48	2
BST	14	288	7
SF_	14	288	7	96	48	3
BRK	15	0	7
BRK	15	96	1
BRK	15	96	5
TAP	15	192	2
TAP	15	192	3
STR	15	240	1
SI_	15	240	1	96	48	4
TAP	15	264	0
TAP	15	312	0
TAP	15	336	1
TAP	16	0	5
XTP	16	48	4
XTP	16	48	6
TAP	16	96	5
TAP	16	144	3
TAP	16	144	4
TAP	16	192	2
TAP	16	240	2
TAP	16	264	3
TAP	16	312	3
TAP	16	336	1
TAP	17	0	0
TAP	17	0	7
TAP	17	48	6
TAP	17	72	7
TAP	17	120	7
TAP	17	144	5
TAP	17	192	4
TAP	17	192	5
STR	17	240	6
SI_	17	240	6	96	48	3
TAP	17	264	7
TAP	17	312	7
TAP	17	336	6
TAP	18	0	2
XTP	18	48	1
XTP	18	48	3
TAP	18	96	2
TAP	18	144	3
TAP	18	144	4
TAP	18	192	5
TAP	18	240	5
TAP	18	264	4
TAP	18	312	4
TAP	18	336	6
TAP	19	0	0
TAP	19	0	7
TAP	19	48	1
TAP	19	72	0
TAP	19	120	3
TAP	19	144	4
TTP	19	192	0	C	1	M1
TTP	19	192	2	B	0	M1
TTP	19	192	2	E	0	M1
TTP	19	192	3	B	0	M1
TTP	19	192	4	B	0	M1
TTP	19	192	5	B	0	M1
TTP	19	192	6	E	0	M1
XTP	20	0	1
XTP	20	48	1
TAP	20	96	7
TAP	20	120	0
TAP	20	144	7
TAP	20	168	0
TAP	20	192	6
TAP	20	216	5
TAP	20	240	4
TAP	20	264	3
TAP	20	288	0
TAP	20	312	1
TAP	20	336	2
TAP	20	360	3
TAP	21	0	7
TAP	21	24	6
TAP	21	48	5
TAP	21	72	4
TAP	21	96	7
TAP	21	120	0
TAP	21	144	1
TAP	21	168	2
TAP	21	192	3
STR	21	192	6
SLL	21	192	6	96	72	0
TAP	21	264	0
TAP	21	336	2
STR	22	0	1
SLR	22	0	1	96	72	7
TAP	22	72	7
TAP	22	144	6
TAP	22	192	0
TAP	22	192	5
TAP	22	240	4
TAP	22	288	2
TAP	22	288	3
TAP	22	336	1
TAP	23	0	0
TAP	23	0	7
TAP	23	48	6
BRK	23	96	1
BRK	23	96	5
TAP	23	192	3
TAP	23	192	6
TAP	23	240	5
TAP	23	264	4
TAP	23	312	4
TAP	23	336	5
STR	24	0	6
SI_	24	0	6	96	48	3
TAP	24	24	7
TAP	24	72	7
TAP	24	96	6
TAP	24	144	2
TAP	24	192	0
TAP	24	240	2
TAP	24	264	3
TAP	24	312	3
TAP	24	336	1
TAP	25	0	0
TAP	25	0	7
TAP	25	48	6
TAP	25	72	7
TAP	25	120	7
TAP	25	144	5
TAP	25	192	1
TAP	25	192	4
TAP	25	240	2
TAP	25	264	3
TAP	25	312	3
TAP	25	336	2
STR	26	0	1
SI_	26	0	1	96	48	4
TAP	26	24	0
TAP	26	72	0
TAP	26	96	1
TAP	26	144	5
TAP	26	192	7
TAP	26	240	5
TAP	26	264	4
TAP	26	312	4
TAP	26	336	6
TAP	27	0	0
TAP	27	0	7
TAP	27	48	1
TAP	27	72	7
TAP	27	96	0
TAP	27	120	6
STR	27	144	2
SCL	27	144	2	96	48	7
BRK	27	240	2
BRK	27	240	7
TAP	27	256	6
TAP	27	272	5
TAP	27	288	4
TAP	27	336	1
STR	27	336	5
SCL	27	336	5	96	48	2
TAP	28	24	0
STR	28	96	1
SUR	28	96	1	96	48	6
TAP	28	168	7
STR	28	240	0
SCL	28	240	0	96	48	5
TAP	28	312	4
STR	29	0	1
SCR	29	0	1	96	48	4
TAP	29	72	5
TAP	29	144	7
TAP	29	192	4
TAP	29	192	7
TAP	29	288	0
TAP	29	288	3
TAP	30	0	0
TAP	30	0	7
TAP	30	48	5
TAP	30	72	4
TAP	30	72	6
TAP	30	120	2
TAP	30	144	1
TAP	30	144	3
TAP	30	240	2
TAP	30	240	5
TAP	30	256	4
TAP	30	272	3
TAP	30	288	2
TAP	30	304	1
TAP	30	320	0
TAP	30	336	7
TAP	30	352	6
TAP	30	368	5
BRK	31	0	0
BRK	31	0	4
TTP	32	336	2	E	0	M1
TTP	32	360	2	B	0	M1
TTP	33	0	3	B	0	M1
TTP	33	48	7	B	0	M1
TTP	33	72	6	B	0	M1
TTP	33	96	6	E	0	M1
TTP	34	336	6	E	0	M1
TTP	34	360	5	B	0	M1
TTP	35	0	4	B	0	M1
TTP	35	48	0	B	0	M1
TTP	35	72	1	B	0	M1
TTP	35	96	2	E	0	M1
TTP	36	336	6	E	0	M1
TTP	36	360	5	B	0	M1
TTP	37	0	4	B	0	M1
TTP	37	48	0	B	0	M1
TTP	37	72	1	B	0	M1
TTP	37	96	2	E	0	M1
HLD	38	0	3	96
HLD	38	0	4	96
TAP	38	144	2
TAP	38	160	3
TAP	38	176	2
TAP	38	192	4
TAP	38	264	1
TAP	38	336	1
TAP	38	336	4
HLD	39	0	5	48
TAP	39	48	4
HLD	39	96	5	48
TAP	39	144	6
HLD	39	192	5	48
TAP	39	240	4
HLD	39	288	5	48
TAP	39	336	6
HLD	40	0	5	48
TAP	40	48	4
HLD	40	96	5	48
TAP	40	144	6
HLD	40	192	5	48
TAP	40	240	4
HLD	40	288	5	48
TAP	40	336	0
HLD	41	0	2	48
TAP	41	48	3
HLD	41	96	2	48
TAP	41	144	1
HLD	41	192	2	48
TAP	41	240	3
HLD	41	288	2	48
TAP	41	336	1
HLD	42	0	2	48
TAP	42	48	3
HLD	42	96	2	48
TAP	42	144	1
TAP	42	192	2
TAP	42	192	4
TAP	42	264	3
TAP	42	264	5
TAP	42	336	0
TAP	42	336	4
HLD	43	0	1	48
HLD	43	0	7	48
HLD	43	72	3	48
HLD	43	72	5	48
TAP	43	144	2
TAP	43	144	6
HLD	43	288	0	48
HLD	43	288	6	48
HLD	43	360	2	48
HLD	43	360	4	48
TAP	44	48	1
TAP	44	48	5
BST	44	96	1
SI_	44	96	1	96	48	4
BST	44	96	5
SI_	44	96	5	96	48	0
TAP	44	192	1
TAP	44	192	5
TAP	44	288	2
TAP	44	288	6
TAP	44	336	5
TAP	44	360	4
TAP	45	0	5
TAP	45	24	2
TAP	45	48	3
TAP	45	72	2
TAP	45	96	5
TAP	45	120	4
TAP	45	144	5
TAP	45	168	2
TAP	45	192	3
TAP	45	216	2
TAP	45	240	5
TAP	45	264	4
HLD	45	288	6	72
TAP	45	360	7
TAP	46	48	0
TAP	46	48	5
HLD	46	96	1	72
TAP	46	168	0
STR	46	240	2
SUR	46	240	2	96	1104	4
STR	46	240	6
SUR	46	240	6	96	1104	0
TAP	46	264	1
TAP	46	264	5
BRK	46	288	0
BRK	46	288	4
TAP	50	144	3
TAP	50	168	4
BRK	50	192	2
BRK	50	192	5
STR	50	288	3
SI_	50	288	3	96	48	7
TAP	50	288	4
TAP	50	336	2
TAP	51	0	1
TAP	51	0	3
TAP	51	48	0
XTP	51	96	2
XTP	51	96	7
TAP	51	144	1
TAP	51	168	0
TAP	51	216	2
TAP	51	240	3
TAP	51	288	1
STR	51	288	4
SI_	51	288	4	96	48	0
TAP	51	336	5
TAP	52	0	4
TAP	52	0	6
TAP	52	48	7
XTP	52	96	0
XTP	52	96	5
TAP	52	144	6
TAP	52	168	7
TAP	52	216	5
TAP	52	240	4
STR	52	288	3
SUR	52	288	3	96	48	7
TAP	52	288	6
TAP	52	336	2
TAP	53	0	1
TAP	53	0	3
TAP	53	48	0
XTP	53	96	2
XTP	53	96	7
TAP	53	144	1
TAP	53	168	0
TAP	53	216	2
TAP	53	240	3
TAP	53	288	1
STR	53	288	4
SUL	53	288	4	96	48	0
TAP	53	336	5
TAP	54	0	4
TAP	54	0	6
TAP	54	48	7
XTP	54	96	0
XTP	54	96	5
TAP	54	144	6
TAP	54	168	7
TAP	54	192	6
TAP	54	216	7
BRK	54	240	5
STR	54	288	0
SUL	54	288	0	96	48	4
TAP	54	288	4
TAP	54	336	1
TAP	55	0	0
TAP	55	0	2
TAP	55	48	3
XTP	55	96	1
XTP	55	96	4
TAP	55	144	2
TAP	55	168	3
TAP	55	216	1
TAP	55	240	0
TAP	55	240	1
TAP	55	288	2
STR	55	288	7
SUR	55	288	7	96	48	3
TAP	55	336	6
TAP	56	0	5
TAP	56	0	7
TAP	56	48	4
XTP	56	96	3
XTP	56	96	6
TAP	56	144	5
TAP	56	168	4
TAP	56	216	6
TAP	56	240	6
TAP	56	240	7
TAP	56	288	3
TAP	56	288	5
STR	56	336	1
SI_	56	336	1	96	48	4
TAP	56	360	0
TAP	57	24	0
TAP	57	48	1
TAP	57	96	5
STR	57	144	6
SI_	57	144	6	96	48	3
TAP	57	168	7
TAP	57	216	7
TAP	57	240	6
TAP	57	288	2
TAP	57	336	1
TAP	57	360	0
TAP	58	24	0
TAP	58	48	1
TAP	58	96	3
BRK	58	96	6
BRK	58	168	1
TAP	58	168	4
TAP	58	240	0
BRK	58	240	7
TAP	58	288	3
TAP	58	288	4
TTP	58	336	7	B	0	M1
TTP	58	336	7	E	0	M1
TAP	59	0	4
TAP	59	24	3
TTP	59	48	5	B	0	M1
TTP	59	48	6	E	0	M1
TAP	59	96	3
TAP	59	96	4
TTP	59	144	7	B	0	M1
TTP	59	144	7	E	0	M1
TAP	59	168	3
TAP	59	192	4
TAP	59	216	3
TTP	59	240	5	B	0	M1
TTP	59	240	6	E	0	M1
TAP	59	288	3
TAP	59	288	4
TTP	59	336	7	B	0	M1
TTP	59	336	7	E	0	M1
TAP	60	0	4
TAP	60	24	3
TTP	60	48	5	B	0	M1
TTP	60	48	6	E	0	M1
TAP	60	96	3
TAP	60	96	4
TTP	60	144	7	B	0	M1
TTP	60	144	7	E	0	M1
TAP	60	168	3
TAP	60	192	4
TAP	60	216	3
TTP	60	240	5	B	0	M1
TTP	60	240	6	E	0	M1
TAP	60	288	3
TAP	60	288	4
TTP	60	336	7	B	0	M1
TTP	60	336	7	E	0	M1
TAP	60	360	3
TAP	61	0	4
TAP	61	24	3
TTP	61	48	1	B	0	M1
TTP	61	48	1	E	0	M1
TAP	61	96	3
TAP	61	96	4
TTP	61	144	7	B	0	M1
TTP	61	144	7	E	0	M1
TAP	61	168	3
TAP	61	192	4
TAP	61	216	3
TTP	61	240	1	B	0	M1
TTP	61	240	1	E	0	M1
TAP	61	288	3
TAP	61	288	4
TTP	61	336	7	B	0	M1
TTP	61	336	7	E	0	M1
TAP	61	360	3
TAP	62	0	4
TAP	62	24	3
TTP	62	48	1	B	0	M1
TTP	62	48	1	E	0	M1
XTP	62	96	2
XTP	62	96	7
XTP	62	168	3
XTP	62	168	5
XTP	62	240	0
XTP	62	240	4
HLD	62	288	1	48
HLD	62	288	7	48
HLD	62	360	3	48
HLD	62	360	5	48
TAP	63	48	2
TAP	63	48	6
HLD	63	192	0	48
HLD	63	192	6	48
HLD	63	264	2	48
HLD	63	264	4	48
TAP	63	336	1
TAP	63	336	5
BST	64	0	1
SI_	64	0	1	96	48	4
BST	64	0	5
SI_	64	0	5	96	48	0
TAP	64	96	1
TAP	64	96	5
TAP	64	192	2
TAP	64	192	6
TAP	64	240	4
TAP	64	264	0
TAP	64	288	4
TAP	64	312	0
TAP	64	336	4
TAP	64	360	0
TAP	65	0	5
TAP	65	24	1
TAP	65	48	6
TAP	65	72	2
TAP	65	96	7
TAP	65	120	3
TAP	65	144	0
TAP	65	168	4
HLD	65	192	1	144
HLD	65	192	5	144
XTP	65	348	0
XTP	65	348	4
XTP	65	360	3
XTP	65	360	7
XTP	65	372	2
XTP	65	372	6
XTP	66	0	1
XTP	66	0	5
XTP	66	12	0
XTP	66	12	4
XTP	66	24	3
XTP	66	24	7
BRK	66	96	1
BRK	66	96	5
HLD	66	192	0	96
HLD	66	192	7	192
XTP	67	0	0
XTP	67	16	7
XTP	67	32	0
XTP	67	48	7
XTP	67	64	0
XTP	67	80	7
XTP	67	96	1
XTP	67	112	6
XTP	67	128	1
XTP	67	144	6
XTP	67	160	1
XTP	67	192	2
XTP	67	192	5
TAP	67	240	1
TAP	67	264	0
TAP	67	288	2
TAP	67	312	7
TAP	67	336	3
TAP	67	360	6
TAP	68	0	4
TAP	68	24	5
TAP	68	48	7
TAP	68	72	6
TAP	68	96	0
TAP	68	120	5
TAP	68	144	1
TAP	68	168	4
TAP	68	192	1
TAP	68	192	3
TAP	68	240	2
TAP	68	240	4
TAP	68	288	3
TAP	68	288	5
TAP	68	336	4
HLD	68	336	6	48
TAP	69	0	5
TAP	69	24	6
TAP	69	48	3
TAP	69	72	4
TAP	69	96	1
TAP	69	120	2
TAP	69	144	0
TAP	69	168	7
TAP	69	192	4
TAP	69	216	5
TAP	69	240	0
TAP	69	264	7
TAP	69	288	2
TAP	69	312	3
TAP	69	336	0
TAP	69	360	7
TAP	70	0	4
TAP	70	24	5
TAP	70	48	0
TAP	70	72	7
BRK	70	96	1
BRK	70	96	6
TAP	70	192	1
TAP	70	240	2
TAP	70	240	3
TAP	70	288	3
TAP	70	288	4
TAP	70	336	4
HLD	70	336	5	48
TAP	71	0	6
TAP	71	24	5
TAP	71	48	0
TAP	71	72	7
TAP	71	96	2
TAP	71	120	1
HLD	71	144	2	96
TAP	71	240	3
TAP	71	264	2
TAP	71	288	0
TAP	71	312	1
TAP	71	336	7
TAP	71	360	2
TAP	72	0	6
TAP	72	24	7
TAP	72	48	5
TAP	72	72	0
TAP	72	96	3
TAP	72	120	2
TAP	72	144	4
HLD	72	168	1	72
TAP	72	240	2
TAP	72	264	1
TAP	72	288	4
TAP	72	312	3
HLD	72	336	6	96
TAP	73	48	5
TAP	73	72	6
TAP	73	96	3
TAP	73	120	4
HLD	73	144	1	72
TAP	73	216	2
TAP	73	240	1
TAP	73	264	4
TAP	73	288	3
TAP	73	312	6
TAP	73	336	5
TAP	73	360	7
STR	74	0	0
SI_	74	0	0	96	48	4
TAP	74	24	6
TAP	74	48	1
TAP	74	72	7
BRK	74	96	0
TAP	74	192	3
TAP	74	192	5
TAP	74	240	6
TAP	74	288	0
TAP	74	312	7
TAP	74	336	0
BRK	75	0	1
TAP	75	0	4
TAP	75	72	3
BRK	75	72	6
BRK	75	144	0
TAP	75	144	7
TAP	75	240	3
TAP	75	240	4
TAP	75	288	2
TAP	75	312	3
TAP	75	336	2
TAP	76	0	1
TAP	76	0	4
TAP	76	48	1
TAP	76	72	0
TAP	76	120	5
TAP	76	144	4
TAP	76	192	2
TAP	76	192	5
STR	76	240	6
SI_	76	240	6	96	48	3
TAP	76	264	7
TAP	76	312	7
TAP	76	336	6
TAP	77	0	2
STR	77	48	1
SI_	77	48	1	96	48	4
TAP	77	72	0
TAP	77	120	0
TAP	77	144	1
TAP	77	192	5
TAP	77	240	6
TAP	77	264	7
TAP	77	312	2
TAP	77	336	3
XTP	78	0	1
XTP	78	0	3
XTP	78	72	4
XTP	78	72	6
XTP	78	144	3
XTP	78	144	4
TAP	78	192	2
HLD	78	192	5	96
TAP	78	288	3
TAP	78	304	4
TAP	78	320	3
TAP	78	336	4
TAP	78	352	3
TAP	78	368	4
TAP	79	0	2
TAP	79	16	5
TAP	79	32	2
TAP	79	48	5
TAP	79	64	2
TAP	79	80	5
TAP	79	96	1
TAP	79	112	6
TAP	79	128	1
TAP	79	144	6
TAP	79	160	1
TAP	79	176	6
XTP	79	192	0
TAP	79	216	1
TAP	79	240	2
TAP	79	264	3
TAP	79	288	7
TAP	79	312	6
TAP	79	336	5
TAP	79	360	4
TAP	80	0	0
TAP	80	24	1
TAP	80	48	2
TAP	80	72	3
TAP	80	96	7
TAP	80	120	6
TAP	80	144	5
TAP	80	168	4
HLD	80	192	0	48
HLD	80	192	3	48
HLD	80	264	2	48
HLD	80	264	5	48
TAP	80	336	3
TAP	80	336	6
HLD	81	0	4	48
HLD	81	0	7	48
HLD	81	72	2	48
HLD	81	72	5	48
TAP	81	144	1
TAP	81	144	4
TAP	81	192	0
TAP	81	224	0
TAP	81	256	6
TAP	81	288	6
TAP	81	320	4
TAP	81	352	4
TAP	82	0	3
TAP	82	32	3
TAP	82	64	1
TAP	82	96	1
TAP	82	128	7
TAP	82	160	7
HLD	82	192	4	48
HLD	82	192	6	48
HLD	82	264	3	48
HLD	82	264	5	48
TAP	82	336	2
TAP	82	336	4
TAP	83	0	0
TAP	83	0	1
TAP	83	16	7
TAP	83	32	6
TAP	83	48	5
TAP	83	64	4
HLD	83	96	1	48
HLD	83	168	2	48
HLD	83	168	4	48
TAP	83	240	3
TAP	83	240	5
TAP	83	288	6
TAP	83	288	7
TAP	83	304	0
TAP	83	320	1
TAP	83	336	2
TAP	83	352	3
HLD	84	0	6	48
HLD	84	72	3	48
HLD	84	72	5	48
TAP	84	144	2
TAP	84	144	4
TAP	84	192	0
TAP	84	192	1
TAP	84	208	7
TAP	84	224	6
TAP	84	240	5
TAP	84	256	4
HLD	84	288	1	48
HLD	84	360	2	48
HLD	84	360	4	48
TAP	85	48	3
TAP	85	48	5
TAP	85	96	6
TAP	85	96	7
TAP	85	112	0
TAP	85	128	1
TAP	85	144	2
TAP	85	160	3
XHO	85	192	4	48
XHO	85	192	6	48
HLD	85	264	3	48
HLD	85	264	5	48
HLD	85	336	2	80
TAP	85	336	4
BRK	86	0	1
TAP	86	16	0
TAP	86	32	7
TAP	86	48	6
TAP	86	64	5
TAP	86	80	4
HLD	86	96	1	48
HLD	86	96	3	48
HLD	86	168	2	48
HLD	86	168	4	48
TAP	86	240	3
HLD	86	240	5	80
BRK	86	288	6
TAP	86	304	7
TAP	86	320	0
TAP	86	336	1
TAP	86	352	2
TAP	86	368	3
HLD	87	0	4	48
HLD	87	0	6	48
HLD	87	72	3	48
HLD	87	72	5	48
HLD	87	144	2	80
TAP	87	144	4
BRK	87	192	1
TAP	87	208	0
TAP	87	224	7
TAP	87	240	6
TAP	87	256	5
TAP	87	272	4
HLD	87	288	1	48
HLD	87	288	3	48
HLD	87	360	2	48
HLD	87	360	4	48
TAP	88	48	3
HLD	88	48	5	80
BRK	88	96	6
TAP	88	112	7
TAP	88	128	0
TAP	88	144	1
TAP	88	160	2
TAP	88	176	3
BRK	88	192	4
BRK	88	192	7
HLD	88	264	3	48
HLD	88	264	6	48
HLD	88	336	1	48
HLD	88	336	4	48
TAP	89	24	3
TAP	89	24	5
TTP	89	96	0	E	0	M1
HLD	89	96	2	48
HLD	89	168	1	48
HLD	89	168	4	48
HLD	89	240	3	48
HLD	89	240	6	48
TAP	89	312	0
TAP	89	312	5
TTP	90	0	0	C	0	M1
HLD	90	0	6	48
HLD	90	72	0	48
HLD	90	72	5	48
HLD	90	144	2	48
HLD	90	144	7	48
TAP	90	216	0
TAP	90	216	5
HLD	90	288	1	48
TTP	90	288	4	E	0	M1
HLD	90	360	2	48
HLD	90	360	7	48
HLD	91	48	0	48
HLD	91	48	5	48
TAP	91	120	3
TAP	91	120	4
BRK	91	192	6
BRK	91	192	7
TAP	91	240	5
TAP	91	264	4
TAP	91	288	5
BRK	91	336	3
BRK	91	336	6
TAP	92	0	2
TAP	92	24	3
TAP	92	48	2
BRK	92	96	1
BRK	92	96	4
TAP	92	144	6
TAP	92	168	7
TAP	92	192	6
BRK	92	240	0
BRK	92	240	5
TAP	92	288	1
TAP	92	312	0
TAP	92	336	1
BRK	93	0	2
BST	93	0	7
SF_	93	0	7	96	48	3
BRK	93	96	7
TAP	93	192	0
TAP	93	192	4
TAP	93	224	0
TAP	93	224	4
TAP	93	256	0
TAP	93	256	4
STR	93	288	2
SI_	93	288	2	96	48	7
STR	93	288	6
SI_	93	288	6	96	48	3
TAP	93	320	2
TAP	93	320	6
TAP	93	352	2
TAP	93	352	6
TAP	94	0	2
TAP	94	0	6
TAP	94	96	0
TAP	94	112	4
TAP	94	128	0
TAP	94	144	4
TAP	94	160	0
TAP	94	176	4
TAP	94	192	0
TAP	94	208	4
TAP	94	224	0
TAP	94	240	4
TAP	94	256	0
TAP	94	272	4
TAP	94	288	0
XTP	95	0	1
XTP	95	0	7
TAP	95	12	2
TAP	95	24	3
TAP	95	36	4
TAP	95	48	5
TAP	95	60	6
TAP	95	72	7
TAP	95	84	0
XTP	95	96	1
XTP	95	96	5
TAP	95	108	2
TAP	95	120	3
TAP	95	132	4
TAP	95	144	5
TAP	95	156	6
TAP	95	168	7
TAP	95	180	0
XTP	95	192	1
XTP	95	192	3
TAP	95	204	2
TAP	95	216	3
TAP	95	228	4
TAP	95	240	5
TAP	95	252	6
TAP	95	264	7
TAP	95	276	0
BRK	95	288	1
HLD	95	288	5	432
TTP	96	336	0	C	0	M1
TAP	97	48	0
TAP	97	72	4
BRK	97	96	2
BRK	97	96	6

T_REC_TAP	712
T_REC_BRK	47
T_REC_XTP	63
T_REC_HLD	137
T_REC_XHO	3
T_REC_STR	34
T_REC_BST	7
T_REC_XST	0
T_REC_TTP	57
T_REC_THO	0
T_REC_SLD	42
T_REC_ALL	1102
T_NUM_TAP	866
T_NUM_BRK	54
T_NUM_HLD	140
T_NUM_SLD	42
T_NUM_ALL	1102
T_JUDGE_TAP	920
T_JUDGE_HLD	171
T_JUDGE_SLD	42
T_JUDGE_ALL	1133
TTM_EACHPAIRS	207
TTM_SCR_TAP	433000
TTM_SCR_BRK	140400
TTM_SCR_HLD	140000
TTM_SCR_SLD	63000
TTM_SCR_ALL	776400
TTM_SCR_S	747900
TTM_SCR_SS	771000
TTM_RAT_ACV	10070

