VERSION	0.00.00	1.03.00
FES_MODE	0
BPM_DEF	172.000	172.000	172.000	172.000
MET_DEF	4	4
RESOLUTION	384
CLK_DEF	384
COMPATIBLE_CODE	MA2

BPM	0	0	172.000
MET	0	0	4	4

TAP	2	0	3
TAP	2	48	3
TAP	2	96	4
TAP	2	144	4
TAP	2	192	3
TAP	2	240	3
TAP	2	288	2
TAP	2	288	5
XHO	3	0	1	48
XHO	3	0	3	48
HLD	3	72	1	48
HLD	3	72	3	48
TAP	3	144	1
TAP	3	144	3
XHO	3	288	4	48
XHO	3	288	6	48
HLD	3	360	4	48
HLD	3	360	6	48
TAP	4	48	4
TAP	4	48	6
XHO	4	192	1	48
XHO	4	192	3	48
HLD	4	264	1	48
HLD	4	264	3	48
TAP	4	336	2
TAP	4	336	4
XHO	5	96	4	48
XHO	5	96	6	48
HLD	5	168	4	48
HLD	5	168	6	48
TAP	5	240	3
TAP	5	240	5
XHO	6	0	1	48
XHO	6	0	3	48
HLD	6	72	2	48
HLD	6	72	4	48
TAP	6	144	3
TAP	6	144	5
XHO	6	288	4	48
XHO	6	288	6	48
HLD	6	360	3	48
HLD	6	360	5	48
TAP	7	48	2
TAP	7	48	4
XHO	7	192	1	48
XHO	7	192	3	48
HLD	7	264	2	48
HLD	7	264	4	48
TAP	7	336	1
TAP	7	336	5
XHO	8	96	4	48
XHO	8	96	6	48
HLD	8	168	3	48
HLD	8	168	5	48
TAP	8	240	2
TAP	8	240	6
XHO	9	0	7	72
HLD	9	72	6	72
HLD	9	144	5	72
HLD	9	216	4	72
HLD	9	288	3	72
HLD	9	360	2	72
HLD	10	48	1	72
HLD	10	120	0	72
HLD	10	192	7	72
HLD	10	264	6	72
HLD	10	336	5	72
HLD	11	24	4	72
HLD	11	96	3	72
HLD	11	168	2	72
HLD	11	240	1	72
HLD	11	312	0	72
STR	12	0	7
SCL	12	0	7	96	288	0
THO	13	0	0	192	C	1	M1
TTP	13	192	1	B	0	M1
TTP	13	192	6	B	0	M1
XTP	14	192	3
XTP	14	192	4
XTP	14	288	4
XTP	14	288	6
XTP	15	0	1
XTP	15	0	3
BRK	15	96	0
BRK	15	96	7
TAP	15	192	5
TAP	15	240	5
TAP	15	264	4
TAP	15	336	3
STR	15	336	6
SCL	15	336	6	96	96	3
TAP	16	192	2
TAP	16	240	2
TAP	16	264	3
TAP	16	336	1
TAP	16	336	4
TAP	17	0	5
TAP	17	48	5
TAP	17	96	4
TAP	17	96	6
TAP	17	192	5
TAP	17	240	5
TAP	17	264	4
TAP	17	336	3
STR	17	336	6
SCL	17	336	6	96	96	3
TAP	18	192	2
TAP	18	240	2
TAP	18	264	3
TAP	18	336	1
TAP	18	336	4
TAP	19	0	2
TAP	19	48	2
TAP	19	96	1
TAP	19	96	3
TAP	19	144	1
TAP	19	144	3
TTP	19	240	0	C	1	M1
TTP	19	240	2	B	0	M1
TTP	19	240	5	B	0	M1
TAP	20	96	0
TAP	20	96	7
TAP	20	144	0
TAP	20	192	6
TAP	20	240	6
TAP	20	288	2
TAP	20	336	2
TAP	21	0	4
TAP	21	48	4
TAP	21	96	3
TAP	21	144	3
HLD	21	192	6	72
HLD	21	264	5	72
TAP	21	336	4
HLD	22	0	1	72
HLD	22	72	2	72
TAP	22	144	3
TAP	22	192	4
TAP	22	240	4
TAP	22	288	3
TAP	22	336	3
TAP	23	0	2
TAP	23	0	5
BRK	23	96	1
BRK	23	96	6
TAP	23	192	2
TAP	23	240	2
TAP	23	264	3
STR	23	336	1
SCR	23	336	1	96	96	4
TAP	23	336	4
TAP	24	192	5
TAP	24	240	5
TAP	24	264	4
TAP	24	336	3
TAP	24	336	6
TAP	25	0	2
TAP	25	48	2
TAP	25	96	1
TAP	25	96	3
TAP	25	192	2
TAP	25	240	2
TAP	25	264	3
STR	25	336	1
SCR	25	336	1	96	96	4
TAP	25	336	4
TAP	26	192	5
TAP	26	240	5
TAP	26	264	4
TAP	26	336	3
TAP	26	336	6
TAP	27	0	5
TAP	27	48	5
TAP	27	96	4
TAP	27	96	6
TAP	27	144	4
TAP	27	144	6
XTP	27	264	0
XHO	27	264	1	72
HLD	27	336	2	72
HLD	28	24	3	72
HLD	28	96	6	72
HLD	28	168	5	72
HLD	28	240	4	72
HLD	28	312	2	72
HLD	29	0	3	72
HLD	29	72	4	72
TAP	29	144	5
TAP	29	192	3
TAP	29	192	6
TAP	29	288	1
TAP	29	288	4
XHO	30	0	2	48
XHO	30	0	5	48
HLD	30	72	1	48
HLD	30	72	6	48
STR	30	144	0
SCR	30	144	0	96	144	4
TAP	30	144	7
BRK	31	0	5
TTP	32	336	1	B	0	M1
TTP	32	360	2	B	0	M1
TTP	33	0	3	E	0	M1
TTP	33	48	6	B	0	M1
TTP	33	72	5	B	0	M1
TTP	33	96	5	E	0	M1
TTP	34	336	6	B	0	M1
TTP	34	360	5	B	0	M1
TTP	35	0	5	E	0	M1
TTP	35	48	1	B	0	M1
TTP	35	72	2	B	0	M1
TTP	35	96	3	E	0	M1
TTP	36	336	1	B	0	M1
TTP	36	360	2	B	0	M1
TTP	37	0	3	E	0	M1
TTP	37	48	6	B	0	M1
TTP	37	72	5	B	0	M1
TTP	37	96	5	E	0	M1
HLD	38	0	3	192
HLD	38	192	4	192
TAP	39	0	3
TAP	39	48	3
TAP	39	96	4
TAP	39	144	4
TAP	39	192	2
TAP	39	240	2
TAP	39	288	3
TAP	39	336	3
TAP	40	0	4
TAP	40	48	4
TAP	40	96	5
TAP	40	144	5
TAP	40	192	4
TAP	40	240	4
TAP	40	288	3
TAP	40	336	3
TAP	41	0	1
TAP	41	48	1
TAP	41	96	3
TAP	41	144	3
TAP	41	192	4
TAP	41	240	4
TAP	41	288	6
TAP	41	336	6
TAP	42	0	0
TAP	42	48	0
TAP	42	96	7
TAP	42	144	7
XTP	42	192	1
XTP	42	192	6
XTP	42	264	2
XTP	42	264	4
XTP	42	336	3
XTP	42	336	5
XTP	43	0	1
XTP	43	0	6
TAP	43	72	2
TAP	43	72	5
STR	43	144	3
SXL	43	144	3	96	240	2
TAP	43	144	4
TAP	44	192	5
XHO	44	288	1	72
TAP	44	288	4
HLD	44	360	3	72
HLD	45	48	4	72
HLD	45	120	6	72
TAP	45	192	0
TAP	45	240	7
HLD	45	288	1	72
HLD	45	360	2	72
TAP	46	48	3
HLD	46	96	7	72
HLD	46	168	6	72
TAP	46	240	5
XST	46	288	0
SCR	46	288	0	96	864	7
TTP	49	288	0	C	0	M1
TAP	50	144	0
TAP	50	144	7
BRK	50	192	1
BRK	50	192	6
TAP	50	288	0
STR	50	288	1
SI_	50	288	1	96	48	4
TAP	51	0	5
TAP	51	96	3
TAP	51	96	6
TAP	51	168	4
TAP	51	168	5
TAP	51	240	6
TAP	51	240	7
TAP	51	288	0
TAP	51	336	1
STR	52	0	2
SCR	52	0	2	96	48	5
TAP	52	0	3
TAP	52	96	6
TAP	52	144	6
TAP	52	192	5
TAP	52	192	7
STR	52	288	6
SI_	52	288	6	96	48	3
TAP	52	288	7
TAP	53	0	2
TAP	53	96	1
TAP	53	96	4
TAP	53	168	2
TAP	53	168	3
TAP	53	240	0
TAP	53	240	1
TAP	53	288	7
TAP	53	336	6
TAP	54	0	4
STR	54	0	5
SCL	54	0	5	96	48	2
TAP	54	96	1
TAP	54	144	1
TAP	54	192	0
TAP	54	192	2
TAP	54	288	0
STR	54	288	1
SI_	54	288	1	96	48	4
TAP	55	0	5
TAP	55	96	3
TAP	55	96	6
TAP	55	168	4
TAP	55	168	5
TAP	55	240	6
TAP	55	240	7
TAP	55	288	0
TAP	55	336	1
STR	56	0	2
SCR	56	0	2	96	48	5
TAP	56	0	3
TAP	56	96	6
TAP	56	144	6
TAP	56	192	5
TAP	56	192	7
HLD	56	288	2	72
TAP	56	360	3
TAP	57	48	1
TAP	57	48	4
HLD	57	96	5	72
TAP	57	168	4
TAP	57	240	3
TAP	57	240	6
HLD	57	288	7	72
TAP	57	360	0
TAP	58	48	1
TAP	58	48	6
XTP	58	96	2
XTP	58	96	5
XTP	58	168	3
XTP	58	168	4
XTP	58	240	0
XTP	58	240	7
TAP	58	288	0
TAP	58	288	1
TAP	58	336	2
TAP	59	0	3
TAP	59	0	4
TAP	59	48	5
TAP	59	96	6
TAP	59	96	7
TAP	59	144	1
TAP	59	168	0
TAP	59	216	2
TAP	59	240	3
TAP	59	288	1
TAP	59	336	0
TAP	59	336	7
TAP	60	0	0
TAP	60	0	7
STR	60	96	1
SI_	60	96	1	96	48	4
TAP	60	168	0
TAP	60	240	7
STR	60	288	6
SI_	60	288	6	96	48	3
TAP	60	360	7
TAP	61	48	0
STR	61	96	1
SCR	61	96	1	96	48	4
TAP	61	168	0
TAP	61	240	7
STR	61	288	6
SCL	61	288	6	96	48	3
TAP	61	360	7
TAP	62	48	0
XTP	62	96	1
XTP	62	96	5
XTP	62	168	2
XTP	62	168	6
XTP	62	240	3
XTP	62	240	7
HLD	62	288	4	72
TAP	62	360	5
TAP	63	48	3
TAP	63	48	6
TAP	63	144	2
HLD	63	192	2	72
TAP	63	264	3
TAP	63	336	1
TAP	63	336	4
HLD	64	0	5	72
TAP	64	72	4
TAP	64	144	3
TAP	64	144	6
XTP	64	192	7
TAP	64	240	2
TAP	64	264	3
TAP	64	288	2
TAP	64	336	5
TAP	64	360	4
TAP	65	0	5
TAP	65	48	1
TAP	65	72	3
TAP	65	96	1
TAP	65	144	6
TAP	65	168	4
HLD	65	192	6	192
TTP	66	0	0	C	1	M1
XTP	66	192	0
XTP	66	216	7
XTP	66	240	0
XTP	66	264	7
XTP	66	288	0
XTP	66	312	7
XTP	66	336	0
XTP	66	360	7
XTP	67	0	0
XTP	67	24	7
XTP	67	48	0
XTP	67	72	7
XTP	67	96	0
TAP	67	192	1
TAP	67	192	3
TAP	67	240	2
TAP	67	288	3
TAP	67	288	4
TAP	67	336	5
TAP	68	0	4
TAP	68	0	6
TAP	68	48	5
TAP	68	96	3
TAP	68	96	4
TAP	68	144	2
TAP	68	192	1
TAP	68	192	3
STR	68	240	0
SCR	68	240	0	96	48	3
TAP	68	336	6
TAP	69	0	5
TAP	69	48	4
TAP	69	96	3
TAP	69	144	2
TAP	69	192	1
TAP	69	216	3
TAP	69	240	1
TAP	69	288	6
TAP	69	312	4
TAP	69	336	6
TAP	70	0	1
TAP	70	24	0
TAP	70	48	1
XTP	70	96	2
XTP	70	96	7
TAP	70	192	4
TAP	70	192	6
TAP	70	240	5
TAP	70	288	3
TAP	70	288	4
TAP	70	336	2
TAP	71	0	1
TAP	71	0	3
TAP	71	48	0
TAP	71	96	1
TAP	71	96	7
STR	71	144	6
SCL	71	144	6	96	48	3
TAP	71	240	2
TAP	71	288	1
TAP	71	336	0
TAP	72	0	7
TAP	72	48	6
TAP	72	96	5
HLD	72	144	4	96
TAP	72	240	3
TAP	72	288	2
HLD	72	336	1	96
TAP	73	48	2
TAP	73	96	3
STR	73	144	4
SCR	73	144	4	96	192	3
BRK	74	96	1
BRK	74	96	5
TAP	74	192	6
TAP	74	192	7
TAP	74	240	5
TAP	74	288	3
TAP	74	288	4
TAP	74	336	2
TAP	75	0	0
TAP	75	0	1
TAP	75	48	6
TAP	75	72	7
TAP	75	120	5
TAP	75	144	4
TAP	75	192	6
TAP	75	240	0
TAP	75	240	7
TAP	75	288	1
TAP	75	336	2
TAP	75	336	3
TAP	76	0	3
TAP	76	0	4
TAP	76	48	3
TAP	76	48	4
BRK	76	96	2
BRK	76	96	5
STR	76	192	6
SI_	76	192	6	96	48	3
TAP	76	264	7
TAP	76	336	0
STR	77	0	1
SI_	77	0	1	96	48	4
TAP	77	72	0
TAP	77	144	7
STR	77	192	6
SCL	77	192	6	96	48	3
TAP	77	264	7
TAP	77	336	0
STR	78	0	1
SCR	78	0	1	96	48	4
TAP	78	72	0
TAP	78	144	7
XTP	78	192	2
XTP	78	192	6
XTP	78	288	3
XTP	78	312	4
XTP	78	336	3
XTP	78	360	4
XTP	79	0	3
XTP	79	24	4
XTP	79	48	3
XTP	79	72	4
XTP	79	96	3
XTP	79	120	4
XTP	79	144	3
XTP	79	168	4
TAP	79	240	2
TAP	79	288	3
TAP	79	336	4
TAP	80	0	2
TAP	80	48	3
TAP	80	96	4
TAP	80	144	5
HLD	80	192	6	72
TAP	80	264	7
TAP	80	336	0
TAP	80	336	5
HLD	81	0	1	72
TAP	81	72	0
TAP	81	144	2
TAP	81	144	7
XTP	81	192	4
XTP	81	192	6
XTP	81	256	0
XTP	81	256	7
XTP	81	320	1
XTP	81	320	3
XTP	82	0	4
XTP	82	0	6
XTP	82	64	0
XTP	82	64	7
XTP	82	128	1
XTP	82	128	3
XHO	82	192	4	48
XHO	82	192	6	48
XTP	82	264	0
XTP	82	264	7
TTP	82	336	5	B	0	M1
TTP	82	336	6	B	0	M1
TTP	82	336	7	E	0	M1
XHO	83	96	1	48
XHO	83	96	3	48
XTP	83	168	0
XTP	83	168	7
TTP	83	240	1	B	0	M1
TTP	83	240	1	E	0	M1
TTP	83	240	2	B	0	M1
XHO	84	0	3	48
XHO	84	0	6	48
XTP	84	72	4
XTP	84	72	7
TTP	84	144	5	B	0	M1
TTP	84	144	6	B	0	M1
TTP	84	144	7	E	0	M1
XHO	84	288	1	48
XHO	84	288	4	48
XTP	84	360	0
XTP	84	360	3
TTP	85	48	1	B	0	M1
TTP	85	48	1	E	0	M1
TTP	85	48	2	B	0	M1
XHO	85	192	4	48
XHO	85	192	6	48
XTP	85	264	5
XTP	85	264	7
TTP	85	336	5	B	0	M1
TTP	85	336	5	E	0	M1
TTP	85	336	6	B	0	M1
XHO	86	96	1	48
XHO	86	96	3	48
XTP	86	168	0
XTP	86	168	2
TTP	86	240	1	B	0	M1
TTP	86	240	2	B	0	M1
TTP	86	240	3	E	0	M1
XHO	87	0	4	48
XHO	87	0	7	48
XTP	87	72	5
XTP	87	72	6
TTP	87	144	5	B	0	M1
TTP	87	144	5	E	0	M1
TTP	87	144	6	B	0	M1
XHO	87	288	0	48
XHO	87	288	3	48
XTP	87	360	1
XTP	87	360	2
TTP	88	48	1	B	0	M1
TTP	88	48	2	B	0	M1
TTP	88	48	3	E	0	M1
XHO	88	192	0	72
HLD	88	264	1	72
HLD	88	336	2	72
HLD	89	24	3	72
HLD	89	96	4	72
HLD	89	168	5	72
HLD	89	240	6	72
HLD	89	312	7	72
HLD	90	0	0	72
HLD	90	72	1	72
HLD	90	144	2	72
HLD	90	216	3	72
HLD	90	288	4	72
HLD	90	360	5	72
HLD	91	48	6	72
HLD	91	120	7	72
XTP	91	192	0
TAP	91	240	1
TAP	91	288	2
XTP	91	336	3
XTP	91	336	7
TAP	92	0	6
TAP	92	48	5
XTP	92	96	0
XTP	92	96	4
TAP	92	144	1
TAP	92	192	2
XTP	92	240	3
XTP	92	240	7
TAP	92	288	6
TAP	92	336	5
XTP	93	0	3
XTP	93	32	3
XTP	93	64	3
XTP	93	96	4
XTP	93	128	4
XTP	93	160	4
TAP	93	192	3
BRK	93	288	2
BRK	93	288	5
TAP	94	0	0
TAP	94	24	7
TAP	94	48	0
TAP	94	72	7
TAP	94	96	0
TAP	94	120	7
TAP	94	144	0
TAP	94	168	7
TAP	94	192	0
TAP	94	216	7
TAP	94	240	0
TAP	94	264	7
STR	94	288	0
SXL	94	288	0	96	192	4
SXR	94	288	0	96	192	4
TAP	95	288	2
HLD	95	288	6	432
XTP	96	336	5
XTP	97	48	3
XTP	97	48	4
TTP	97	96	0	C	1	M1
TTP	97	96	1	B	0	M1
TTP	97	96	6	B	0	M1

T_REC_TAP	358
T_REC_BRK	13
T_REC_XTP	101
T_REC_HLD	81
T_REC_XHO	38
T_REC_STR	25
T_REC_BST	0
T_REC_XST	1
T_REC_TTP	52
T_REC_THO	1
T_REC_SLD	27
T_REC_ALL	697
T_NUM_TAP	537
T_NUM_BRK	13
T_NUM_HLD	120
T_NUM_SLD	27
T_NUM_ALL	697
T_JUDGE_TAP	550
T_JUDGE_HLD	203
T_JUDGE_SLD	27
T_JUDGE_ALL	780
TTM_EACHPAIRS	146
TTM_SCR_TAP	268500
TTM_SCR_BRK	33800
TTM_SCR_HLD	120000
TTM_SCR_SLD	40500
TTM_SCR_ALL	462800
TTM_SCR_S	447700
TTM_SCR_SS	461500
TTM_RAT_ACV	10028

