VERSION	0.00.00	1.03.00
FES_MODE	0
BPM_DEF	172.000	172.000	172.000	172.000
MET_DEF	4	4
RESOLUTION	384
CLK_DEF	384
COMPATIBLE_CODE	MA2

BPM	0	0	172.000
MET	0	0	4	4

XTP	2	0	3
XTP	2	0	4
XTP	2	96	2
XTP	2	96	5
XTP	2	192	1
XTP	2	192	6
BRK	2	288	0
BRK	2	288	7
HLD	3	0	1	288
HLD	3	288	0	288
HLD	4	192	7	288
TAP	5	96	6
TTP	6	0	4	B	0	L1
TTP	6	0	5	B	0	L1
TTP	6	288	2	B	0	L1
TTP	6	288	3	B	0	L1
TTP	7	192	0	B	0	L1
TTP	7	192	1	B	0	L1
TTP	8	96	6	B	0	L1
TTP	8	96	7	B	0	L1
STR	9	0	1
SCR	9	0	1	96	288	5
STR	10	192	6
SCL	10	192	6	96	288	2
STR	12	0	0
SLR	12	0	0	96	288	4
XTP	13	192	5
TAP	14	0	6
TAP	14	0	7
TAP	14	192	0
TAP	14	192	7
TAP	14	288	0
TAP	14	288	7
BRK	15	0	1
BRK	15	0	6
TAP	15	192	2
TAP	15	288	3
HLD	16	0	2	96
HLD	16	0	3	96
TAP	16	192	5
TAP	16	288	4
HLD	17	0	4	96
HLD	17	0	5	96
TAP	17	192	2
TAP	17	288	3
HLD	18	0	2	96
HLD	18	0	3	96
TAP	18	192	5
TAP	18	288	6
TAP	19	0	7
TAP	19	96	0
STR	19	192	0
SI_	19	192	0	96	144	4
STR	19	192	7
SI_	19	192	7	96	144	3
TAP	20	192	5
TAP	20	288	4
TAP	21	0	3
TAP	21	96	2
HLD	21	192	0	96
HLD	21	192	1	96
HLD	22	0	6	96
HLD	22	0	7	96
TAP	22	192	0
TAP	22	192	7
TAP	22	288	0
TAP	22	288	7
BRK	23	0	1
BRK	23	0	6
TAP	23	192	2
TAP	23	288	2
TAP	24	0	2
TAP	24	0	3
TAP	24	96	2
TAP	24	96	3
TAP	24	192	5
TAP	24	288	5
TAP	25	0	4
TAP	25	0	5
TAP	25	96	4
TAP	25	96	5
TAP	25	192	6
TAP	25	288	6
TAP	26	0	6
TAP	26	0	7
TAP	26	96	6
TAP	26	96	7
TAP	26	192	1
TAP	26	288	1
TAP	27	0	0
TAP	27	0	1
TAP	27	96	0
TAP	27	96	7
STR	27	192	1
SCR	27	192	1	96	144	4
TAP	27	192	6
XST	28	96	5
SCR	28	96	5	96	144	0
XTP	29	0	1
TAP	29	96	1
TAP	29	192	0
TAP	29	192	1
TAP	30	0	0
TAP	30	0	7
TAP	30	96	1
TAP	30	96	6
TAP	30	192	2
TAP	30	192	5
TTP	31	0	0	C	1	L1
TTP	33	0	5	B	0	L1
TTP	33	0	5	E	0	L1
TTP	35	0	2	B	0	L1
TTP	35	0	3	E	0	L1
TTP	37	0	3	B	0	L1
TTP	37	0	4	B	0	L1
THO	38	0	0	192	C	0	L1
XHO	39	0	1	192
HLD	39	192	0	192
HLD	40	0	7	192
TAP	40	192	6
HLD	41	0	5	192
HLD	41	192	4	192
HLD	42	0	3	192
TAP	42	192	2
XST	43	0	1
SI_	43	0	1	96	144	4
XST	43	288	5
SI_	43	288	5	96	144	0
XTP	44	192	1
TAP	44	288	2
TAP	45	0	3
TAP	45	96	4
TAP	45	192	5
TAP	45	288	6
TAP	46	0	7
TAP	46	96	0
TAP	46	192	1
BRK	46	288	2
BST	46	288	4
SCR	46	288	4	96	1056	3
BRK	50	192	3
BRK	50	192	4
TAP	50	288	2
TAP	51	0	2
TAP	51	0	3
TAP	51	96	5
TAP	51	192	4
TAP	51	192	5
TAP	51	288	6
TAP	52	0	6
TAP	52	0	7
TAP	52	96	0
TAP	52	96	1
TAP	52	192	2
TAP	52	192	7
XTP	52	288	6
TAP	53	0	6
TAP	53	0	7
TAP	53	96	1
TAP	53	192	0
TAP	53	192	1
TAP	53	288	2
TAP	54	0	2
TAP	54	0	3
TAP	54	96	3
TAP	54	96	4
TAP	54	192	2
TAP	54	192	5
XTP	54	288	1
TAP	55	0	0
TAP	55	0	1
TAP	55	96	6
TAP	55	192	6
TAP	55	192	7
TAP	55	288	5
TAP	56	0	4
TAP	56	0	5
TAP	56	96	2
TAP	56	96	3
TAP	56	192	1
TAP	56	192	4
TAP	56	288	5
TAP	57	0	4
TAP	57	0	6
TAP	57	96	2
TAP	57	192	1
TAP	57	192	3
TAP	57	288	2
TAP	57	288	5
TAP	58	0	1
TAP	58	0	6
TAP	58	96	0
TAP	58	96	7
BRK	58	192	1
BRK	58	192	6
TAP	58	288	2
TAP	58	336	2
TAP	59	0	3
TAP	59	96	4
TAP	59	96	5
TAP	59	192	3
TAP	59	192	6
TAP	59	288	5
TAP	59	336	5
TAP	60	0	4
TAP	60	96	3
TAP	60	96	4
TAP	60	192	2
TAP	60	192	5
TAP	60	288	1
TAP	60	336	1
TAP	61	0	0
TAP	61	96	6
TAP	61	96	7
TAP	61	192	0
TAP	61	192	5
TAP	61	288	6
TAP	61	336	6
TAP	62	0	7
TAP	62	96	0
TAP	62	96	7
TAP	62	192	1
TAP	62	192	6
STR	62	288	2
SI_	62	288	2	96	144	7
STR	63	192	6
SI_	63	192	6	96	144	3
XTP	64	96	2
TAP	64	192	1
TAP	64	288	0
TAP	65	0	7
TAP	65	96	6
TAP	65	192	4
TAP	65	192	5
TAP	65	288	4
TAP	65	288	5
XTP	66	0	3
XTP	66	0	6
HLD	66	192	1	288
TAP	67	0	0
TAP	67	96	0
TAP	67	192	7
TAP	67	288	7
TAP	68	0	6
TAP	68	96	6
HLD	68	192	4	96
HLD	68	192	5	96
HLD	69	0	2	96
HLD	69	0	3	96
TAP	69	192	3
TAP	69	192	4
TAP	69	288	3
TAP	69	288	4
TAP	70	0	2
TAP	70	0	5
TTP	70	192	6	E	0	L1
TTP	70	288	5	B	0	L1
TTP	71	0	4	B	0	L1
TTP	71	192	2	E	0	L1
TTP	71	288	2	B	0	L1
TTP	72	0	3	B	0	L1
TTP	72	192	6	E	0	L1
TTP	72	288	6	B	0	L1
TTP	73	0	7	B	0	L1
TTP	73	96	0	B	0	L1
TTP	73	192	1	B	0	L1
TTP	73	288	2	E	0	L1
TTP	74	0	0	C	0	L1
XTP	74	192	6
XTP	74	288	6
XTP	74	288	7
TAP	75	0	1
TAP	75	96	0
TAP	75	96	1
TAP	75	192	2
TAP	75	288	2
TAP	75	288	3
TAP	76	0	4
TAP	76	0	5
TAP	76	96	3
TAP	76	96	6
TAP	76	192	7
TAP	76	288	0
TAP	77	0	1
TAP	77	96	2
TAP	77	192	3
TAP	77	288	4
XTP	78	0	2
XTP	78	0	5
TAP	78	192	3
TAP	78	240	3
TAP	78	288	3
TAP	79	0	4
TAP	79	48	4
TAP	79	96	4
TAP	79	192	3
TAP	79	192	4
TAP	79	288	2
TAP	79	288	5
TAP	80	0	1
TAP	80	0	6
TAP	80	96	0
TAP	80	96	7
HLD	80	192	6	96
HLD	80	192	7	96
HLD	81	0	4	96
HLD	81	0	5	96
TAP	81	192	2
TAP	81	192	3
TAP	81	288	1
TAP	81	288	4
TAP	82	0	0
TAP	82	0	5
TAP	82	96	6
TAP	82	96	7
TTP	82	192	4	B	0	L1
TTP	82	192	5	B	0	L1
TTP	83	96	2	B	0	L1
TTP	83	96	3	B	0	L1
TTP	84	0	0	B	0	L1
TTP	84	0	1	B	0	L1
TTP	84	288	6	B	0	L1
TTP	84	288	7	B	0	L1
STR	85	192	4
SI_	85	192	4	96	144	7
STR	86	96	0
SI_	86	96	0	96	144	3
STR	87	0	4
SI_	87	0	4	96	144	7
STR	87	288	0
SI_	87	288	0	96	144	3
XTP	88	192	4
XTP	88	336	5
TAP	89	96	6
TAP	89	240	7
TAP	90	0	0
TAP	90	144	1
TAP	90	288	2
TAP	91	48	3
TAP	91	192	3
TAP	91	192	4
TAP	91	288	2
TAP	91	336	2
TAP	92	48	1
TAP	92	96	1
TAP	92	192	0
TAP	92	240	0
TAP	92	336	7
XTP	93	0	0
XTP	93	0	7
TAP	93	96	1
TAP	93	96	6
TAP	93	192	2
TAP	93	192	5
TAP	93	288	3
TAP	93	288	4
STR	94	0	3
SCL	94	0	3	96	144	0
STR	94	0	4
SCR	94	0	4	96	144	7
TAP	95	0	0
TAP	95	48	0
TAP	95	96	0
TAP	95	192	7
TAP	95	240	7
HLD	95	288	0	432
HLD	95	288	7	432
TTP	97	96	0	C	1	L1

T_REC_TAP	230
T_REC_BRK	11
T_REC_XTP	23
T_REC_HLD	29
T_REC_XHO	1
T_REC_STR	14
T_REC_BST	1
T_REC_XST	3
T_REC_TTP	37
T_REC_THO	1
T_REC_SLD	18
T_REC_ALL	368
T_NUM_TAP	307
T_NUM_BRK	12
T_NUM_HLD	31
T_NUM_SLD	18
T_NUM_ALL	368
T_JUDGE_TAP	319
T_JUDGE_HLD	106
T_JUDGE_SLD	18
T_JUDGE_ALL	443
TTM_EACHPAIRS	92
TTM_SCR_TAP	153500
TTM_SCR_BRK	31200
TTM_SCR_HLD	31000
TTM_SCR_SLD	27000
TTM_SCR_ALL	242700
TTM_SCR_S	234300
TTM_SCR_SS	241500
TTM_RAT_ACV	10049

