VERSION	0.00.00	1.03.00
FES_MODE	0
BPM_DEF	172.000	172.000	172.000	172.000
MET_DEF	4	4
RESOLUTION	384
CLK_DEF	384
COMPATIBLE_CODE	MA2

BPM	0	0	172.000
MET	0	0	4	4

XTP	3	0	0
XTP	4	192	0
XTP	6	0	7
XTP	7	192	7
HLD	9	0	0	576
HLD	12	0	7	576
XTP	14	192	0
XTP	15	0	0
TAP	15	192	1
TAP	16	0	1
TAP	16	192	2
TAP	17	192	3
TAP	18	0	3
TAP	18	192	4
TAP	19	192	4
TAP	20	0	4
TAP	20	192	5
TAP	21	192	6
TAP	22	0	6
TAP	22	192	0
TAP	22	192	7
TAP	23	192	7
TAP	24	0	7
TAP	24	192	6
TAP	25	192	5
TAP	26	0	5
TAP	26	192	4
TAP	27	0	3
TAP	27	0	4
TAP	27	192	3
TAP	28	0	3
TAP	28	192	2
TAP	29	0	2
TAP	29	192	1
TAP	30	0	1
TAP	30	192	0
BRK	31	0	0
BRK	31	0	7
TTP	33	0	0	B	0	L1
TTP	33	0	1	E	0	L1
TTP	35	0	6	B	0	L1
TTP	35	0	7	E	0	L1
TTP	37	0	1	B	0	L1
TTP	37	0	2	B	0	L1
TTP	39	0	4	B	0	L1
TTP	40	0	3	B	0	L1
TTP	41	0	5	B	0	L1
TTP	42	0	2	B	0	L1
XHO	43	0	7	288
XHO	44	288	0	384
THO	46	288	0	1152	C	0	L1
XTP	50	288	7
TAP	51	96	7
TAP	51	288	6
TAP	52	0	6
TAP	52	96	6
TAP	52	288	5
TAP	53	96	5
TAP	53	288	4
TAP	54	0	4
TAP	54	96	3
TAP	54	96	4
TAP	54	288	3
TAP	55	96	3
TAP	55	288	2
TAP	56	0	2
TAP	56	96	2
TAP	56	288	1
TAP	57	96	1
TAP	57	288	0
TAP	58	0	0
TAP	58	96	0
TAP	58	96	7
TAP	58	288	1
TAP	59	0	1
TAP	59	96	1
TAP	59	288	2
TAP	60	0	2
TAP	60	96	2
TAP	60	288	3
TAP	61	0	3
TAP	61	96	3
TAP	61	288	4
TAP	62	0	4
XTP	62	96	3
XTP	62	96	4
XHO	62	288	2	288
XHO	62	288	5	288
THO	64	192	0	384	C	0	L1
STR	66	192	0
SI_	66	192	0	96	288	3
STR	68	192	7
SI_	68	192	7	96	288	4
STR	70	192	0
SI_	70	192	0	96	288	4
STR	72	192	7
SI_	72	192	7	96	288	3
TAP	74	192	0
TAP	74	288	0
TAP	75	0	1
TAP	75	96	1
TAP	75	192	2
TAP	75	288	2
TAP	76	0	2
TAP	76	0	3
TAP	76	192	4
TAP	76	288	4
TAP	77	0	5
TAP	77	96	5
TAP	77	192	6
TAP	77	288	6
TAP	78	0	6
TAP	78	0	7
TAP	78	192	7
TAP	78	288	7
TAP	79	0	6
TAP	79	96	6
TAP	79	192	5
TAP	79	288	5
TAP	80	0	4
TAP	80	0	5
TAP	80	192	3
TAP	80	288	3
TAP	81	0	2
TAP	81	96	2
TAP	81	192	1
TAP	81	288	1
TAP	82	0	0
TAP	82	0	1
XHO	82	192	0	288
XHO	82	192	1	288
XHO	84	0	2	288
XHO	84	0	3	288
XHO	85	192	4	288
XHO	85	192	5	288
XHO	87	0	6	288
XHO	87	0	7	288
XHO	88	192	0	288
XHO	88	192	6	288
XHO	90	0	1	288
XHO	90	0	7	288
TAP	91	192	0
TAP	91	288	0
TAP	92	0	0
TAP	92	96	7
TAP	92	192	7
TAP	92	288	7
TAP	93	0	0
TAP	93	0	7
TAP	93	96	0
TAP	93	96	7
TAP	93	192	1
TAP	93	192	6
TAP	93	288	1
TAP	93	288	6
TAP	94	0	2
TAP	94	0	5
TAP	94	96	2
TAP	94	96	5
TAP	94	192	3
TAP	94	192	4
TAP	94	288	3
TAP	94	288	4
XTP	95	0	3
XTP	95	0	4
BRK	95	192	2
BRK	95	192	5
THO	96	0	0	480	C	1	L1

T_REC_TAP	114
T_REC_BRK	4
T_REC_XTP	11
T_REC_HLD	2
T_REC_XHO	16
T_REC_STR	4
T_REC_BST	0
T_REC_XST	0
T_REC_TTP	10
T_REC_THO	3
T_REC_SLD	4
T_REC_ALL	168
T_NUM_TAP	139
T_NUM_BRK	4
T_NUM_HLD	21
T_NUM_SLD	4
T_NUM_ALL	168
T_JUDGE_TAP	143
T_JUDGE_HLD	164
T_JUDGE_SLD	4
T_JUDGE_ALL	311
TTM_EACHPAIRS	27
TTM_SCR_TAP	69500
TTM_SCR_BRK	10400
TTM_SCR_HLD	21000
TTM_SCR_SLD	6000
TTM_SCR_ALL	106900
TTM_SCR_S	103350
TTM_SCR_SS	106500
TTM_RAT_ACV	10037

