VERSION	0.00.00	1.03.00
FES_MODE	0
BPM_DEF	185.000	185.000	185.000	185.000
MET_DEF	4	4
RESOLUTION	384
CLK_DEF	384
COMPATIBLE_CODE	MA2

BPM	0	0	185.000
MET	0	0	4	4

XTP	2	0	2
XTP	2	0	3
XTP	2	72	2
XTP	2	72	3
XTP	2	144	2
XTP	2	144	3
XHO	2	192	2	96
XTP	2	192	3
TAP	2	288	7
XTP	3	0	4
XTP	3	0	5
XTP	3	72	4
XTP	3	72	5
XTP	3	144	4
XTP	3	144	5
XTP	3	192	4
XHO	3	192	5	96
TAP	3	288	0
HLD	4	0	2	72
TAP	4	0	3
TAP	4	72	7
TAP	4	192	4
HLD	4	192	5	72
TAP	4	264	0
STR	5	0	0
SCR	5	0	0	96	48	3
STR	5	0	7
SCL	5	0	7	96	48	4
TAP	5	192	3
TAP	5	216	4
TAP	5	240	3
TAP	5	264	4
BRK	5	288	1
BRK	5	288	6
STR	6	0	0
SI_	6	0	0	96	48	4
TAP	6	0	4
TAP	6	72	5
TAP	6	144	6
TAP	6	192	3
STR	6	192	7
SI_	6	192	7	96	48	3
TAP	6	264	2
TAP	6	336	1
TAP	7	0	0
HLD	7	0	4	72
HLD	7	72	5	72
TAP	7	144	6
XST	7	192	6
SI_	7	192	6	96	48	2
XTP	7	192	7
TAP	7	288	0
STR	8	0	0
SI_	8	0	0	96	48	4
TAP	8	0	4
TAP	8	72	5
TAP	8	144	6
TAP	8	192	3
STR	8	192	7
SI_	8	192	7	96	48	3
TAP	8	264	2
TAP	8	336	1
STR	9	0	1
SCL	9	0	1	96	96	4
HLD	9	0	5	192
TAP	9	288	1
TAP	9	288	6
TAP	10	0	3
STR	10	0	7
SI_	10	0	7	96	48	3
TAP	10	72	2
TAP	10	144	1
STR	10	192	0
SI_	10	192	0	96	48	4
TAP	10	192	4
TAP	10	264	5
TAP	10	336	6
HLD	11	0	3	72
TAP	11	0	7
HLD	11	72	2	72
TAP	11	144	1
XTP	11	192	0
XST	11	192	1
SI_	11	192	1	96	48	5
TAP	11	288	7
XHO	12	0	6	72
HLD	12	72	5	72
TAP	12	144	4
XHO	12	192	3	72
HLD	12	264	2	72
TAP	12	336	1
STR	13	0	0
SCL	13	0	0	96	48	5
SCR	13	0	0	96	48	3
TTP	13	192	0	C	1	M1
XTP	13	336	4
XTP	13	336	6
HLD	14	48	5	48
TAP	14	96	3
HLD	14	144	2	96
TAP	14	192	4
TAP	14	240	3
TAP	14	336	1
TAP	14	336	3
HLD	15	48	2	48
TAP	15	96	4
HLD	15	144	5	96
TAP	15	192	3
TAP	15	240	4
XHO	15	336	3	240
XTP	15	336	6
TAP	16	48	5
TAP	16	96	5
TAP	16	144	4
TAP	16	192	4
XTP	16	336	1
XHO	16	336	4	240
TAP	17	48	2
TAP	17	96	2
TAP	17	144	3
TAP	17	192	3
XTP	17	336	3
XTP	17	336	6
HLD	18	48	5	48
TAP	18	96	4
HLD	18	144	3	96
TAP	18	192	2
TAP	18	240	2
TAP	18	336	1
TAP	18	336	4
HLD	19	48	2	48
TAP	19	96	3
HLD	19	144	4	96
TAP	19	192	5
TAP	19	240	5
XTP	19	336	3
XHO	19	336	6	240
TAP	20	48	5
TAP	20	96	5
TAP	20	144	4
TAP	20	192	4
XHO	20	336	1	240
XTP	20	336	4
TAP	21	48	2
TAP	21	96	2
TAP	21	144	3
TAP	21	192	3
TAP	21	288	2
TAP	21	288	4
HLD	22	0	3	288
STR	22	0	5
SCR	22	0	5	96	192	2
STR	23	0	2
SCL	23	0	2	96	192	5
HLD	23	0	4	288
TAP	24	0	5
TAP	24	48	5
TAP	24	96	4
TAP	24	96	6
TAP	24	192	3
TAP	24	240	2
TAP	24	288	4
TAP	24	336	5
TAP	25	0	7
STR	25	96	0
SI_	25	96	0	96	48	3
STR	25	96	6
SI_	25	96	6	96	48	3
TAP	25	288	0
TAP	25	288	6
TAP	26	0	2
TAP	26	96	2
TAP	26	192	2
TAP	26	192	3
TAP	26	240	2
TAP	26	240	3
TAP	26	288	2
TAP	26	288	3
TAP	27	0	4
TAP	27	0	5
TAP	27	48	4
TAP	27	48	5
TAP	27	96	4
TAP	27	96	5
TAP	27	144	4
TAP	27	144	5
XTP	27	240	1
XTP	27	240	6
XTP	27	288	1
XTP	27	288	6
STR	28	0	2
SI_	28	0	2	96	48	7
TAP	28	0	7
STR	28	96	5
SCR	28	96	5	96	48	0
STR	28	192	2
SCL	28	192	2	96	48	7
STR	28	288	5
SI_	28	288	5	96	48	0
STR	29	0	2
SI_	29	0	2	96	48	6
TAP	29	96	5
BRK	29	192	3
BRK	29	192	7
TAP	30	0	3
TAP	30	48	3
TTP	30	96	6	E	0	M1
TAP	30	192	4
TAP	30	240	4
TTP	30	288	2	E	0	M1
STR	31	0	0
SXL	31	0	0	96	192	4
SXR	31	0	0	96	192	4
TAP	32	0	5
TAP	32	48	4
TTP	32	96	2	E	0	M1
TAP	32	192	2
TAP	32	240	3
TTP	32	288	6	E	0	M1
STR	33	0	6
SUR	33	0	6	96	120	4
STR	33	96	1
SUL	33	96	1	96	120	3
TAP	34	0	2
TAP	34	48	3
TTP	34	96	6	B	0	M1
TTP	34	96	6	E	0	M1
TAP	34	192	5
TAP	34	240	4
TTP	34	288	1	B	0	M1
TTP	34	288	2	E	0	M1
STR	35	0	4
SXL	35	0	4	96	120	4
STR	35	96	3
SXR	35	96	3	96	120	3
HLD	36	0	5	192
TAP	36	144	4
HLD	36	192	4	96
TAP	36	288	5
HLD	37	0	2	192
TAP	37	0	4
TAP	37	144	3
TAP	37	192	3
TAP	37	288	1
TAP	37	288	6
XTP	37	336	1
XTP	37	336	6
TAP	38	48	3
TAP	38	96	2
TAP	38	96	4
TAP	38	144	3
TAP	38	192	1
TAP	38	192	5
TAP	38	240	3
TAP	38	288	0
TAP	38	288	6
XTP	38	336	1
XTP	38	336	7
TAP	39	48	4
TAP	39	96	3
TAP	39	96	5
TAP	39	144	4
TAP	39	192	2
TAP	39	192	6
TAP	39	240	4
TAP	39	288	1
TAP	39	288	7
HLD	40	0	0	336
TAP	40	0	6
TAP	40	96	2
TAP	40	192	3
TAP	40	240	3
TAP	40	288	3
XHO	40	336	4	336
TAP	41	48	6
TAP	41	96	6
TAP	41	192	0
TAP	41	240	0
TAP	41	288	0
XST	42	0	0
SI_	42	0	0	96	48	5
XST	42	0	1
SI_	42	0	1	96	48	4
XST	42	192	6
SI_	42	192	6	96	48	3
XST	42	192	7
SI_	42	192	7	96	48	2
BRK	43	0	0
BRK	43	0	7
BRK	43	96	3
BRK	43	96	4
TTP	43	192	0	C	1	M1
TTP	43	192	2	E	0	M1
TTP	43	192	6	E	0	M1
BST	43	336	1
SCR	43	336	1	96	48	4
BRK	43	336	7
STR	44	48	0
SI_	44	48	0	96	48	4
TAP	44	96	0
STR	44	144	2
SI_	44	144	2	96	48	7
TAP	44	192	2
TAP	44	240	5
STR	44	336	6
SCL	44	336	6	96	48	3
STR	45	48	7
SI_	45	48	7	96	48	3
TAP	45	96	7
STR	45	144	5
SI_	45	144	5	96	48	0
TAP	45	192	5
TAP	45	240	2
HLD	45	336	2	144
TAP	46	48	4
HLD	46	96	5	96
TAP	46	144	4
HLD	46	192	0	96
TAP	46	240	3
HLD	46	288	6	48
STR	46	336	2
SI_	46	336	2	96	48	6
STR	47	48	7
SI_	47	48	7	96	48	2
SI_	47	48	7	96	48	4
XTP	47	144	7
TAP	47	240	1
TAP	47	288	3
TAP	47	336	4
HLD	48	0	6	96
XST	48	96	7
SI_	48	96	7	96	48	3
XTP	48	128	7
XTP	48	160	7
XTP	48	192	7
TAP	48	288	2
TAP	48	288	4
HLD	49	0	1	96
TAP	49	0	5
XST	49	96	0
SI_	49	96	0	96	48	4
XTP	49	128	0
XTP	49	160	0
XTP	49	192	0
TAP	49	288	3
TAP	49	288	5
XTP	49	336	2
XST	49	336	6
SXL	49	336	6	96	144	1
TAP	50	48	2
TAP	50	96	3
TAP	50	144	4
HLD	50	192	5	144
TAP	50	288	0
TAP	50	336	0
XTP	51	48	0
XTP	51	48	7
XTP	51	120	4
XTP	51	120	5
TTP	51	192	0	C	1	M1
TTP	51	192	2	B	0	M1
TTP	51	192	2	E	0	M1
TTP	51	192	3	B	0	M1
TTP	51	192	4	E	0	M1
XTP	51	336	0
XST	51	336	6
SCL	51	336	6	96	48	3
STR	52	48	7
SI_	52	48	7	96	48	3
TAP	52	96	7
STR	52	144	5
SI_	52	144	5	96	48	0
TAP	52	192	5
TAP	52	240	2
STR	52	336	1
SCR	52	336	1	96	48	4
STR	53	48	0
SI_	53	48	0	96	48	4
TAP	53	96	0
STR	53	144	2
SI_	53	144	2	96	48	7
TAP	53	192	2
TAP	53	240	5
HLD	53	336	5	144
TAP	54	48	3
HLD	54	96	2	96
TAP	54	144	3
HLD	54	192	7	96
TAP	54	240	4
HLD	54	288	1	48
STR	54	336	5
SI_	54	336	5	96	48	1
STR	55	48	0
SI_	55	48	0	96	48	3
SI_	55	48	0	96	48	5
XTP	55	144	0
TAP	55	240	6
TAP	55	288	4
TAP	55	336	3
HLD	56	0	1	96
XST	56	96	0
SI_	56	96	0	96	48	4
XTP	56	128	0
XTP	56	160	0
XTP	56	192	0
TAP	56	288	3
TAP	56	288	5
TAP	57	0	2
HLD	57	0	6	96
XST	57	96	7
SI_	57	96	7	96	48	3
XTP	57	128	7
XTP	57	160	7
XTP	57	192	7
TAP	57	288	1
TAP	57	288	4
TAP	58	0	3
STR	58	0	7
SI_	58	0	7	96	48	5
TAP	58	96	4
STR	58	192	0
SI_	58	192	0	96	48	2
TAP	58	192	4
XST	58	288	3
SXL	58	288	3	96	120	5
SXR	58	288	3	96	120	1
XTP	59	0	3
TAP	59	192	2
TAP	59	192	3
TAP	59	288	4
TAP	59	288	5
XHO	60	0	6	64
HLD	60	64	5	64
HLD	60	128	4	64
XHO	60	192	1	64
HLD	60	256	2	64
HLD	60	320	3	64
XHO	61	0	7	64
HLD	61	64	5	64
HLD	61	128	4	64
TAP	61	192	3
XTP	61	240	2
XTP	61	240	5
XTP	61	288	1
XTP	61	288	6
BRK	61	336	0
BRK	61	336	7
TAP	62	48	1
TAP	62	48	4
TAP	62	96	2
TAP	62	96	5
TAP	62	144	3
TAP	62	144	6
STR	62	192	4
SI_	62	192	4	96	48	0
STR	62	192	7
SI_	62	192	7	96	48	3
TAP	62	288	4
STR	62	288	7
SF_	62	288	7	96	96	3
XTP	63	0	7
BRK	63	192	0
BRK	63	192	1
BRK	63	288	4
BRK	63	288	5
TAP	64	0	6
TAP	64	0	7
TAP	64	32	6
TAP	64	32	7
TAP	64	64	6
TAP	64	64	7
XTP	64	96	6
XTP	64	96	7
TAP	64	192	2
TAP	64	192	3
TAP	64	224	2
TAP	64	224	3
TAP	64	256	2
TAP	64	256	3
XTP	64	288	2
XST	64	288	3
SXL	64	288	3	96	120	3
SXR	64	288	3	96	120	3
XTP	65	0	3
BRK	65	192	1
BRK	65	192	6
XTP	65	336	3
XTP	65	336	5
TAP	66	48	2
TAP	66	96	2
TAP	66	96	4
TAP	66	144	2
TAP	66	192	2
TAP	66	192	3
TAP	66	240	2
TAP	66	288	1
TAP	66	288	2
STR	66	336	1
SCL	66	336	1	96	144	3
HLD	66	336	2	240
TAP	67	288	0
TAP	67	288	1
XTP	67	336	0
XTP	67	336	1
TAP	68	48	5
TAP	68	96	3
TAP	68	96	5
TAP	68	144	5
TAP	68	192	4
TAP	68	192	5
TAP	68	240	5
TAP	68	288	5
TAP	68	288	6
HLD	68	336	5	288
TAP	68	336	6
TAP	69	48	7
TAP	69	96	0
STR	69	144	1
SCR	69	144	1	96	48	4
XTP	69	336	6
XTP	69	336	7
TAP	70	48	1
TAP	70	72	0
TAP	70	96	1
TAP	70	144	2
TAP	70	192	3
TAP	70	240	2
TAP	70	240	4
TAP	70	288	2
TAP	70	288	5
TAP	70	336	2
TAP	70	336	6
TAP	71	48	6
TAP	71	72	7
TAP	71	96	6
TAP	71	144	5
TAP	71	192	4
TAP	71	240	3
TAP	71	240	5
TAP	71	288	2
TAP	71	288	5
TAP	71	336	1
TAP	71	336	5
STR	72	48	1
SI_	72	48	1	96	48	4
TAP	72	96	3
TAP	72	144	1
STR	72	240	6
SI_	72	240	6	96	48	3
TAP	72	288	4
TAP	72	336	6
STR	73	48	0
SI_	73	48	0	96	48	4
TAP	73	96	2
TAP	73	144	0
TAP	73	240	5
TAP	73	288	6
TAP	73	336	7
XTP	74	0	1
TAP	74	24	0
TAP	74	48	1
TAP	74	72	0
XTP	74	96	2
TAP	74	120	7
TAP	74	144	2
TAP	74	168	7
XTP	74	192	3
TAP	74	216	6
TAP	74	240	3
TAP	74	264	6
XTP	74	288	4
TAP	74	312	5
XHO	74	336	4	96
XTP	75	48	6
TAP	75	72	7
XTP	75	96	5
TAP	75	120	0
TAP	75	144	5
TAP	75	168	0
XTP	75	192	4
TAP	75	216	1
TAP	75	240	4
TAP	75	264	1
XTP	75	288	3
TAP	75	312	2
XTP	75	336	3
XST	76	48	0
SCR	76	48	0	96	48	3
XST	76	48	7
SCL	76	48	7	96	48	4
XTP	76	144	0
XTP	76	144	7
BRK	76	240	1
BRK	76	240	6
XTP	76	336	0
XHO	76	336	5	384
TTP	77	96	5	B	0	M1
TTP	77	96	6	B	0	M1
TTP	77	192	3	B	0	M1
TTP	77	192	4	B	0	M1
XHO	77	336	2	384
TTP	78	96	1	B	0	M1
TTP	78	96	2	B	0	M1
TTP	78	192	3	B	0	M1
TTP	78	192	4	B	0	M1
XHO	78	336	6	384
TAP	79	96	5
TAP	79	192	4
TAP	79	288	3
HLD	79	336	3	432
TAP	80	48	4
TAP	80	144	2
TAP	80	240	1
STR	80	288	1
SCL	80	288	1	96	48	6
TAP	81	96	4
TAP	81	96	5
TAP	81	192	2
TAP	81	192	3
TTP	81	288	4	B	0	M1
TTP	81	288	5	B	0	M1
TTP	82	0	2	B	0	M1
TTP	82	0	3	B	0	M1
TAP	82	96	6
TAP	82	96	7
HLD	82	192	0	96
HLD	82	192	1	96
TAP	83	0	3
TAP	83	48	3
TAP	83	96	4
TAP	83	144	4
TAP	83	192	2
TAP	83	216	5
TAP	83	240	2
TAP	83	264	5
TAP	83	288	1
TAP	83	312	6
TAP	83	336	1
TAP	83	360	6
XTP	84	0	0
XTP	84	0	7
XTP	84	96	4
XTP	84	96	5
TTP	84	192	0	C	1	M1
TTP	84	192	2	B	0	M1
TTP	84	192	2	E	0	M1
TTP	84	192	3	B	0	M1
TTP	84	192	4	E	0	M1
XTP	84	336	0
XST	84	336	6
SCL	84	336	6	96	48	3
STR	85	48	7
SI_	85	48	7	96	48	3
TAP	85	96	7
STR	85	144	4
SI_	85	144	4	96	48	0
TAP	85	192	4
TAP	85	240	1
XST	85	336	1
SCR	85	336	1	96	48	4
STR	86	48	0
SI_	86	48	0	96	48	4
TAP	86	96	0
STR	86	144	3
SI_	86	144	3	96	48	7
TAP	86	192	3
TAP	86	240	6
HLD	86	336	5	144
TAP	87	48	7
HLD	87	96	3	96
TAP	87	144	0
HLD	87	192	4	96
TAP	87	240	7
HLD	87	288	2	48
STR	87	336	0
SI_	87	336	0	96	48	4
STR	88	48	2
SCL	88	48	2	96	48	7
BRK	88	144	6
TAP	88	240	5
TAP	88	288	4
TAP	88	336	3
HLD	89	0	2	96
BST	89	96	0
SCL	89	96	0	96	48	5
BRK	89	128	0
BRK	89	160	0
BRK	89	192	0
TAP	89	288	3
TAP	89	288	4
HLD	90	0	5	96
BST	90	96	7
SCR	90	96	7	96	48	2
BRK	90	128	7
BRK	90	160	7
BRK	90	192	7
TAP	90	288	3
TAP	90	288	4
STR	91	0	0
SI_	91	0	0	96	48	4
STR	91	0	1
SI_	91	0	1	96	48	5
XTP	91	96	0
XTP	91	96	1
STR	91	192	6
SI_	91	192	6	96	48	2
STR	91	192	7
SI_	91	192	7	96	48	3
XTP	91	288	6
XST	91	288	7
SXL	91	288	7	96	120	1
SXR	91	288	7	96	120	5
TAP	92	192	2
TAP	92	192	3
TAP	92	288	4
TAP	92	288	5
XHO	93	0	0	64
XHO	93	64	5	64
XHO	93	128	3	64
XHO	93	192	1	64
XHO	93	256	6	64
XHO	93	320	4	64
XHO	94	0	2	64
XHO	94	64	0	64
XHO	94	128	3	64
XTP	94	192	4
XTP	94	240	2
XTP	94	240	5
XTP	94	288	1
XTP	94	288	6
BRK	94	336	0
BRK	94	336	7
TAP	95	48	1
TAP	95	48	4
TAP	95	96	2
TAP	95	96	5
TAP	95	144	3
TAP	95	144	6
STR	95	192	4
SI_	95	192	4	96	48	0
STR	95	192	7
SI_	95	192	7	96	48	3
TAP	95	288	4
STR	95	288	7
SF_	95	288	7	96	96	3
XTP	96	0	7
BRK	96	192	0
BRK	96	192	1
BRK	96	288	4
BRK	96	288	5
TAP	97	0	6
TAP	97	0	7
TAP	97	32	6
TAP	97	32	7
TAP	97	64	6
TAP	97	64	7
XTP	97	96	0
XTP	97	96	5
TAP	97	192	0
TAP	97	192	1
TAP	97	224	0
TAP	97	224	1
TAP	97	256	0
TAP	97	256	1
XTP	97	288	2
XTP	97	288	7
XST	98	0	1
SCR	98	0	1	96	48	4
XTP	98	0	4
XST	98	96	1
SI_	98	96	1	96	48	5
XTP	98	96	5
TTP	98	192	0	C	1	M1
BRK	98	192	6
TAP	98	288	7
TAP	99	0	0
TAP	99	0	1
TAP	99	32	0
TAP	99	32	1
TAP	99	64	0
TAP	99	64	1
XTP	99	96	2
XTP	99	96	7
TAP	99	192	6
TAP	99	192	7
TAP	99	224	6
TAP	99	224	7
TAP	99	256	6
TAP	99	256	7
XTP	99	288	0
XTP	99	288	5
XST	100	0	2
SCL	100	0	2	96	48	7
XST	100	0	6
SCL	100	0	6	96	48	3
XST	100	96	2
SI_	100	96	2	96	48	5
XST	100	96	6
SI_	100	96	6	96	48	1
TTP	100	192	0	C	1	M1
STR	101	0	0
SI_	101	0	0	96	48	4
TAP	101	0	4
TAP	101	72	5
TAP	101	144	6
TAP	101	192	3
STR	101	192	7
SI_	101	192	7	96	48	3
TAP	101	264	2
TAP	101	336	1
TAP	102	0	0
HLD	102	0	4	72
HLD	102	72	5	72
TAP	102	144	6
XST	102	192	6
SI_	102	192	6	96	48	2
XTP	102	192	7
TAP	102	288	0
STR	103	0	0
SI_	103	0	0	96	48	4
TAP	103	0	4
TAP	103	72	5
TAP	103	144	6
TAP	103	192	3
STR	103	192	7
SI_	103	192	7	96	48	3
TAP	103	264	2
TAP	103	336	1
STR	104	0	1
SCL	104	0	1	96	96	4
HLD	104	0	5	192
TAP	104	288	1
TAP	104	288	6
TAP	105	0	3
STR	105	0	7
SI_	105	0	7	96	48	3
TAP	105	72	2
TAP	105	144	1
STR	105	192	0
SI_	105	192	0	96	48	4
TAP	105	192	4
TAP	105	264	5
TAP	105	336	6
HLD	106	0	3	72
TAP	106	0	7
HLD	106	72	2	72
TAP	106	144	1
XTP	106	192	0
XST	106	192	1
SI_	106	192	1	96	48	5
TAP	106	288	7
XHO	107	0	6	72
HLD	107	72	5	72
TAP	107	144	4
XHO	107	192	3	72
HLD	107	264	2	72
TAP	107	336	1
XST	108	0	7
SI_	108	0	7	96	48	3
TAP	108	48	7
XST	108	96	1
SI_	108	96	1	96	48	5
TAP	108	144	1
XST	108	192	6
SI_	108	192	6	96	48	2
TAP	108	240	6
XST	108	288	0
SI_	108	288	0	96	48	4
TAP	108	336	0
XST	109	0	5
SI_	109	0	5	96	48	1
TAP	109	48	5
XST	109	96	3
SI_	109	96	3	96	48	7
TAP	109	144	3
XTP	109	192	7
TTP	109	288	0	C	1	M1
TTP	109	288	1	B	0	M1
TTP	109	288	2	E	0	M1
TTP	109	288	3	E	0	M1
TTP	109	288	4	E	0	M1
TTP	109	288	5	E	0	M1
TTP	109	288	6	B	0	M1
TTP	109	288	6	E	0	M1

T_REC_TAP	396
T_REC_BRK	33
T_REC_XTP	107
T_REC_HLD	60
T_REC_XHO	27
T_REC_STR	69
T_REC_BST	3
T_REC_XST	33
T_REC_TTP	44
T_REC_THO	0
T_REC_SLD	112
T_REC_ALL	884
T_NUM_TAP	649
T_NUM_BRK	36
T_NUM_HLD	87
T_NUM_SLD	112
T_NUM_ALL	884
T_JUDGE_TAP	685
T_JUDGE_HLD	241
T_JUDGE_SLD	112
T_JUDGE_ALL	1038
TTM_EACHPAIRS	177
TTM_SCR_TAP	324500
TTM_SCR_BRK	93600
TTM_SCR_HLD	87000
TTM_SCR_SLD	168000
TTM_SCR_ALL	673100
TTM_SCR_S	649450
TTM_SCR_SS	669500
TTM_RAT_ACV	10053

