VERSION	0.00.00	1.03.00
FES_MODE	0
BPM_DEF	185.000	185.000	185.000	185.000
MET_DEF	4	4
RESOLUTION	384
CLK_DEF	384
COMPATIBLE_CODE	MA2

BPM	0	0	185.000
MET	0	0	4	4

TAP	1	288	3
TAP	1	288	4
HLD	2	0	2	192
TAP	2	192	3
TAP	2	288	1
TAP	2	288	4
HLD	3	0	5	192
TAP	3	192	4
TAP	3	288	3
TAP	3	288	6
TAP	4	0	2
TAP	4	0	4
TAP	4	96	1
TAP	4	192	3
TAP	4	192	5
TAP	4	288	6
TAP	5	0	2
STR	5	0	5
SCL	5	0	5	96	96	2
XTP	5	288	0
TAP	6	0	0
TAP	6	0	7
TAP	6	96	1
TAP	6	96	3
TAP	6	192	0
TAP	6	288	4
TAP	6	288	6
TAP	7	0	7
TAP	7	96	1
TAP	7	96	3
HLD	7	192	0	96
TAP	7	288	7
TAP	7	336	7
TAP	8	0	1
TAP	8	96	4
TAP	8	96	6
TAP	8	192	7
TAP	8	288	1
TAP	8	288	3
TAP	9	0	0
TAP	9	96	4
TAP	9	96	6
XTP	9	192	7
XTP	9	240	7
XTP	9	288	0
XTP	9	288	6
TAP	10	0	1
TAP	10	0	7
TAP	10	96	4
TAP	10	96	6
TAP	10	192	7
TAP	10	288	1
TAP	10	288	3
TAP	11	0	0
TAP	11	96	4
TAP	11	96	6
HLD	11	192	7	96
TAP	11	288	0
TAP	11	336	0
TAP	12	0	6
TAP	12	96	1
TAP	12	96	3
TAP	12	192	0
STR	12	288	4
SCL	12	288	4	96	96	1
TAP	12	288	6
XTP	13	192	0
XTP	13	192	7
TAP	13	288	3
TAP	13	288	4
TAP	14	0	4
TAP	14	96	5
TAP	14	192	4
TAP	14	192	6
TAP	14	288	4
TAP	14	288	6
TAP	15	0	3
TAP	15	96	2
TAP	15	192	1
TAP	15	192	3
TAP	15	288	1
TAP	15	288	3
HLD	16	0	2	48
HLD	16	0	4	48
HLD	16	96	2	48
HLD	16	96	4	48
XTP	16	192	1
XTP	16	192	5
TAP	16	288	2
HLD	17	0	3	48
HLD	17	0	5	48
HLD	17	96	3	48
HLD	17	96	5	48
XTP	17	192	2
XTP	17	192	6
TAP	17	288	5
TAP	18	0	3
TAP	18	96	2
TAP	18	192	1
TAP	18	192	3
TAP	18	288	1
TAP	18	288	3
TAP	19	0	4
TAP	19	96	5
TAP	19	192	4
TAP	19	192	6
TAP	19	288	4
TAP	19	288	6
HLD	20	0	3	48
HLD	20	0	5	48
HLD	20	96	3	48
HLD	20	96	5	48
XTP	20	192	2
XTP	20	192	6
TAP	20	288	5
HLD	21	0	2	48
HLD	21	0	4	48
HLD	21	96	2	48
HLD	21	96	4	48
XTP	21	192	1
XTP	21	192	5
STR	21	288	0
SCR	21	288	0	96	96	3
TAP	22	192	7
TAP	22	288	6
TAP	23	0	5
TAP	23	96	2
TAP	23	96	4
TAP	23	192	1
TAP	23	240	1
TAP	23	288	3
XTP	24	0	0
XTP	24	0	4
TAP	24	96	5
TAP	24	192	6
TAP	24	240	6
TAP	24	288	4
XTP	25	0	3
XTP	25	0	7
STR	25	96	3
SV_	25	96	3	96	96	0
STR	25	96	7
SV_	25	96	7	96	96	4
HLD	26	0	1	192
HLD	26	192	3	192
HLD	27	0	4	192
TAP	27	192	6
TAP	27	288	2
TAP	27	288	5
TAP	28	0	3
TAP	28	0	4
XTP	28	96	0
XTP	28	96	6
TAP	28	192	3
TAP	28	192	4
XTP	28	288	1
XTP	28	288	7
TAP	29	0	3
TAP	29	0	4
XTP	29	96	0
XTP	29	96	6
XTP	29	192	1
XTP	29	192	7
TTP	30	0	3	E	0	M1
TTP	30	0	5	E	0	M1
TTP	30	192	0	C	1	M1
TAP	31	0	0
TAP	31	0	7
TAP	31	96	0
TAP	31	96	7
TAP	31	192	1
TAP	31	192	6
STR	32	0	7
SCL	32	0	7	96	96	4
TAP	32	192	0
STR	32	288	0
SCR	32	288	0	96	240	7
STR	34	0	5
SSR	34	0	5	96	240	1
TAP	35	0	0
TAP	35	96	0
TAP	35	96	7
TAP	35	192	0
TAP	35	192	7
HLD	36	0	3	96
HLD	36	0	6	96
HLD	36	192	1	96
HLD	36	192	4	96
XHO	37	0	3	48
XHO	37	0	5	48
XHO	37	96	2	48
XHO	37	96	4	48
XHO	37	192	3	48
XHO	37	192	5	48
XTP	37	288	2
XTP	37	288	4
XTP	38	0	0
XTP	38	0	1
TAP	38	96	2
TAP	38	96	7
TAP	38	192	3
TAP	38	192	6
TAP	38	288	4
TAP	38	288	5
XTP	39	0	6
XTP	39	0	7
TAP	39	96	0
TAP	39	96	5
BRK	39	192	1
BRK	39	192	4
TAP	39	288	2
STR	39	288	3
SXR	39	288	3	96	288	6
XTP	41	0	0
XTP	41	0	7
XTP	41	96	1
XTP	41	96	6
XTP	41	192	2
XTP	41	192	5
HLD	42	0	1	192
TAP	42	96	0
HLD	42	192	6	192
TAP	42	288	7
BRK	43	0	0
BRK	43	96	1
BRK	43	96	7
BRK	43	192	2
BRK	43	192	6
HLD	43	336	0	96
HLD	43	336	6	96
TAP	44	96	1
TAP	44	96	7
TAP	44	192	0
TAP	44	192	6
TAP	44	240	0
TAP	44	240	6
HLD	44	336	1	96
HLD	44	336	7	96
TAP	45	96	0
TAP	45	96	6
TAP	45	192	1
TAP	45	192	7
TAP	45	240	1
TAP	45	240	7
HLD	45	336	2	96
HLD	45	336	6	96
TAP	46	96	1
TAP	46	96	5
TAP	46	192	2
TAP	46	192	6
TAP	46	288	3
TAP	46	288	4
TAP	46	336	3
TAP	46	336	4
TAP	47	48	0
TAP	47	48	7
STR	47	96	0
SXL	47	96	0	96	144	0
STR	47	96	7
SXR	47	96	7	96	144	7
TAP	48	96	4
TAP	48	96	5
TAP	48	192	2
HLD	48	192	7	96
TAP	48	288	0
TAP	49	0	0
TAP	49	96	2
TAP	49	96	3
HLD	49	192	0	96
TAP	49	192	5
TAP	49	288	7
HLD	50	0	2	48
HLD	50	0	4	48
HLD	50	96	3	48
HLD	50	96	5	48
HLD	50	192	2	48
HLD	50	192	4	48
TAP	50	288	3
TAP	50	288	5
TAP	50	336	3
TAP	50	336	5
XTP	51	48	0
XTP	51	48	7
XTP	51	120	1
XTP	51	120	6
XTP	51	192	2
XTP	51	192	5
HLD	51	336	1	96
HLD	51	336	7	96
TAP	52	96	0
TAP	52	96	6
TAP	52	192	1
TAP	52	192	7
TAP	52	240	1
TAP	52	240	7
HLD	52	336	0	96
HLD	52	336	6	96
TAP	53	96	1
TAP	53	96	7
TAP	53	192	0
TAP	53	192	6
TAP	53	240	0
TAP	53	240	6
HLD	53	336	1	96
HLD	53	336	5	96
TAP	54	96	2
TAP	54	96	6
TAP	54	192	1
TAP	54	192	5
TAP	54	288	3
TAP	54	288	4
TAP	54	336	3
STR	54	336	4
SXL	54	336	4	96	144	4
SXR	54	336	4	96	144	4
TAP	55	288	2
TAP	55	288	3
STR	56	0	2
SCL	56	0	2	96	96	7
STR	56	0	3
SCR	56	0	3	96	96	6
TAP	56	288	4
TAP	56	288	5
STR	57	0	4
SXR	57	0	4	96	96	2
STR	57	0	5
SXL	57	0	5	96	96	7
TAP	57	288	0
HLD	58	0	0	96
HLD	58	96	2	96
HLD	58	192	3	96
TAP	58	288	4
XTP	59	0	2
XTP	59	0	5
TAP	59	96	1
STR	59	96	6
SUL	59	96	6	96	96	2
XTP	60	0	1
XTP	60	0	3
XTP	60	64	4
XTP	60	192	4
XTP	60	192	6
XTP	60	256	3
XTP	61	0	1
XTP	61	0	3
XTP	61	64	4
XTP	61	192	4
XTP	61	192	6
TAP	61	336	0
TAP	62	48	1
TAP	62	48	7
TAP	62	96	1
TAP	62	96	7
TAP	62	192	2
TAP	62	192	6
STR	62	288	3
SV_	62	288	3	96	96	0
STR	62	288	5
SV_	62	288	5	96	96	0
TAP	63	192	2
STR	63	288	2
SCR	63	288	2	96	96	5
STR	64	96	6
SCR	64	96	6	96	96	1
TAP	64	288	2
TAP	65	0	2
TAP	65	0	4
TAP	65	96	3
TAP	65	96	5
BRK	65	192	2
BRK	65	192	6
HLD	66	0	1	96
HLD	66	96	3	96
HLD	66	192	4	96
HLD	66	288	6	96
STR	67	0	0
SCR	67	0	0	96	96	3
STR	67	192	7
SCL	67	192	7	96	96	4
HLD	68	0	2	96
HLD	68	96	0	96
HLD	68	192	7	96
HLD	68	288	5	96
STR	69	0	3
SCL	69	0	3	96	96	0
TAP	69	288	0
TAP	69	288	7
HLD	70	0	6	96
HLD	70	96	4	96
HLD	70	192	3	96
HLD	70	288	1	96
STR	71	0	7
SI_	71	0	7	96	96	3
STR	71	192	0
SI_	71	192	0	96	96	4
TAP	72	0	7
TAP	72	96	7
TAP	72	192	6
STR	72	288	5
SCR	72	288	5	96	288	3
TTP	73	0	0	C	1	M1
TAP	74	0	2
TAP	74	48	2
TAP	74	96	3
TAP	74	192	5
TAP	74	240	5
TAP	74	288	4
TAP	75	0	6
TAP	75	48	6
TAP	75	96	7
TAP	75	192	1
TAP	75	240	1
TAP	75	288	0
STR	76	0	7
SCL	76	0	7	96	144	3
XTP	76	288	0
XHO	76	336	0	336
XTP	77	288	3
HLD	77	336	3	336
XTP	78	288	4
HLD	78	336	4	336
TAP	79	288	6
TAP	79	336	6
TAP	80	48	7
TAP	80	144	0
TAP	80	240	1
TAP	80	288	1
TAP	81	0	2
TAP	81	0	3
TAP	81	96	2
TAP	81	96	3
HLD	81	192	1	96
TAP	81	192	4
TAP	81	288	6
TAP	82	0	6
TAP	82	96	4
TAP	82	96	5
TAP	82	192	3
HLD	82	192	6	96
TAP	82	288	1
HLD	83	0	3	48
HLD	83	0	5	48
HLD	83	96	2	48
HLD	83	96	4	48
HLD	83	192	3	48
HLD	83	192	5	48
TAP	83	288	2
TAP	83	288	4
BRK	84	0	0
BRK	84	0	7
BRK	84	96	3
BRK	84	96	4
BRK	84	192	1
BRK	84	192	6
HLD	84	336	0	96
HLD	84	336	5	96
TAP	85	96	2
TAP	85	96	7
TAP	85	192	0
TAP	85	192	5
TAP	85	240	0
TAP	85	240	5
HLD	85	336	2	96
HLD	85	336	7	96
TAP	86	96	0
TAP	86	96	5
TAP	86	192	2
TAP	86	192	7
TAP	86	240	2
TAP	86	240	7
HLD	86	336	1	96
HLD	86	336	5	96
TAP	87	96	2
TAP	87	96	6
TAP	87	192	1
TAP	87	192	5
TAP	87	288	3
TAP	87	288	4
STR	87	336	3
SXL	87	336	3	96	144	3
SXR	87	336	3	96	144	3
TAP	87	336	4
TAP	88	288	4
TAP	88	288	5
STR	89	0	4
SCL	89	0	4	96	96	1
STR	89	0	5
SCR	89	0	5	96	96	0
TAP	89	288	2
TAP	89	288	3
STR	90	0	2
SXR	90	0	2	96	96	0
STR	90	0	3
SXL	90	0	3	96	96	5
TAP	90	288	7
HLD	91	0	7	96
HLD	91	96	5	96
HLD	91	192	4	96
TAP	91	288	3
XTP	92	0	2
XTP	92	0	5
STR	92	96	1
SUR	92	96	1	96	96	5
TAP	92	96	6
XTP	93	0	3
XTP	93	0	6
XTP	93	64	2
XTP	93	128	2
XTP	93	192	1
XTP	93	192	4
XTP	93	256	5
XTP	93	320	5
XTP	94	0	3
XTP	94	0	6
XTP	94	64	2
XTP	94	128	2
XTP	94	192	1
XTP	94	192	4
TAP	94	336	7
TAP	95	48	0
TAP	95	48	6
TAP	95	96	0
TAP	95	96	6
TAP	95	192	1
TAP	95	192	5
STR	95	288	2
SV_	95	288	2	96	96	7
STR	95	288	4
SV_	95	288	4	96	96	7
TAP	96	192	5
STR	96	288	5
SCL	96	288	5	96	96	2
STR	97	96	1
SCL	97	96	1	96	96	6
TAP	97	288	5
TAP	98	0	3
TAP	98	0	5
TAP	98	96	2
TAP	98	96	4
BRK	98	192	1
BRK	98	192	5
TTP	99	0	3	E	0	M1
TTP	99	0	5	E	0	M1
TTP	99	96	2	E	0	M1
TTP	99	96	6	E	0	M1
TTP	99	192	3	B	0	M1
TTP	99	192	4	B	0	M1
TTP	99	288	1	E	0	M1
TTP	99	288	7	E	0	M1
BRK	100	0	2
BRK	100	0	6
BST	100	96	3
SCL	100	96	3	96	96	0
BST	100	96	7
SCL	100	96	7	96	96	4
TAP	101	0	0
TAP	101	96	4
TAP	101	96	6
TAP	101	192	7
TAP	101	288	1
TAP	101	288	3
TAP	102	0	0
TAP	102	96	4
TAP	102	96	6
HLD	102	192	7	96
TAP	102	288	0
TAP	102	336	0
TAP	103	0	6
TAP	103	96	1
TAP	103	96	3
TAP	103	192	0
TAP	103	288	4
TAP	103	288	6
TAP	104	0	7
TAP	104	96	1
TAP	104	96	3
XTP	104	192	0
XTP	104	240	0
XTP	104	288	1
XTP	104	288	7
TAP	105	0	0
TAP	105	0	6
TAP	105	96	1
TAP	105	96	3
TAP	105	192	0
TAP	105	288	4
TAP	105	288	6
TAP	106	0	7
TAP	106	96	1
TAP	106	96	3
HLD	106	192	0	96
TAP	106	288	7
TAP	106	336	7
TAP	107	0	1
TAP	107	96	4
TAP	107	96	6
TAP	107	192	7
TAP	107	288	1
TAP	107	288	3
TAP	108	0	0
TAP	108	0	1
TAP	108	96	6
TAP	108	96	7
TAP	108	192	4
TAP	108	192	5
TAP	108	288	2
TAP	108	288	3
TAP	109	0	0
TAP	109	0	1
TAP	109	96	6
TAP	109	96	7
TAP	109	192	3
TAP	109	192	4
BRK	109	288	1
BRK	109	288	6

T_REC_TAP	327
T_REC_BRK	21
T_REC_XTP	81
T_REC_HLD	85
T_REC_XHO	7
T_REC_STR	38
T_REC_BST	2
T_REC_XST	0
T_REC_TTP	12
T_REC_THO	0
T_REC_SLD	42
T_REC_ALL	615
T_NUM_TAP	458
T_NUM_BRK	23
T_NUM_HLD	92
T_NUM_SLD	42
T_NUM_ALL	615
T_JUDGE_TAP	481
T_JUDGE_HLD	179
T_JUDGE_SLD	42
T_JUDGE_ALL	702
TTM_EACHPAIRS	201
TTM_SCR_TAP	229000
TTM_SCR_BRK	59800
TTM_SCR_HLD	92000
TTM_SCR_SLD	63000
TTM_SCR_ALL	443800
TTM_SCR_S	428300
TTM_SCR_SS	441500
TTM_RAT_ACV	10052

