VERSION	0.00.00	1.03.00
FES_MODE	0
BPM_DEF	185.000	185.000	185.000	185.000
MET_DEF	4	4
RESOLUTION	384
CLK_DEF	384
COMPATIBLE_CODE	MA2

BPM	0	0	185.000
MET	0	0	4	4

HLD	2	0	2	192
HLD	2	0	3	192
HLD	3	0	4	192
HLD	3	0	5	192
TAP	4	0	2
TAP	4	0	3
TAP	4	192	4
TAP	4	192	5
HLD	5	0	3	96
HLD	5	0	4	96
BRK	5	192	2
BRK	5	192	5
TAP	6	0	6
TAP	6	96	6
TAP	6	192	7
TAP	6	288	7
TAP	7	0	0
TAP	7	96	0
TAP	7	192	1
TAP	7	192	7
TAP	8	0	2
TAP	8	96	2
TAP	8	192	3
TAP	8	288	3
TAP	9	0	4
TAP	9	96	4
TAP	9	192	3
TAP	9	192	5
TAP	10	0	2
TAP	10	96	2
TAP	10	192	1
TAP	10	288	1
TAP	11	0	0
TAP	11	96	0
TAP	11	192	1
TAP	11	192	7
TAP	12	0	6
TAP	12	96	6
TAP	12	192	5
TAP	12	288	5
TAP	13	0	3
TAP	13	0	4
TAP	13	96	3
TAP	13	96	4
BRK	13	192	2
BRK	13	192	5
XTP	14	0	6
TAP	14	96	6
TAP	14	192	7
TAP	15	0	1
TAP	15	96	1
TAP	15	192	0
STR	16	0	6
SUL	16	0	6	96	192	2
STR	17	0	1
SUR	17	0	1	96	192	5
TAP	18	0	6
TAP	18	96	5
TAP	18	192	4
TAP	19	0	2
TAP	19	96	2
TAP	19	192	3
STR	20	0	5
SCR	20	0	5	96	192	0
STR	21	0	1
SCR	21	0	1	96	192	4
HLD	22	0	5	192
TAP	22	192	4
HLD	23	0	2	192
TAP	23	192	3
HLD	24	0	5	192
HLD	24	192	4	192
HLD	25	0	3	192
XTP	25	192	2
STR	26	0	1
SCL	26	0	1	96	192	6
XST	27	0	5
SCL	27	0	5	96	192	2
XTP	28	0	1
TAP	28	96	1
TAP	28	192	0
TAP	28	192	1
TAP	29	0	0
TAP	29	0	7
TAP	29	96	0
TAP	29	96	7
XTP	29	192	1
XTP	29	192	6
TTP	30	0	5	B	0	L1
TTP	30	192	6	B	0	L1
TTP	31	0	7	E	0	L1
TTP	32	0	2	B	0	L1
TTP	32	192	1	B	0	L1
TTP	33	0	1	E	0	L1
TTP	34	0	5	B	0	L1
TTP	34	192	6	B	0	L1
TTP	35	0	7	E	0	L1
TTP	36	0	3	E	0	L1
TTP	36	0	5	E	0	L1
TTP	36	192	2	B	0	L1
TTP	36	192	5	B	0	L1
TTP	37	0	1	B	0	L1
TTP	37	0	6	B	0	L1
TTP	37	192	0	C	0	L1
XTP	38	0	6
TAP	38	96	6
TAP	38	192	7
TAP	39	0	1
TAP	39	96	1
TAP	39	192	0
TAP	40	0	6
TAP	40	96	6
TAP	40	192	7
TAP	40	288	7
TAP	41	0	0
TAP	41	96	0
TAP	41	192	1
TAP	41	288	1
TAP	42	0	2
TAP	42	0	3
TAP	42	192	4
TAP	42	192	5
TTP	43	0	0	C	1	L1
TTP	43	0	1	B	0	L1
TTP	43	0	6	B	0	L1
XTP	44	0	6
TAP	44	96	6
TAP	44	192	6
TAP	44	192	7
TAP	45	0	1
TAP	45	96	1
TAP	45	192	0
TAP	45	192	1
TAP	46	0	2
TAP	46	96	2
TAP	46	192	3
TAP	46	288	3
TAP	47	0	4
TAP	47	96	4
TAP	47	192	3
TAP	47	192	5
TTP	48	0	4	B	0	L1
TTP	48	0	5	E	0	L1
TTP	48	192	6	B	0	L1
TTP	48	192	7	E	0	L1
TTP	49	0	3	B	0	L1
TTP	49	0	3	E	0	L1
TTP	49	192	1	B	0	L1
TTP	49	192	1	E	0	L1
TAP	50	0	7
TAP	50	96	7
TAP	50	192	0
TAP	50	288	0
HLD	51	0	0	96
HLD	51	0	7	96
XTP	51	192	1
XTP	51	192	6
TAP	52	0	2
TAP	52	96	2
TAP	52	192	2
TAP	52	192	3
TAP	53	0	5
TAP	53	96	5
TAP	53	192	4
TAP	53	192	5
TAP	54	0	6
TAP	54	96	6
TAP	54	192	7
TAP	54	288	7
TAP	55	0	0
TAP	55	96	0
TAP	55	192	1
TAP	55	192	7
TTP	56	0	0	B	0	L1
TTP	56	0	1	E	0	L1
TTP	56	192	2	B	0	L1
TTP	56	192	3	E	0	L1
TTP	57	0	7	B	0	L1
TTP	57	0	7	E	0	L1
TTP	57	192	5	B	0	L1
TTP	57	192	5	E	0	L1
TAP	58	0	3
TAP	58	96	3
TAP	58	192	4
TAP	58	288	4
HLD	59	0	3	96
HLD	59	0	4	96
XTP	59	192	2
XTP	59	192	5
TAP	60	0	6
TAP	60	0	7
TAP	60	192	4
TAP	60	192	5
TAP	61	0	2
TAP	61	0	3
TAP	61	192	0
TAP	61	192	1
HLD	62	0	6	96
TAP	62	96	7
TAP	62	192	7
HLD	63	0	1	96
TAP	63	96	0
TAP	63	192	0
HLD	64	0	2	96
HLD	64	0	3	96
HLD	64	192	4	96
HLD	64	192	5	96
TAP	65	0	3
TAP	65	0	4
TAP	65	96	2
TAP	65	96	5
BRK	65	192	1
BRK	65	192	6
STR	66	0	5
SCL	66	0	5	96	192	2
STR	67	0	1
SUR	67	0	1	96	192	5
STR	68	0	6
SUL	68	0	6	96	192	2
TAP	69	0	1
TAP	69	192	0
TAP	69	192	1
STR	70	0	7
SCL	70	0	7	96	192	4
STR	71	0	3
SCL	71	0	3	96	192	0
STR	72	0	7
SCL	72	0	7	96	480	0
TAP	74	0	7
TAP	74	96	7
TAP	74	192	6
TAP	74	288	6
TAP	75	0	5
TAP	75	96	5
TAP	75	192	4
TAP	75	288	4
HLD	76	0	2	96
HLD	76	0	5	96
TTP	76	336	3	B	0	L1
TTP	76	336	4	B	0	L1
TTP	77	336	2	B	0	L1
TTP	77	336	5	B	0	L1
TTP	78	336	1	B	0	L1
TTP	78	336	6	B	0	L1
TTP	79	336	0	B	0	L1
TTP	79	336	7	B	0	L1
XTP	81	0	2
TAP	81	96	2
TAP	81	192	3
TAP	81	288	3
TAP	82	0	4
TAP	82	96	4
TAP	82	192	5
TAP	82	288	5
TAP	83	0	6
TAP	83	48	6
TAP	83	96	6
TAP	83	192	7
TAP	83	240	7
TAP	83	288	7
TAP	84	0	0
TAP	84	0	7
TAP	84	96	1
TAP	84	96	6
BRK	84	192	2
BRK	84	192	5
TAP	85	0	0
TAP	85	0	1
TAP	85	96	0
TAP	85	96	1
TAP	85	192	2
TAP	85	192	7
TAP	86	0	6
TAP	86	0	7
TAP	86	96	6
TAP	86	96	7
TAP	86	192	0
TAP	86	192	5
TAP	87	0	1
TAP	87	96	1
TAP	87	192	0
TAP	87	288	0
TAP	88	0	0
TAP	88	0	7
TAP	88	96	0
TAP	88	96	7
TAP	88	192	1
TAP	88	192	6
TTP	89	0	1	B	0	L1
TTP	89	0	1	E	0	L1
TTP	89	192	3	B	0	L1
TTP	89	192	3	E	0	L1
TTP	90	0	6	B	0	L1
TTP	90	0	7	E	0	L1
TTP	90	192	4	B	0	L1
TTP	90	192	5	E	0	L1
TAP	91	0	2
TAP	91	96	3
TAP	91	192	4
TAP	91	288	5
HLD	92	0	3	96
HLD	92	0	4	96
XTP	92	192	2
XTP	92	192	5
TAP	93	0	6
TAP	93	0	7
TAP	93	192	4
TAP	93	192	5
TAP	94	0	2
TAP	94	0	3
TAP	94	192	0
TAP	94	192	1
HLD	95	0	6	96
TAP	95	96	7
TAP	95	192	6
TAP	95	192	7
HLD	96	0	1	96
TAP	96	96	0
TAP	96	192	0
TAP	96	192	1
HLD	97	0	2	96
HLD	97	0	3	96
HLD	97	192	4	96
HLD	97	192	5	96
TAP	98	0	3
TAP	98	0	4
TAP	98	96	2
TAP	98	96	5
TAP	98	192	1
TAP	98	192	6
HLD	99	0	6	96
HLD	99	0	7	96
HLD	99	192	0	96
HLD	99	192	1	96
TAP	100	0	0
TAP	100	0	7
TAP	100	96	1
TAP	100	96	6
BRK	100	192	2
BRK	100	192	5
TAP	101	0	1
TAP	101	96	1
TAP	101	192	0
TAP	101	288	0
TAP	102	0	7
TAP	102	96	7
TAP	102	192	0
TAP	102	192	6
TAP	103	0	5
TAP	103	96	5
TAP	103	192	4
TAP	103	288	4
TAP	104	0	3
TAP	104	96	3
TAP	104	192	2
TAP	104	192	4
TAP	105	0	5
TAP	105	96	5
TAP	105	192	6
TAP	105	288	6
TAP	106	0	7
TAP	106	96	7
TAP	106	192	0
TAP	106	192	6
TAP	107	0	1
TAP	107	96	2
TAP	107	192	3
TAP	107	288	4
STR	108	0	2
SLL	108	0	2	96	384	3
STR	108	0	5
SLR	108	0	5	96	384	4
TTP	109	288	0	C	1	L1

T_REC_TAP	234
T_REC_BRK	10
T_REC_XTP	14
T_REC_HLD	35
T_REC_XHO	0
T_REC_STR	13
T_REC_BST	0
T_REC_XST	1
T_REC_TTP	52
T_REC_THO	0
T_REC_SLD	14
T_REC_ALL	373
T_NUM_TAP	314
T_NUM_BRK	10
T_NUM_HLD	35
T_NUM_SLD	14
T_NUM_ALL	373
T_JUDGE_TAP	324
T_JUDGE_HLD	88
T_JUDGE_SLD	14
T_JUDGE_ALL	426
TTM_EACHPAIRS	73
TTM_SCR_TAP	157000
TTM_SCR_BRK	26000
TTM_SCR_HLD	35000
TTM_SCR_SLD	21000
TTM_SCR_ALL	239000
TTM_SCR_S	230900
TTM_SCR_SS	238000
TTM_RAT_ACV	10042

