VERSION	0.00.00	1.03.00
FES_MODE	0
BPM_DEF	185.000	185.000	185.000	185.000
MET_DEF	4	4
RESOLUTION	384
CLK_DEF	384
COMPATIBLE_CODE	MA2

BPM	0	0	185.000
MET	0	0	4	4

TAP	6	0	0
TAP	7	0	0
TAP	8	0	7
TAP	9	0	7
HLD	10	0	0	384
HLD	12	0	7	384
XTP	14	96	6
TAP	14	288	6
TAP	15	96	5
TAP	15	288	5
TAP	16	96	4
TAP	16	288	4
TAP	17	96	3
TAP	17	288	3
TAP	18	96	2
TAP	18	288	2
TAP	19	96	1
TAP	19	288	1
TAP	20	96	0
TAP	20	288	0
XTP	21	96	7
XTP	21	192	7
TAP	22	96	0
TAP	22	288	0
TAP	23	96	1
TAP	23	192	1
TAP	23	288	1
TAP	24	96	2
TAP	24	288	2
TAP	25	96	3
TAP	25	192	3
TAP	25	288	3
TAP	26	96	4
TAP	26	288	4
TAP	27	96	5
TAP	27	192	5
TAP	27	288	5
TAP	28	96	6
TAP	28	288	6
TAP	29	96	7
XTP	29	192	7
TTP	30	0	0	B	0	L1
TTP	31	0	7	B	0	L1
TTP	32	0	1	B	0	L1
TTP	33	0	6	B	0	L1
TTP	34	0	2	B	0	L1
TTP	35	0	5	B	0	L1
TTP	36	0	3	B	0	L1
TTP	37	0	4	B	0	L1
TTP	38	0	2	B	0	L1
TTP	38	0	3	B	0	L1
TTP	39	0	4	B	0	L1
TTP	39	0	5	B	0	L1
TTP	40	0	0	B	0	L1
TTP	40	0	1	B	0	L1
TTP	41	0	6	B	0	L1
TTP	41	0	7	B	0	L1
THO	42	0	0	384	C	1	L1
XTP	44	0	7
TAP	44	96	7
TAP	44	192	7
TAP	45	0	6
TAP	45	96	6
TAP	45	192	6
TAP	46	0	5
TAP	46	96	5
TAP	46	192	5
TAP	47	0	3
TAP	47	0	4
TAP	47	192	3
TAP	47	192	4
TAP	48	0	2
TAP	48	96	2
TAP	48	192	2
TAP	49	0	1
TAP	49	96	1
TAP	49	192	1
TAP	50	0	0
TAP	50	96	0
TAP	50	192	0
TAP	51	0	0
TAP	51	0	7
BRK	51	192	0
BRK	51	192	7
XTP	52	0	1
TAP	52	96	1
TAP	52	192	1
TAP	53	0	2
TAP	53	96	2
TAP	53	192	2
TAP	54	0	3
TAP	54	96	3
TAP	54	192	3
TAP	55	0	4
TAP	55	192	3
TAP	55	192	4
TAP	56	0	5
TAP	56	96	5
TAP	56	192	5
TAP	57	0	6
TAP	57	192	6
TAP	58	0	7
TAP	58	96	7
TAP	58	192	7
XTP	59	0	0
XTP	59	0	7
XTP	59	192	0
XTP	59	192	7
STR	60	0	7
SI_	60	0	7	96	288	4
STR	62	0	0
SI_	62	0	0	96	288	3
XTP	64	0	4
XTP	64	192	4
XTP	65	0	3
BRK	65	192	3
BRK	65	192	4
XHO	66	0	4	384
XHO	66	0	5	384
XHO	68	0	2	384
XHO	68	0	3	384
HLD	70	0	0	384
HLD	70	0	1	384
HLD	72	0	6	384
HLD	72	0	7	384
TAP	74	0	0
TAP	74	192	0
TAP	75	0	7
TAP	75	192	7
XTP	76	0	0
XTP	76	0	7
STR	77	0	7
SI_	77	0	7	96	288	3
STR	79	0	0
SI_	79	0	0	96	288	4
STR	81	0	6
SI_	81	0	6	96	288	3
TAP	83	0	2
TAP	83	192	2
TAP	84	0	3
BRK	84	192	3
BRK	84	192	4
XTP	85	0	5
TAP	85	96	5
TAP	85	192	5
TAP	86	0	6
TAP	86	96	6
TAP	86	192	6
TAP	87	0	7
TAP	87	96	7
TAP	87	192	7
TAP	88	0	0
TAP	88	96	0
TAP	88	192	0
TAP	88	192	7
TAP	89	0	1
TAP	89	96	1
TAP	89	192	1
TAP	90	0	2
TAP	90	96	2
TAP	90	192	2
TAP	90	192	3
TAP	91	0	4
TAP	91	96	4
TAP	91	192	4
TAP	92	0	3
TAP	92	0	4
XTP	92	192	3
XTP	92	192	4
STR	93	0	3
SI_	93	0	3	96	288	0
STR	95	0	7
SI_	95	0	7	96	288	4
XTP	97	0	3
XTP	97	96	3
XTP	97	192	3
XTP	98	0	2
XTP	98	96	2
BRK	98	192	2
BRK	98	192	3
XTP	99	0	4
XTP	99	96	4
XTP	99	192	4
XTP	100	0	5
XTP	100	96	5
BRK	100	192	4
BRK	100	192	5
HLD	101	0	6	192
TAP	102	0	6
TAP	102	96	6
TAP	102	192	6
HLD	103	0	7	192
TAP	104	0	7
TAP	104	96	7
TAP	104	192	7
HLD	105	0	0	192
TAP	106	0	0
TAP	106	96	0
TAP	106	192	0
HLD	107	0	0	192
HLD	107	0	7	192
HLD	108	0	1	192
HLD	108	0	6	192
THO	109	0	0	288	C	1	L1

T_REC_TAP	117
T_REC_BRK	10
T_REC_XTP	28
T_REC_HLD	13
T_REC_XHO	4
T_REC_STR	7
T_REC_BST	0
T_REC_XST	0
T_REC_TTP	16
T_REC_THO	2
T_REC_SLD	7
T_REC_ALL	204
T_NUM_TAP	168
T_NUM_BRK	10
T_NUM_HLD	19
T_NUM_SLD	7
T_NUM_ALL	204
T_JUDGE_TAP	178
T_JUDGE_HLD	122
T_JUDGE_SLD	7
T_JUDGE_ALL	307
TTM_EACHPAIRS	22
TTM_SCR_TAP	84000
TTM_SCR_BRK	26000
TTM_SCR_HLD	19000
TTM_SCR_SLD	10500
TTM_SCR_ALL	139500
TTM_SCR_S	134350
TTM_SCR_SS	138500
TTM_RAT_ACV	10072

