VERSION	0.00.00	1.03.00
FES_MODE	0
BPM_DEF	126.000	126.000	126.000	126.000
MET_DEF	4	4
RESOLUTION	384
CLK_DEF	384
COMPATIBLE_CODE	MA2

BPM	0	0	126.000
MET	0	0	4	4

TTP	1	0	3	E	0	M1
TTP	1	0	4	B	0	M1
TTP	1	96	0	B	0	M1
TTP	1	96	7	E	0	M1
TTP	1	192	5	E	0	M1
TTP	1	224	2	B	0	M1
TTP	1	256	6	B	0	M1
TTP	1	288	1	E	0	M1
STR	2	0	3
SXR	2	0	3	96	192	0
STR	2	0	4
SXL	2	0	4	96	192	7
XTP	2	96	3
XTP	2	96	4
BRK	3	0	1
BRK	3	0	6
TAP	3	48	2
TAP	3	64	3
TAP	3	80	2
TAP	3	96	3
XST	3	192	2
SCL	3	192	2	96	36	0
XST	3	192	3
SUL	3	192	3	96	36	7
XTP	3	240	2
XTP	3	240	3
BRK	4	0	1
BRK	4	0	6
TAP	4	48	5
TAP	4	64	4
TAP	4	80	5
TAP	4	96	4
XST	4	192	4
SUR	4	192	4	96	36	0
XST	4	192	5
SCR	4	192	5	96	36	7
XTP	4	240	4
XTP	4	240	5
XTP	5	0	1
XTP	5	0	6
HLD	5	48	1	96
TAP	5	96	4
HLD	5	144	4	96
TAP	5	192	0
HLD	5	240	0	96
TAP	5	288	5
TAP	5	336	5
TAP	6	0	6
TAP	6	48	6
TAP	6	48	7
STR	6	72	6
SCL	6	72	6	96	48	3
STR	6	72	7
SCR	6	72	7	96	48	2
TAP	6	120	0
TAP	6	120	5
XTP	6	168	6
XTP	6	168	7
XTP	6	288	0
XTP	6	288	7
TAP	7	0	1
TAP	7	0	6
HLD	7	48	6	96
TAP	7	96	3
HLD	7	144	3	96
TAP	7	192	7
HLD	7	240	7	96
TAP	7	288	2
TAP	7	336	2
TAP	8	0	0
TAP	8	0	1
TAP	8	72	4
TAP	8	72	5
TTP	8	144	0	E	0	M1
TTP	8	144	1	E	0	M1
TTP	8	144	7	E	0	M1
TAP	8	216	4
TAP	8	216	5
STR	8	288	2
SXR	8	288	2	96	288	7
TAP	8	288	7
TAP	8	336	2
TAP	8	336	7
TTP	9	96	3	B	0	M1
TTP	9	192	5	B	0	M1
TTP	9	288	7	E	0	M1
XTP	10	0	0
XTP	10	0	5
TAP	10	48	6
TAP	10	96	6
TAP	10	144	7
HLD	10	192	6	72
HLD	10	264	4	72
TAP	10	336	5
XTP	11	0	2
XTP	11	0	5
TAP	11	48	3
TAP	11	96	3
TAP	11	144	4
HLD	11	192	3	72
HLD	11	264	1	72
TAP	11	336	2
XTP	12	0	2
XTP	12	0	7
TAP	12	48	1
TAP	12	96	1
TAP	12	144	0
HLD	12	192	1	72
HLD	12	264	6	72
TAP	12	336	0
XTP	13	0	0
XTP	13	0	7
TAP	13	72	2
TAP	13	72	5
TTP	13	144	0	C	1	M1
TTP	13	144	2	E	0	M1
TTP	13	144	6	E	0	M1
TAP	13	192	0
TAP	13	240	0
TAP	13	288	0
TAP	13	336	0
XTP	14	0	2
XTP	14	0	6
TAP	14	48	1
TAP	14	72	1
HLD	14	96	0	48
TAP	14	144	1
TAP	14	192	0
TAP	14	240	1
TAP	14	240	7
TAP	14	264	1
TAP	14	264	7
TAP	14	312	0
TAP	14	312	6
TAP	14	336	0
TAP	14	336	6
XTP	15	0	1
XTP	15	0	5
TAP	15	48	6
TAP	15	72	6
HLD	15	96	7	48
TAP	15	144	6
TAP	15	192	7
TAP	15	240	0
TAP	15	240	6
TAP	15	264	0
TAP	15	264	6
TAP	15	312	1
TAP	15	312	7
TAP	15	336	1
TAP	15	336	7
XHO	16	0	2	48
XHO	16	0	7	48
XHO	16	96	0	48
XHO	16	96	5	48
TAP	16	192	5
TAP	16	192	6
TAP	16	240	4
TAP	16	240	5
TAP	16	288	2
TAP	16	288	3
STR	16	336	1
SXR	16	336	1	96	192	6
STR	16	336	2
SUR	16	336	2	96	192	5
TAP	18	0	3
HLD	18	0	4	72
STR	18	48	6
SI_	18	48	6	96	72	2
TAP	18	72	6
TAP	18	144	0
HLD	18	192	0	96
TTP	18	288	2	B	0	M1
TTP	18	288	3	E	0	M1
HLD	19	0	3	72
TAP	19	0	4
STR	19	48	1
SI_	19	48	1	96	72	5
TAP	19	72	1
TAP	19	144	7
HLD	19	192	7	96
TTP	19	288	5	B	0	M1
TTP	19	288	5	E	0	M1
TTP	20	0	0	E	0	M1
TTP	20	0	1	E	0	M1
TTP	20	0	7	E	0	M1
HLD	20	96	1	96
TAP	20	144	3
HLD	20	192	3	96
TAP	20	240	4
HLD	20	288	4	96
TAP	20	336	6
HLD	21	0	6	72
TAP	21	48	7
STR	21	72	7
SXL	21	72	7	96	120	2
SXR	21	72	7	96	120	4
TAP	21	120	0
TAP	21	120	6
XTP	21	168	7
TAP	22	0	1
TAP	22	0	4
STR	22	48	2
SCL	22	48	2	96	144	4
STR	22	48	3
SUL	22	48	3	96	144	4
XTP	22	72	2
XTP	22	72	3
TAP	23	0	3
TAP	23	0	6
STR	23	48	4
SUR	23	48	4	96	144	3
STR	23	48	5
SCR	23	48	5	96	144	3
XTP	23	72	4
XTP	23	72	5
TAP	24	0	3
TAP	24	0	4
TAP	24	48	5
TAP	24	48	7
TAP	24	96	3
TAP	24	96	4
TAP	24	144	0
TAP	24	144	2
TAP	24	192	3
TAP	24	192	4
TAP	24	240	1
TAP	24	240	6
TAP	24	264	1
TAP	24	264	6
TAP	24	336	3
TAP	24	336	7
STR	25	0	3
SCL	25	0	3	96	36	0
STR	25	0	7
SCL	25	0	7	96	36	4
HLD	25	192	2	96
HLD	25	192	6	96
TTP	26	0	1	B	0	M1
TTP	26	0	7	B	0	M1
TTP	26	96	3	B	0	M1
TTP	26	96	5	B	0	M1
TTP	26	192	0	E	0	M1
TTP	26	192	1	E	0	M1
TTP	26	192	7	E	0	M1
TAP	26	288	4
TAP	26	288	5
TAP	26	336	6
TAP	26	336	7
BST	27	0	0
SI_	27	0	0	96	48	4
BRK	27	0	1
XTP	27	96	0
STR	27	96	3
SCL	27	96	3	96	96	7
TAP	27	192	6
TAP	27	240	5
TAP	27	288	4
TAP	27	336	3
STR	28	0	1
SI_	28	0	1	96	36	5
TAP	28	0	2
XTP	28	96	0
XTP	28	96	1
TAP	28	144	6
TAP	28	192	0
TAP	28	192	7
TAP	28	240	1
TAP	28	288	2
TAP	28	288	3
TAP	28	336	4
TAP	29	0	5
STR	29	0	6
SI_	29	0	6	96	36	2
XTP	29	96	6
XTP	29	96	7
TAP	29	144	0
HLD	29	168	0	72
TAP	29	240	1
HLD	29	288	7	48
TAP	29	336	6
TAP	30	0	3
TAP	30	0	4
TAP	30	48	2
TAP	30	48	6
TAP	30	96	1
TAP	30	96	5
TAP	30	144	0
TAP	30	144	7
BRK	30	168	0
BRK	30	168	7
TAP	30	288	1
TAP	30	288	2
TAP	30	336	0
TAP	30	336	7
STR	31	0	5
SCR	31	0	5	96	96	1
TAP	31	0	6
XTP	31	96	3
TAP	31	144	4
TAP	31	192	5
TAP	31	240	6
TAP	31	288	0
TAP	31	288	7
TAP	31	336	2
TAP	31	336	3
STR	32	0	4
SI_	32	0	4	96	36	1
STR	32	0	5
SI_	32	0	5	96	36	0
STR	32	96	5
SCR	32	96	5	96	96	2
THO	32	192	0	96	C	0	M1
TAP	33	0	2
TAP	33	24	0
BRK	33	24	2
TAP	33	72	5
BRK	33	96	5
TAP	33	96	7
TAP	33	144	1
BRK	33	168	1
TAP	33	168	3
TAP	33	216	6
TAP	33	240	4
BRK	33	240	6
STR	33	288	3
SXR	33	288	3	96	192	0
STR	33	288	4
SXL	33	288	4	96	192	7
TAP	33	336	2
TAP	33	336	5
XTP	34	0	3
XTP	34	0	4
TAP	34	288	3
TAP	34	336	4
HLD	35	0	5	96
TTP	35	48	6	B	0	M1
TTP	35	48	7	B	0	M1
HLD	35	96	4	96
TTP	35	144	0	B	0	M1
TTP	35	144	0	E	0	M1
HLD	35	192	3	96
TTP	35	240	6	B	0	M1
TTP	35	240	7	B	0	M1
HLD	35	288	2	96
TTP	35	336	0	B	0	M1
TTP	35	336	0	E	0	M1
STR	36	0	1
SI_	36	0	1	96	36	5
STR	36	96	2
SCR	36	96	2	96	36	5
STR	36	192	0
SCL	36	192	0	96	36	5
XTP	36	288	1
TTP	37	0	0	C	0	M1
TTP	37	0	3	B	0	M1
TTP	37	0	7	B	0	M1
TAP	37	192	1
TAP	37	192	6
STR	37	288	3
SCL	37	288	3	96	120	4
STR	37	288	4
SCR	37	288	4	96	120	3
TTP	38	192	0	B	0	M1
TTP	38	192	0	C	1	M1
TTP	38	192	1	B	0	M1
TTP	38	192	2	B	0	M1
TTP	38	192	3	B	0	M1
TTP	38	192	4	B	0	M1
TTP	38	192	5	B	0	M1
TTP	38	192	6	B	0	M1
TTP	38	192	7	B	0	M1
HLD	39	0	6	48
TAP	39	48	7
HLD	39	96	5	48
TAP	39	144	7
HLD	39	192	4	48
TAP	39	240	7
HLD	39	288	3	48
TAP	39	336	7
HLD	40	0	2	48
TAP	40	48	7
HLD	40	96	1	48
TAP	40	144	7
HLD	40	192	0	48
TAP	40	240	7
TAP	40	264	7
TAP	40	288	6
TAP	40	336	0
TAP	40	336	5
HLD	41	0	1	48
TAP	41	48	0
HLD	41	96	2	48
TAP	41	144	0
HLD	41	192	3	48
TAP	41	240	0
HLD	41	288	4	48
TAP	41	336	0
HLD	42	0	5	48
TAP	42	48	0
HLD	42	96	6	48
TAP	42	144	0
HLD	42	192	7	48
TAP	42	240	0
TAP	42	264	0
TAP	42	288	1
TAP	42	336	2
TAP	42	336	7
XTP	43	0	0
XTP	43	0	7
TAP	43	48	1
TAP	43	72	0
TAP	43	96	2
TAP	43	144	6
TAP	43	168	7
TAP	43	192	5
TAP	43	240	3
TAP	43	264	4
TAP	43	288	3
TAP	43	312	4
TAP	43	336	3
STR	44	0	2
SI_	44	0	2	96	48	7
XTP	44	96	2
STR	44	96	5
SCR	44	96	5	96	96	2
XHO	44	192	0	96
XTP	44	192	5
XTP	45	0	3
XTP	45	0	4
TAP	45	48	5
TAP	45	72	4
TAP	45	96	5
TAP	45	144	2
TAP	45	168	3
TAP	45	192	1
TAP	45	240	6
TAP	45	264	7
TAP	45	288	5
TAP	45	336	0
TAP	45	360	7
XTP	46	0	1
XTP	46	0	6
TTP	46	32	0	B	0	M1
TTP	46	48	7	B	0	M1
TTP	46	64	1	B	0	M1
TTP	46	80	6	B	0	M1
TTP	46	96	2	B	0	M1
TTP	46	112	5	B	0	M1
TTP	46	128	3	B	0	M1
TTP	46	144	4	B	0	M1
TTP	46	160	0	E	0	M1
TTP	46	176	1	E	0	M1
TTP	46	192	7	E	0	M1
TTP	46	208	2	E	0	M1
TTP	46	224	6	E	0	M1
TTP	46	240	3	E	0	M1
TTP	46	256	5	E	0	M1
TTP	46	272	4	E	0	M1
TTP	46	288	0	C	0	M1
XTP	47	0	2
XTP	47	0	5
TAP	47	72	3
TAP	47	96	3
TAP	47	144	3
TAP	47	192	3
TAP	47	216	3
TAP	47	240	3
XHO	47	288	3	384
HLD	48	0	5	48
TAP	48	72	5
TAP	48	96	5
TAP	48	144	5
TAP	48	192	5
TAP	48	216	5
TAP	48	240	5
XHO	48	288	5	384
HLD	49	0	1	48
TAP	49	72	1
TAP	49	96	1
TAP	49	144	1
TAP	49	192	1
TAP	49	216	1
TAP	49	240	1
XHO	49	288	1	96
XST	50	0	7
SF_	50	0	7	96	36	3
BRK	50	96	7
TTP	50	192	0	E	0	M1
TTP	50	204	1	E	0	M1
TTP	50	216	2	E	0	M1
TTP	50	228	3	E	0	M1
TTP	50	240	4	E	0	M1
TTP	50	252	5	E	0	M1
TTP	50	264	6	E	0	M1
TTP	50	276	7	E	0	M1
TTP	50	288	0	E	0	M1
TTP	50	300	1	E	0	M1
TTP	50	312	2	E	0	M1
TTP	50	324	3	E	0	M1
TTP	50	336	4	E	0	M1
TTP	50	348	5	E	0	M1
TTP	50	360	6	E	0	M1
TTP	50	372	7	E	0	M1
TTP	51	0	0	C	1	M1
TTP	51	0	0	E	0	M1
STR	52	0	2
SCR	52	0	2	96	96	5
TTP	52	192	0	B	0	M1
TTP	52	192	0	E	0	M1
STR	53	0	5
SCL	53	0	5	96	96	2
TTP	53	192	0	E	0	M1
TTP	53	192	7	B	0	M1
HLD	54	0	3	96
HLD	54	0	4	96
TAP	54	192	5
TAP	54	288	4
STR	55	0	2
SLL	55	0	2	96	144	3
STR	55	0	3
SXL	55	0	3	96	144	3
TAP	56	0	0
TAP	56	0	4
STR	56	48	1
SUR	56	48	1	96	48	7
TAP	56	48	3
XTP	56	72	1
XHO	56	72	3	120
TTP	56	156	2	B	0	M1
TTP	56	162	3	B	0	M1
TTP	56	168	4	B	0	M1
TTP	56	174	5	B	0	M1
TTP	56	180	6	B	0	M1
TTP	56	186	7	E	0	M1
TAP	57	0	3
TAP	57	0	7
TAP	57	48	4
STR	57	48	6
SUL	57	48	6	96	48	0
XHO	57	72	4	120
XTP	57	72	6
TTP	57	156	5	B	0	M1
TTP	57	162	4	B	0	M1
TTP	57	168	3	B	0	M1
TTP	57	174	2	B	0	M1
TTP	57	180	1	B	0	M1
TTP	57	186	1	E	0	M1
TAP	58	0	3
TAP	58	0	4
TAP	58	48	0
TAP	58	48	2
TAP	58	96	3
TAP	58	96	4
TAP	58	144	5
TAP	58	144	7
TAP	58	192	3
TAP	58	192	4
TAP	58	240	1
TAP	58	240	6
TAP	58	264	1
TAP	58	264	6
TAP	58	336	0
TAP	58	336	4
STR	59	0	0
SCR	59	0	0	96	36	3
STR	59	0	4
SCR	59	0	4	96	36	7
HLD	59	192	1	96
HLD	59	192	5	96
TAP	60	0	3
TAP	60	0	6
TAP	60	48	5
TAP	60	64	4
TAP	60	80	5
TAP	60	96	4
XST	60	192	4
SUR	60	192	4	96	36	0
XST	60	192	5
SCR	60	192	5	96	36	7
XTP	60	240	4
XTP	60	240	5
TAP	61	0	1
TAP	61	0	4
TAP	61	48	2
TAP	61	64	3
TAP	61	80	2
TAP	61	96	3
XST	61	192	2
SCL	61	192	2	96	36	0
XST	61	192	3
SUL	61	192	3	96	36	7
XTP	61	240	2
XTP	61	240	3
TTP	62	0	0	C	1	M1
TTP	62	0	1	B	0	M1
TTP	62	0	2	B	0	M1
TTP	62	0	5	B	0	M1
TTP	62	0	6	B	0	M1
TAP	62	192	0
TAP	62	192	2
TAP	62	240	1
TAP	62	240	3
TAP	62	288	4
TAP	62	288	6
TAP	62	336	5
TAP	62	336	7
STR	63	0	0
SI_	63	0	0	96	36	4
TAP	63	0	1
BRK	63	96	0
BRK	63	96	7
TAP	63	192	5
TAP	63	192	7
TAP	63	240	4
TAP	63	240	6
TAP	63	288	1
TAP	63	288	3
TAP	63	336	0
TAP	63	336	2
TAP	64	0	6
STR	64	0	7
SI_	64	0	7	96	36	3
XTP	64	96	0
XTP	64	96	7
TAP	64	144	1
HLD	64	168	1	72
TAP	64	240	2
HLD	64	288	6	48
TAP	64	336	5
TAP	65	0	3
TAP	65	0	4
TAP	65	48	1
TAP	65	48	5
TAP	65	96	2
TAP	65	96	6
TAP	65	144	0
TAP	65	144	7
BRK	65	168	0
BRK	65	168	7
TAP	65	288	5
TAP	65	288	6
TAP	65	336	0
TAP	65	336	7
TAP	66	0	1
STR	66	0	2
SCL	66	0	2	96	96	6
XTP	66	96	4
TAP	66	144	3
TAP	66	192	2
TAP	66	240	1
TAP	66	288	0
TAP	66	288	7
TAP	66	336	4
TAP	66	336	5
STR	67	0	2
SI_	67	0	2	96	36	7
STR	67	0	3
SI_	67	0	3	96	36	6
STR	67	96	2
SCL	67	96	2	96	96	5
THO	67	192	0	96	C	0	M1
TAP	68	0	1
TAP	68	24	0
BRK	68	24	2
TAP	68	72	6
BRK	68	96	5
TAP	68	96	7
TAP	68	144	2
BRK	68	168	1
TAP	68	168	3
TAP	68	216	5
TAP	68	240	4
BRK	68	240	6
STR	68	288	3
SXR	68	288	3	96	192	0
STR	68	288	4
SXL	68	288	4	96	192	7
TAP	68	336	2
TAP	68	336	5
XTP	69	0	3
XTP	69	0	4
TAP	69	288	4
TAP	69	336	3
HLD	70	0	2	96
TTP	70	48	0	B	0	M1
TTP	70	48	1	B	0	M1
HLD	70	96	3	96
TTP	70	144	0	E	0	M1
TTP	70	144	7	B	0	M1
HLD	70	192	4	96
TTP	70	240	0	B	0	M1
TTP	70	240	1	B	0	M1
HLD	70	288	5	96
TTP	70	336	0	E	0	M1
TTP	70	336	7	B	0	M1
STR	71	0	6
SI_	71	0	6	96	36	2
XTP	71	96	6
STR	71	192	6
SF_	71	192	6	96	36	2
BRK	71	288	6
TTP	72	0	0	B	0	M1
TTP	72	0	0	C	0	M1
TTP	72	0	4	B	0	M1
TAP	72	192	1
TAP	72	192	6
STR	72	288	3
SCL	72	288	3	96	120	4
STR	72	288	4
SCR	72	288	4	96	120	3
TTP	73	192	0	B	0	M1
TTP	73	192	0	C	1	M1
TTP	73	192	1	B	0	M1
TTP	73	192	2	B	0	M1
TTP	73	192	3	B	0	M1
TTP	73	192	4	B	0	M1
TTP	73	192	5	B	0	M1
TTP	73	192	6	B	0	M1
TTP	73	192	7	B	0	M1
XTP	74	0	0
XTP	74	0	7
TAP	74	48	2
TAP	74	72	3
STR	74	96	2
SXR	74	96	2	96	48	0
TAP	74	144	2
STR	74	192	3
SCR	74	192	3	96	48	7
TAP	74	240	3
TAP	74	288	1
TAP	74	336	1
XTP	75	0	0
XTP	75	0	7
TAP	75	48	5
TAP	75	72	4
STR	75	96	5
SXL	75	96	5	96	48	7
TAP	75	144	5
STR	75	192	4
SCL	75	192	4	96	48	0
TAP	75	240	4
TAP	75	288	6
TAP	75	336	6
XTP	76	0	0
XTP	76	24	7
XTP	76	48	0
XTP	76	72	7
TTP	76	120	2	B	0	M1
TTP	76	120	2	E	0	M1
TTP	76	168	5	B	0	M1
TTP	76	168	6	E	0	M1
TAP	76	216	3
TAP	76	240	3
TAP	76	288	2
STR	76	288	4
SUL	76	288	4	96	96	3
TAP	76	336	3
TAP	76	336	5
XTP	77	0	2
XTP	77	0	4
TTP	77	192	0	B	0	M1
TTP	77	192	0	C	1	M1
TTP	77	192	1	B	0	M1
TTP	77	192	2	B	0	M1
TTP	77	192	3	B	0	M1
TTP	77	192	4	B	0	M1
TTP	77	192	5	B	0	M1
TTP	77	192	6	B	0	M1
TTP	77	192	7	B	0	M1

T_REC_TAP	336
T_REC_BRK	21
T_REC_XTP	70
T_REC_HLD	56
T_REC_XHO	10
T_REC_STR	57
T_REC_BST	1
T_REC_XST	9
T_REC_TTP	140
T_REC_THO	2
T_REC_SLD	68
T_REC_ALL	770
T_NUM_TAP	612
T_NUM_BRK	22
T_NUM_HLD	68
T_NUM_SLD	68
T_NUM_ALL	770
T_JUDGE_TAP	634
T_JUDGE_HLD	126
T_JUDGE_SLD	68
T_JUDGE_ALL	828
TTM_EACHPAIRS	159
TTM_SCR_TAP	306000
TTM_SCR_BRK	57200
TTM_SCR_HLD	68000
TTM_SCR_SLD	102000
TTM_SCR_ALL	533200
TTM_SCR_S	515100
TTM_SCR_SS	531000
TTM_RAT_ACV	10041

