VERSION	0.00.00	1.03.00
FES_MODE	0
BPM_DEF	126.000	126.000	126.000	126.000
MET_DEF	4	4
RESOLUTION	384
CLK_DEF	384
COMPATIBLE_CODE	MA2

BPM	0	0	126.000
MET	0	0	4	4

TAP	1	0	3
TAP	1	0	4
TAP	1	96	2
TAP	1	96	5
XTP	1	192	3
XTP	1	224	4
XTP	1	256	3
XTP	1	288	4
STR	2	0	4
SF_	2	0	4	96	192	0
XTP	3	0	2
XTP	3	0	6
TAP	3	48	5
TAP	3	96	4
TAP	3	144	3
TAP	3	192	2
TAP	3	192	4
TAP	3	240	2
TAP	3	240	4
XTP	4	0	1
XTP	4	0	5
TAP	4	48	2
TAP	4	96	3
TAP	4	144	4
TAP	4	192	3
TAP	4	192	5
TAP	4	240	3
TAP	4	240	5
BRK	4	288	2
BRK	4	288	6
TAP	5	0	5
TAP	5	48	4
TAP	5	96	3
HLD	5	96	6	72
HLD	5	168	5	72
TAP	5	240	4
TAP	5	288	3
TAP	5	336	2
TAP	6	0	1
TAP	6	48	1
TAP	6	96	0
TAP	6	96	2
TAP	6	192	6
TAP	6	240	6
TAP	6	288	5
TAP	6	288	7
TAP	7	0	2
TAP	7	48	3
HLD	7	96	1	72
TAP	7	96	4
HLD	7	168	2	72
TAP	7	240	3
TAP	7	288	4
TAP	7	336	5
XHO	8	0	4	48
XHO	8	0	6	48
XHO	8	72	1	48
XHO	8	72	3	48
XTP	8	144	2
XTP	8	144	5
STR	8	240	4
SCR	8	240	4	96	240	3
TAP	8	288	3
TAP	8	336	2
BRK	9	288	1
BRK	9	288	6
TAP	10	0	2
TAP	10	96	1
TAP	10	96	3
TTP	10	192	2	B	0	M1
TTP	10	240	3	B	0	M1
TTP	10	288	2	E	0	M1
TTP	10	288	4	E	0	M1
TAP	11	0	5
TAP	11	96	4
TAP	11	96	6
TTP	11	192	5	B	0	M1
TTP	11	240	4	B	0	M1
TTP	11	288	4	E	0	M1
TTP	11	288	6	E	0	M1
TAP	12	0	2
TAP	12	96	1
TAP	12	96	3
TTP	12	192	2	B	0	M1
TTP	12	240	3	B	0	M1
TTP	12	288	2	E	0	M1
TTP	12	288	4	E	0	M1
TAP	13	0	4
TAP	13	0	5
TAP	13	96	6
TAP	13	96	7
TAP	13	192	0
TAP	13	240	0
BRK	13	288	0
BRK	13	336	0
HLD	14	0	6	48
TAP	14	48	3
HLD	14	96	5	48
TAP	14	144	2
HLD	14	192	4	48
TAP	14	240	1
HLD	14	288	3	48
TAP	14	336	0
HLD	15	0	1	48
TAP	15	48	4
HLD	15	96	2	48
TAP	15	144	5
HLD	15	192	3	48
TAP	15	240	6
HLD	15	288	4	48
TAP	15	336	7
STR	16	0	6
SI_	16	0	6	96	48	3
SI_	16	0	6	96	48	4
TAP	16	192	3
TAP	16	240	3
TAP	16	288	4
STR	16	336	4
SUL	16	336	4	96	240	1
SXL	16	336	4	96	240	0
TAP	18	0	4
TAP	18	0	5
TAP	18	48	6
HLD	18	72	6	216
TAP	18	144	4
HLD	18	192	5	96
TAP	19	0	2
TAP	19	0	3
TAP	19	48	1
HLD	19	72	1	120
TAP	19	144	3
TAP	19	192	2
TAP	19	288	3
TAP	19	288	4
TAP	20	0	2
HLD	20	0	5	288
TTP	20	96	6	E	0	M1
TTP	20	192	5	E	0	M1
TTP	20	288	4	E	0	M1
HLD	21	0	2	288
TTP	21	96	2	E	0	M1
TTP	21	192	3	E	0	M1
TTP	21	288	4	E	0	M1
TAP	22	0	5
TAP	22	48	6
HLD	22	72	6	216
TAP	22	144	4
TAP	22	192	4
TAP	22	240	5
TAP	22	288	5
TAP	23	0	2
TAP	23	48	1
HLD	23	72	1	216
TAP	23	144	3
TAP	23	192	3
TAP	23	240	2
TAP	23	288	2
XTP	24	0	0
XTP	24	0	6
TAP	24	48	0
TAP	24	48	6
XTP	24	96	1
XTP	24	96	7
TAP	24	144	1
TAP	24	144	7
TAP	24	192	2
TAP	24	192	5
TAP	24	240	3
TAP	24	264	4
TAP	24	336	3
TAP	24	336	4
STR	25	0	3
SXR	25	0	3	96	192	0
STR	25	0	4
SXL	25	0	4	96	192	7
TTP	26	0	0	C	0	M1
TTP	26	96	3	E	0	M1
TTP	26	144	4	E	0	M1
TTP	26	192	5	E	0	M1
XTP	26	288	0
XTP	26	288	7
XTP	26	336	0
XTP	26	336	7
BST	27	0	1
SI_	27	0	1	96	48	7
BRK	27	0	6
STR	27	96	5
SI_	27	96	5	96	48	3
TAP	27	144	5
STR	27	192	2
SI_	27	192	2	96	48	6
TAP	27	240	2
TAP	27	288	7
TAP	27	336	7
STR	28	0	0
SCR	28	0	0	96	48	3
TAP	28	0	6
TAP	28	96	4
TAP	28	144	4
TAP	28	192	5
TAP	28	240	6
TAP	28	288	0
TAP	28	288	7
TAP	28	336	1
TAP	29	0	2
STR	29	0	3
SCR	29	0	3	96	48	6
TAP	29	96	0
TAP	29	144	7
TAP	29	168	7
TAP	29	240	0
TAP	29	288	1
TAP	29	336	2
TAP	30	0	3
TAP	30	0	4
TAP	30	48	2
TAP	30	48	5
TAP	30	96	1
TAP	30	96	6
XTP	30	144	0
XTP	30	144	7
TAP	30	168	0
TAP	30	168	7
TAP	30	288	3
TAP	30	288	4
TAP	30	336	3
TAP	30	336	4
BRK	31	0	2
BST	31	0	5
SI_	31	0	5	96	48	3
STR	31	96	1
SI_	31	96	1	96	48	7
TAP	31	144	1
STR	31	192	6
SI_	31	192	6	96	48	2
TAP	31	240	6
TAP	31	288	0
TAP	31	336	1
TAP	32	0	2
TAP	32	0	3
TAP	32	96	4
TAP	32	96	5
TAP	32	192	6
TAP	32	192	7
TAP	32	288	0
TAP	32	288	1
XTP	33	0	2
TAP	33	24	3
XTP	33	72	5
TAP	33	96	4
XTP	33	144	6
TAP	33	168	7
XTP	33	216	1
TAP	33	240	0
XTP	33	288	2
XST	33	288	3
SF_	33	288	3	96	96	7
XTP	33	336	2
XTP	33	336	3
BRK	34	192	0
BRK	34	192	5
XTP	34	288	1
XTP	34	288	6
TAP	34	336	6
HLD	35	0	3	48
TAP	35	48	4
HLD	35	96	1	48
TAP	35	144	3
HLD	35	192	4	48
TAP	35	240	3
HLD	35	288	6	48
TAP	35	336	4
STR	36	0	2
SI_	36	0	2	96	48	4
STR	36	0	6
SI_	36	0	6	96	48	4
STR	36	192	1
SI_	36	192	1	96	48	3
STR	36	192	5
SI_	36	192	5	96	48	3
TAP	37	0	0
TAP	37	0	1
TAP	37	48	7
TAP	37	96	6
TAP	37	144	5
HLD	37	192	4	96
TAP	37	288	3
XTP	37	360	0
XTP	37	360	7
XHO	38	0	0	96
XHO	38	0	7	96
TTP	38	192	0	C	1	M1
TTP	38	192	1	B	0	M1
TTP	38	192	6	B	0	M1
STR	39	0	0
SI_	39	0	0	96	48	4
TAP	39	0	7
TAP	39	96	5
TAP	39	192	0
TAP	39	192	7
TAP	39	240	6
TAP	39	288	4
TAP	39	288	5
TAP	40	0	0
STR	40	0	7
SI_	40	0	7	96	48	3
TAP	40	96	2
TAP	40	192	0
TAP	40	192	7
TAP	40	240	1
TAP	40	288	2
TAP	40	288	3
STR	41	0	0
SI_	41	0	0	96	48	4
TAP	41	0	7
TAP	41	96	5
TAP	41	192	0
TAP	41	192	7
TAP	41	240	6
TAP	41	288	4
TAP	41	288	5
TAP	42	0	0
TAP	42	0	7
TAP	42	96	5
TAP	42	96	6
TAP	42	192	3
TAP	42	192	4
TAP	42	288	1
TAP	42	288	2
TAP	43	0	0
TAP	43	0	7
TAP	43	48	5
TAP	43	72	4
TAP	43	96	5
TAP	43	144	6
TAP	43	168	7
TAP	43	192	6
TAP	43	240	1
TAP	43	264	0
TAP	43	288	1
TAP	43	336	2
TAP	43	360	3
HLD	44	0	2	96
HLD	44	96	0	96
TAP	44	192	7
TAP	44	240	7
TAP	44	288	5
TAP	44	336	5
TAP	45	0	3
TAP	45	0	4
TAP	45	48	2
TAP	45	96	0
TAP	45	96	1
TAP	45	192	3
TAP	45	192	4
TAP	45	240	5
TAP	45	288	6
STR	45	288	7
SCR	45	288	7	96	288	6
XTP	47	0	3
XHO	47	0	5	288
TAP	47	96	4
TAP	47	192	4
TAP	47	240	4
TAP	47	288	4
HLD	48	0	1	288
TAP	48	0	3
TAP	48	96	2
TAP	48	192	2
TAP	48	240	2
TAP	48	288	2
TAP	49	0	4
HLD	49	0	6	288
TAP	49	96	5
TAP	49	192	5
TAP	49	240	5
TAP	49	288	5
TAP	50	0	3
TAP	50	0	4
TTP	50	96	0	C	1	M1
TTP	50	96	1	B	0	M1
TTP	50	96	6	B	0	M1
TAP	51	0	0
TAP	51	0	7
TTP	51	96	6	E	0	M1
TTP	51	192	0	C	0	M1
TTP	51	288	2	E	0	M1
STR	52	0	5
SUL	52	0	5	96	192	3
STR	53	0	2
SUR	53	0	2	96	192	4
STR	54	0	5
SCL	54	0	5	96	48	3
STR	54	192	2
SCR	54	192	2	96	48	4
HLD	55	0	5	96
HLD	55	96	4	96
TAP	55	192	3
TAP	55	288	2
TAP	55	288	5
TAP	56	0	2
TAP	56	48	1
HLD	56	72	1	216
TAP	56	144	3
TAP	56	192	3
TAP	56	240	2
TAP	56	288	2
TAP	57	0	5
TAP	57	48	6
HLD	57	72	6	216
TAP	57	144	4
TAP	57	192	4
TAP	57	240	5
TAP	57	288	5
XTP	58	0	1
XTP	58	0	7
TAP	58	48	1
TAP	58	48	7
XTP	58	96	0
XTP	58	96	6
TAP	58	144	0
TAP	58	144	6
TAP	58	192	2
TAP	58	192	5
TAP	58	240	4
TAP	58	264	3
TAP	58	336	3
TAP	58	336	4
STR	59	0	3
SXR	59	0	3	96	192	0
STR	59	0	4
SXL	59	0	4	96	192	7
XTP	60	0	1
XTP	60	0	5
TAP	60	48	2
TAP	60	96	3
TAP	60	144	4
TAP	60	192	3
TAP	60	192	5
TAP	60	240	3
TAP	60	240	5
XTP	61	0	2
XTP	61	0	6
TAP	61	48	5
TAP	61	96	4
TAP	61	144	3
BRK	61	192	2
BRK	61	192	4
TAP	61	288	0
TAP	61	288	7
TAP	61	336	0
TAP	61	336	7
XHO	62	0	1	96
XHO	62	0	6	96
XTP	62	192	2
XTP	62	192	4
XTP	62	240	2
XTP	62	240	4
XTP	62	288	3
XTP	62	288	5
XTP	62	336	3
XTP	62	336	5
TAP	63	0	2
STR	63	0	6
SI_	63	0	6	96	48	2
TAP	63	192	0
TAP	63	240	1
BRK	63	288	2
BRK	63	288	7
TAP	64	0	3
TAP	64	0	5
TAP	64	48	2
TAP	64	96	1
TAP	64	96	3
TAP	64	144	0
HLD	64	168	0	72
TAP	64	240	7
TAP	64	288	1
TAP	64	288	6
TAP	64	336	5
TAP	65	0	3
TAP	65	0	4
TAP	65	48	2
TAP	65	48	5
TAP	65	96	1
TAP	65	96	6
XTP	65	144	0
XTP	65	144	7
TAP	65	168	0
TAP	65	168	7
TAP	65	288	3
TAP	65	288	4
TAP	65	336	3
TAP	65	336	4
BST	66	0	2
SI_	66	0	2	96	48	4
BRK	66	0	5
STR	66	96	6
SI_	66	96	6	96	48	0
TAP	66	144	6
STR	66	192	1
SI_	66	192	1	96	48	5
TAP	66	240	1
TAP	66	288	7
TAP	66	336	6
TAP	67	0	4
TAP	67	0	5
TAP	67	96	2
TAP	67	96	3
TAP	67	192	0
TAP	67	192	1
TAP	67	288	6
TAP	67	288	7
XTP	68	0	5
TAP	68	24	4
XTP	68	72	2
TAP	68	96	3
XTP	68	144	1
TAP	68	168	0
XTP	68	216	6
TAP	68	240	7
XST	68	288	4
SF_	68	288	4	96	96	0
XTP	68	288	5
XTP	68	336	4
XTP	68	336	5
BRK	69	192	2
BRK	69	192	7
XTP	69	288	1
XTP	69	288	6
TAP	69	336	1
HLD	70	0	4	48
TAP	70	48	3
HLD	70	96	6	48
TAP	70	144	4
HLD	70	192	3	48
TAP	70	240	4
HLD	70	288	1	48
TAP	70	336	3
STR	71	0	1
SI_	71	0	1	96	48	3
STR	71	0	5
SI_	71	0	5	96	48	3
STR	71	192	2
SI_	71	192	2	96	48	4
STR	71	192	6
SI_	71	192	6	96	48	4
TAP	72	0	6
TAP	72	0	7
TAP	72	48	0
TAP	72	96	1
TAP	72	144	2
HLD	72	192	3	96
TAP	72	288	4
XTP	72	360	0
XTP	72	360	7
XHO	73	0	0	96
XHO	73	0	7	96
TTP	73	192	0	C	1	M1
TTP	73	192	1	B	0	M1
TTP	73	192	2	B	0	M1
TTP	73	192	5	B	0	M1
TTP	73	192	6	B	0	M1
TAP	74	0	0
TAP	74	0	7
TAP	74	48	6
TAP	74	96	4
TAP	74	96	5
HLD	74	192	3	48
HLD	74	192	4	48
HLD	74	288	2	48
HLD	74	288	3	48
TAP	75	0	0
TAP	75	0	7
TAP	75	48	1
TAP	75	96	2
TAP	75	96	3
HLD	75	192	3	48
HLD	75	192	4	48
HLD	75	288	4	48
HLD	75	288	5	48
XTP	76	0	0
XTP	76	24	7
XTP	76	48	0
XST	76	72	7
SSR	76	72	7	96	120	3
TAP	77	0	2
TAP	77	0	5
TTP	77	192	0	B	0	M1
TTP	77	192	0	C	1	M1
TTP	77	192	3	B	0	M1
TTP	77	192	4	B	0	M1
TTP	77	192	7	B	0	M1

T_REC_TAP	334
T_REC_BRK	17
T_REC_XTP	64
T_REC_HLD	46
T_REC_XHO	11
T_REC_STR	33
T_REC_BST	3
T_REC_XST	3
T_REC_TTP	41
T_REC_THO	0
T_REC_SLD	41
T_REC_ALL	593
T_NUM_TAP	475
T_NUM_BRK	20
T_NUM_HLD	57
T_NUM_SLD	41
T_NUM_ALL	593
T_JUDGE_TAP	495
T_JUDGE_HLD	122
T_JUDGE_SLD	41
T_JUDGE_ALL	658
TTM_EACHPAIRS	138
TTM_SCR_TAP	237500
TTM_SCR_BRK	52000
TTM_SCR_HLD	57000
TTM_SCR_SLD	61500
TTM_SCR_ALL	408000
TTM_SCR_S	393850
TTM_SCR_SS	406000
TTM_RAT_ACV	10049

