VERSION	0.00.00	1.03.00
FES_MODE	0
BPM_DEF	126.000	126.000	126.000	126.000
MET_DEF	4	4
RESOLUTION	384
CLK_DEF	384
COMPATIBLE_CODE	MA2

BPM	0	0	126.000
MET	0	0	4	4

TAP	3	0	2
TAP	3	96	2
TAP	3	192	2
TAP	3	192	3
TAP	4	0	3
TAP	4	0	4
TAP	4	96	3
TAP	4	96	4
XTP	4	192	2
XTP	4	192	5
TAP	5	0	6
TAP	5	96	6
TAP	5	192	6
TAP	5	192	7
TAP	6	0	1
TAP	6	96	1
TAP	6	192	0
TAP	6	192	1
TAP	7	0	2
TAP	7	96	2
TAP	7	192	2
TAP	7	192	3
HLD	8	0	3	96
HLD	8	0	4	96
STR	8	192	2
SLL	8	192	2	96	288	3
STR	8	192	5
SLR	8	192	5	96	288	4
HLD	10	0	5	192
TAP	10	192	4
TAP	10	288	3
HLD	11	0	2	192
TAP	11	192	3
TAP	11	288	4
HLD	12	0	5	192
TAP	12	192	4
TAP	12	288	3
TAP	13	0	2
TAP	13	0	3
TAP	13	96	3
TAP	13	96	4
TAP	13	192	4
TAP	13	192	5
XTP	13	288	3
XTP	13	288	6
TAP	14	0	7
TAP	14	96	6
TAP	14	192	7
TAP	15	0	1
TAP	15	96	0
TAP	15	192	1
TAP	16	0	6
TAP	16	96	7
TAP	16	192	0
TAP	16	288	1
STR	17	0	0
SI_	17	0	0	96	144	4
STR	17	0	7
SI_	17	0	7	96	144	3
TTP	18	0	2	B	0	L1
TTP	18	96	1	B	0	L1
TTP	18	192	1	E	0	L1
TTP	19	0	6	B	0	L1
TTP	19	96	5	B	0	L1
TTP	19	192	5	E	0	L1
TTP	20	0	3	B	0	L1
TTP	20	96	2	B	0	L1
TTP	20	192	1	B	0	L1
TTP	20	288	0	B	0	L1
TTP	21	0	7	B	0	L1
TTP	21	96	6	B	0	L1
TTP	21	192	5	B	0	L1
HLD	22	0	1	192
HLD	22	192	0	192
HLD	23	0	7	192
TAP	23	192	6
TAP	24	0	0
TAP	24	0	7
TAP	24	96	6
TAP	24	96	7
TAP	24	192	0
TAP	24	192	7
TAP	24	288	0
TAP	24	288	1
STR	25	0	0
SCR	25	0	0	96	144	3
STR	25	0	7
SCL	25	0	7	96	144	4
TTP	26	0	0	C	1	L1
TAP	27	0	1
TAP	27	96	0
TAP	27	96	1
TAP	27	192	6
TAP	27	288	6
TAP	27	288	7
TAP	28	0	5
TAP	28	96	4
TAP	28	96	5
TAP	28	192	2
TAP	28	288	2
TAP	28	288	3
HLD	29	0	1	96
HLD	29	0	4	96
HLD	29	192	3	96
HLD	29	192	6	96
TAP	30	0	2
TAP	30	0	5
TAP	30	96	1
TAP	30	96	6
TAP	30	192	0
TAP	30	192	7
TAP	31	0	6
TAP	31	96	6
TAP	31	96	7
TAP	31	192	1
TAP	31	288	0
TAP	31	288	1
XTP	32	0	2
XTP	32	0	3
XTP	32	96	1
XTP	32	96	4
XTP	32	192	0
XTP	32	192	5
XTP	32	288	6
XTP	32	288	7
TAP	33	0	4
TAP	33	0	5
TAP	33	96	3
TAP	33	96	6
TAP	33	192	2
TAP	33	192	7
TAP	33	288	0
TAP	33	288	1
BST	34	0	0
SI_	34	0	0	96	144	3
BST	34	0	7
SI_	34	0	7	96	144	4
TAP	35	0	2
TAP	35	96	2
TAP	35	192	1
TAP	35	288	1
TAP	36	0	0
TAP	36	96	0
TAP	36	192	1
TAP	36	192	7
TTP	37	0	5	B	0	L1
TTP	37	0	6	B	0	L1
TTP	37	192	1	B	0	L1
TTP	37	192	2	B	0	L1
TAP	38	0	3
TAP	38	0	4
TAP	38	96	2
TAP	38	96	5
BRK	38	192	1
BRK	38	192	6
STR	39	0	2
SI_	39	0	2	96	144	7
STR	40	0	6
SI_	40	0	6	96	144	3
STR	41	0	2
SI_	41	0	2	96	144	7
TAP	42	0	6
TAP	42	96	6
TAP	42	192	6
TAP	42	192	7
STR	43	0	5
SCR	43	0	5	96	144	0
STR	44	0	1
SCR	44	0	1	96	144	4
STR	45	0	5
SCR	45	0	5	96	144	0
STR	46	0	1
SUR	46	0	1	96	144	5
HLD	47	0	6	192
TAP	47	192	7
TAP	47	288	0
HLD	48	0	1	192
TAP	48	192	0
TAP	48	288	7
HLD	49	0	6	192
TAP	49	192	7
TAP	49	288	0
TAP	50	0	0
TAP	50	0	7
BST	50	96	1
SLR	50	96	1	96	336	7
BST	50	96	6
SLL	50	96	6	96	336	0
TTP	52	0	1	B	0	L1
TTP	52	0	1	E	0	L1
TTP	53	0	6	B	0	L1
TTP	53	0	7	E	0	L1
TTP	54	0	2	B	0	L1
TTP	54	0	3	E	0	L1
TTP	55	0	5	B	0	L1
TTP	55	0	5	E	0	L1
TAP	56	0	2
TAP	56	96	2
TAP	56	192	2
TAP	56	192	3
TAP	57	0	5
TAP	57	96	5
TAP	57	192	4
TAP	57	192	5
TAP	58	0	3
TAP	58	96	3
TAP	58	192	4
TAP	58	288	4
STR	59	0	3
SI_	59	0	3	96	144	7
STR	59	0	4
SI_	59	0	4	96	144	0
TAP	60	0	6
TAP	60	96	6
TAP	60	192	6
TAP	60	192	7
TAP	61	0	0
TAP	61	0	7
TAP	61	96	0
TAP	61	96	7
TAP	61	192	1
TAP	61	192	6
XTP	62	0	4
XTP	62	0	5
XTP	62	192	2
XTP	62	192	3
TAP	63	0	3
TAP	63	0	4
TAP	63	96	2
TAP	63	96	5
TAP	63	192	1
TAP	63	192	6
TAP	64	0	6
TAP	64	96	6
TAP	64	96	7
TAP	64	192	1
TAP	64	288	0
TAP	64	288	1
TAP	65	0	0
TAP	65	0	7
TAP	65	96	1
TAP	65	96	6
TAP	65	192	2
TAP	65	192	5
TAP	66	0	2
TAP	66	96	2
TAP	66	96	3
TAP	66	192	5
TAP	66	288	4
TAP	66	288	5
XTP	67	0	6
XTP	67	0	7
XTP	67	96	0
XTP	67	96	5
XTP	67	192	1
XTP	67	192	4
XTP	67	288	2
XTP	67	288	3
TAP	68	0	0
TAP	68	0	1
TAP	68	96	2
TAP	68	96	7
TAP	68	192	3
TAP	68	192	6
TAP	68	288	4
TAP	68	288	5
BST	69	0	3
SI_	69	0	3	96	144	0
BST	69	0	4
SI_	69	0	4	96	144	7
TAP	70	0	6
TAP	70	96	7
TAP	70	192	0
TAP	70	288	1
TAP	71	0	2
TAP	71	96	3
TAP	71	192	2
TAP	71	192	4
TTP	72	0	5	B	0	L1
TTP	72	0	6	B	0	L1
TTP	72	192	1	B	0	L1
TTP	72	192	2	B	0	L1
TAP	73	0	3
TAP	73	0	4
TAP	73	96	2
TAP	73	96	5
BRK	73	192	1
BRK	73	192	6
TAP	74	0	6
TAP	74	96	6
TAP	74	192	6
TAP	74	192	7
TAP	75	0	1
TAP	75	96	1
TAP	75	192	0
TAP	75	192	1
HLD	76	0	0	96
HLD	76	0	7	96
TAP	76	192	0
TAP	76	192	7
TAP	76	288	0
TAP	76	288	7
XHO	77	0	1	192
XHO	77	0	6	192

T_REC_TAP	185
T_REC_BRK	4
T_REC_XTP	24
T_REC_HLD	17
T_REC_XHO	2
T_REC_STR	15
T_REC_BST	6
T_REC_XST	0
T_REC_TTP	30
T_REC_THO	0
T_REC_SLD	21
T_REC_ALL	304
T_NUM_TAP	254
T_NUM_BRK	10
T_NUM_HLD	19
T_NUM_SLD	21
T_NUM_ALL	304
T_JUDGE_TAP	264
T_JUDGE_HLD	60
T_JUDGE_SLD	21
T_JUDGE_ALL	345
TTM_EACHPAIRS	84
TTM_SCR_TAP	127000
TTM_SCR_BRK	26000
TTM_SCR_HLD	19000
TTM_SCR_SLD	31500
TTM_SCR_ALL	203500
TTM_SCR_S	196450
TTM_SCR_SS	202500
TTM_RAT_ACV	10049

