VERSION	0.00.00	1.03.00
FES_MODE	0
BPM_DEF	126.000	126.000	126.000	126.000
MET_DEF	4	4
RESOLUTION	384
CLK_DEF	384
COMPATIBLE_CODE	MA2

BPM	0	0	126.000
MET	0	0	4	4

TAP	5	0	0
TAP	6	0	0
TAP	7	0	7
TAP	8	0	7
BRK	9	0	0
TAP	10	0	1
TAP	10	192	1
TAP	11	0	2
TAP	12	0	2
TAP	12	192	2
TAP	13	0	3
TAP	13	0	4
TAP	14	0	4
TAP	14	192	4
TAP	15	0	5
TAP	16	0	6
TAP	16	192	6
XTP	17	0	0
XTP	17	0	7
STR	18	0	7
SI_	18	0	7	96	288	4
STR	20	0	0
SI_	20	0	0	96	288	3
STR	22	0	7
SI_	22	0	7	96	288	3
STR	24	0	0
SI_	24	0	0	96	288	4
BRK	26	0	7
TAP	27	0	7
TAP	27	96	7
TAP	27	192	7
TAP	28	0	6
TAP	28	192	6
TAP	29	0	5
TAP	29	96	5
TAP	29	192	5
TAP	30	0	4
XTP	30	192	3
XTP	30	192	4
TAP	31	0	3
TAP	31	96	3
TAP	31	192	3
TAP	32	0	2
TAP	32	192	2
TAP	33	0	1
TAP	33	96	1
TAP	33	192	1
TAP	34	0	0
TAP	34	0	7
XTP	34	192	0
XTP	34	192	7
TAP	35	0	1
TAP	35	192	0
TAP	35	192	1
TAP	36	0	6
TAP	36	192	6
TAP	36	192	7
TAP	37	0	0
TAP	37	96	0
TAP	37	192	0
XTP	38	0	0
XTP	38	0	7
BRK	38	192	1
BRK	38	192	6
TAP	39	0	0
TAP	39	192	0
TAP	40	0	1
TAP	40	192	1
TAP	41	0	2
TAP	41	192	2
TAP	42	0	3
TAP	42	0	4
TAP	42	192	3
TAP	42	192	4
TAP	43	0	4
TAP	43	192	4
TAP	44	0	5
TAP	44	192	5
TAP	45	0	6
TAP	45	192	6
TAP	46	0	0
TAP	46	0	7
XTP	46	192	0
XTP	46	192	7
HLD	47	0	0	192
HLD	47	0	1	192
HLD	48	0	6	192
HLD	48	0	7	192
HLD	49	0	0	192
HLD	49	0	7	192
XHO	50	0	1	384
XHO	50	0	6	384
TTP	52	0	0	B	0	L1
TTP	53	0	7	B	0	L1
TTP	54	0	1	B	0	L1
TTP	55	0	6	B	0	L1
TTP	56	0	2	B	0	L1
TTP	57	0	5	B	0	L1
TTP	58	0	3	B	0	L1
TTP	59	0	4	B	0	L1
THO	60	0	0	384	C	0	L1
TAP	62	0	0
TAP	62	192	0
TAP	63	0	7
TAP	63	192	0
TAP	63	192	7
TAP	64	0	6
TAP	64	96	6
TAP	64	192	6
TAP	65	0	5
TAP	65	96	5
XTP	65	192	4
XTP	65	192	5
TAP	66	0	3
TAP	66	96	3
TAP	66	192	3
TAP	67	0	2
TAP	67	96	2
TAP	67	192	2
TAP	68	0	1
TAP	68	96	1
TAP	68	192	1
TAP	69	0	0
TAP	69	0	7
XTP	69	192	0
XTP	69	192	7
TAP	70	0	1
TAP	70	96	1
TAP	70	192	1
TAP	71	0	2
TAP	71	192	2
TAP	71	192	3
TAP	72	0	4
TAP	72	96	4
TAP	72	192	4
TAP	73	0	3
TAP	73	0	4
BRK	73	192	2
BRK	73	192	5
TTP	74	0	4	B	0	L1
TTP	74	192	5	B	0	L1
TTP	75	0	6	B	0	L1
TTP	75	192	7	B	0	L1
TTP	76	0	0	B	0	L1
TTP	76	192	1	B	0	L1
THO	77	0	0	192	C	1	L1

T_REC_TAP	94
T_REC_BRK	6
T_REC_XTP	14
T_REC_HLD	6
T_REC_XHO	2
T_REC_STR	4
T_REC_BST	0
T_REC_XST	0
T_REC_TTP	14
T_REC_THO	2
T_REC_SLD	4
T_REC_ALL	146
T_NUM_TAP	126
T_NUM_BRK	6
T_NUM_HLD	10
T_NUM_SLD	4
T_NUM_ALL	146
T_JUDGE_TAP	132
T_JUDGE_HLD	52
T_JUDGE_SLD	4
T_JUDGE_ALL	188
TTM_EACHPAIRS	24
TTM_SCR_TAP	63000
TTM_SCR_BRK	15600
TTM_SCR_HLD	10000
TTM_SCR_SLD	6000
TTM_SCR_ALL	94600
TTM_SCR_S	91200
TTM_SCR_SS	94000
TTM_RAT_ACV	10063

