VERSION	0.00.00	1.03.00
FES_MODE	0
BPM_DEF	270.000	270.000	270.000	270.000
MET_DEF	4	4
RESOLUTION	384
CLK_DEF	384
COMPATIBLE_CODE	MA2

BPM	0	0	270.000
MET	0	0	4	4

TAP	2	0	3
TAP	2	96	3
TAP	2	192	4
TAP	2	288	4
TAP	3	0	2
TAP	3	96	2
TAP	3	192	5
TAP	3	288	5
TAP	4	0	3
TAP	4	96	3
TAP	4	192	5
TAP	4	288	5
TAP	5	0	2
TAP	5	96	2
TAP	5	192	4
TAP	5	288	5
TAP	5	320	4
TAP	5	352	3
HLD	6	0	2	384
TAP	6	192	3
TAP	6	288	3
TAP	7	0	4
TAP	7	96	4
TAP	7	192	5
TAP	7	288	5
HLD	8	0	4	480
TAP	8	96	3
TAP	8	192	3
TAP	8	288	3
TAP	9	0	3
TAP	9	96	3
TAP	9	192	4
TAP	9	240	3
TAP	9	336	2
TAP	9	336	5
XTP	10	0	2
XTP	10	0	5
TAP	10	96	3
TAP	10	192	4
TAP	10	288	5
HLD	10	336	5	336
TAP	11	0	3
TAP	11	96	3
TAP	11	192	4
TAP	11	288	4
TAP	12	0	2
TAP	12	0	5
TAP	12	96	4
TAP	12	192	3
TAP	12	288	2
HLD	12	336	2	240
TAP	13	0	4
TAP	13	96	4
HLD	13	192	3	96
TAP	13	288	2
TAP	14	0	1
TAP	14	0	4
TAP	14	96	2
TAP	14	192	3
TAP	14	288	5
HLD	14	336	5	336
TAP	15	0	3
TAP	15	96	3
TAP	15	192	4
TAP	15	288	4
HLD	16	0	1	288
HLD	16	0	6	288
TTP	17	0	1	E	0	M1
TTP	17	96	3	E	0	M1
TTP	17	192	5	E	0	M1
TTP	17	288	7	E	0	M1
STR	18	0	1
SI_	18	0	1	96	48	3
TAP	18	96	0
STR	18	192	7
SI_	18	192	7	96	48	5
TAP	18	288	0
STR	19	0	1
SI_	19	0	1	96	48	3
TAP	19	96	0
STR	19	192	7
SI_	19	192	7	96	48	5
TAP	19	288	0
HLD	20	0	1	96
TAP	20	96	2
TAP	20	192	6
TAP	20	240	0
TAP	20	264	7
TAP	20	288	0
HLD	20	336	5	144
TAP	21	48	4
TAP	21	96	4
TAP	21	192	2
TAP	21	240	3
TAP	21	288	1
STR	22	0	6
SI_	22	0	6	96	48	4
TAP	22	96	7
STR	22	192	0
SI_	22	192	0	96	48	2
TAP	22	288	7
STR	23	0	6
SI_	23	0	6	96	48	4
TAP	23	96	7
STR	23	192	0
SI_	23	192	0	96	48	2
TAP	23	288	7
HLD	24	0	6	96
TAP	24	96	4
TAP	24	192	1
TAP	24	240	7
TAP	24	264	0
STR	24	288	7
SSR	24	288	7	96	288	3
TAP	24	336	2
XHO	26	0	4	96
XHO	26	0	5	96
XHO	26	144	1	96
XHO	26	144	4	96
TAP	26	288	0
TAP	26	288	1
XHO	27	0	2	96
XHO	27	0	3	96
XHO	27	144	3	96
XHO	27	144	6	96
TAP	27	288	6
TAP	27	288	7
XHO	28	0	4	96
XHO	28	0	5	96
XHO	28	144	1	96
XHO	28	144	4	96
TAP	28	288	0
TAP	28	288	1
TAP	29	0	4
TAP	29	48	1
TAP	29	96	5
TAP	29	144	2
TAP	29	192	6
TAP	29	240	3
TAP	29	288	7
STR	30	0	1
SI_	30	0	1	96	48	5
TAP	30	96	0
STR	30	192	7
SI_	30	192	7	96	48	3
TAP	30	288	6
STR	31	0	5
SI_	31	0	5	96	48	1
TAP	31	96	4
STR	31	192	3
SI_	31	192	3	96	48	7
TAP	31	288	2
TAP	32	0	1
TAP	32	48	0
TAP	32	96	7
TAP	32	144	6
TAP	32	192	5
TAP	32	240	4
TAP	32	288	3
TAP	32	336	2
THO	33	0	0	192	C	1	M1
TAP	34	0	1
TAP	34	48	1
TAP	34	96	0
TAP	34	144	0
TAP	34	192	3
TAP	34	240	3
TAP	34	288	4
TAP	34	336	4
TAP	35	0	7
TAP	35	48	7
TAP	35	96	6
TAP	35	144	6
TAP	35	192	4
TAP	35	240	4
TAP	35	288	5
TAP	35	336	5
TAP	36	0	0
TAP	36	48	0
TAP	36	96	7
TAP	36	144	7
TAP	36	192	2
TAP	36	240	2
TAP	36	288	3
TAP	36	336	3
TAP	37	0	0
TAP	37	48	4
STR	37	96	0
SI_	37	96	0	96	48	4
TAP	37	144	4
BRK	37	192	0
TAP	38	0	6
TAP	38	48	6
TAP	38	96	7
TAP	38	144	7
TAP	38	192	4
TAP	38	240	4
TAP	38	288	3
TAP	38	336	3
TAP	39	0	0
TAP	39	48	0
TAP	39	96	1
TAP	39	144	1
TAP	39	192	3
TAP	39	240	3
TAP	39	288	2
TAP	39	336	2
TAP	40	0	7
TAP	40	48	7
TAP	40	96	0
TAP	40	144	0
TAP	40	192	5
TAP	40	240	5
TAP	40	288	4
TAP	40	336	4
TAP	41	0	7
TAP	41	48	3
TAP	41	96	7
TAP	41	144	3
HLD	41	192	4	96
HLD	41	192	6	96
TAP	42	0	1
TAP	42	48	1
TAP	42	96	0
TAP	42	144	0
TAP	42	192	3
TAP	42	240	3
TAP	42	288	4
TAP	42	336	4
TAP	43	0	7
TAP	43	48	7
TAP	43	96	6
TAP	43	144	6
TAP	43	192	4
TAP	43	240	4
TAP	43	288	5
TAP	43	336	5
TAP	44	0	0
TAP	44	48	0
TAP	44	96	7
TAP	44	144	7
TAP	44	192	2
TAP	44	240	2
TAP	44	288	3
TAP	44	336	3
TAP	45	0	0
TAP	45	48	4
TAP	45	96	2
TAP	45	144	6
BRK	45	192	1
BRK	45	192	5
TAP	46	0	6
TAP	46	48	6
TAP	46	96	7
TAP	46	144	7
TAP	46	192	6
TAP	46	240	6
TAP	46	288	4
TAP	46	336	4
TAP	47	0	3
TAP	47	48	3
TAP	47	96	1
TAP	47	144	1
TAP	47	192	7
TAP	47	216	6
TAP	47	240	5
TAP	47	264	4
STR	47	288	0
SSL	47	288	0	96	384	4
TAP	47	312	1
TAP	47	336	2
TAP	47	360	3
BRK	49	192	2
BRK	49	192	6
TAP	50	0	3
TAP	50	0	4
TAP	50	96	2
TAP	50	144	3
TAP	50	192	2
TAP	50	288	1
TAP	50	288	4
HLD	51	0	0	144
HLD	51	144	1	144
TAP	51	288	2
TAP	52	0	3
TAP	52	0	4
TAP	52	96	5
TAP	52	144	4
TAP	52	192	5
TAP	52	288	3
TAP	52	288	6
HLD	53	0	7	144
HLD	53	144	6	144
TAP	53	288	5
TAP	54	0	3
TAP	54	0	4
TAP	54	96	2
TAP	54	144	3
TAP	54	192	2
TAP	54	288	1
TAP	54	288	4
HLD	55	0	0	144
HLD	55	144	1	144
TAP	55	288	2
STR	56	0	7
SI_	56	0	7	96	96	3
STR	56	96	3
SI_	56	96	3	96	96	7
TTP	56	192	2	E	0	M1
TTP	56	288	1	E	0	M1
STR	57	0	0
SI_	57	0	0	96	96	4
STR	57	96	4
SI_	57	96	4	96	96	0
TTP	57	192	6	E	0	M1
TTP	57	288	7	E	0	M1
TAP	58	0	0
HLD	58	0	7	192
TAP	58	96	5
TAP	58	144	5
TAP	58	192	5
TAP	58	288	4
TAP	58	288	6
HLD	59	0	7	144
HLD	59	144	5	144
TAP	59	288	4
TAP	60	0	0
HLD	60	0	3	192
TAP	60	96	2
TAP	60	144	2
TAP	60	192	2
TAP	60	288	1
TAP	60	288	4
HLD	61	0	0	144
HLD	61	144	2	144
TAP	61	288	3
TAP	62	0	4
HLD	62	0	7	192
TAP	62	96	5
TAP	62	144	5
TAP	62	192	5
TAP	62	288	4
TAP	62	288	6
HLD	63	0	7	144
HLD	63	144	5	144
TAP	63	288	4
STR	64	0	1
SLR	64	0	1	96	192	7
TAP	64	96	3
STR	64	192	7
SLL	64	192	7	96	192	1
TAP	64	288	5
STR	65	0	1
SLR	65	0	1	96	144	7
TAP	65	96	3
TTP	65	192	0	C	1	M1
BRK	65	192	5
HLD	66	0	4	1440
TAP	66	168	2
TAP	66	288	2
TTP	67	0	3	B	0	M1
TTP	67	24	4	B	0	M1
HLD	67	144	5	144
TAP	68	0	5
TAP	68	168	3
TAP	68	288	3
TAP	69	0	2
TAP	69	144	2
HLD	69	288	3	1152
TAP	70	0	4
TAP	70	168	5
TAP	70	288	5
TTP	71	0	4	B	0	M1
TTP	71	24	3	B	0	M1
HLD	71	144	2	144
TAP	72	0	2
TAP	72	168	4
TAP	72	288	5
TAP	73	0	3
TAP	73	32	4
TAP	73	64	3
TAP	73	96	4
TAP	73	128	3
TAP	73	160	4
HLD	73	192	3	192
TTP	74	0	0	C	1	M1
HLD	76	0	0	96
HLD	76	96	1	96
HLD	76	192	2	96
HLD	76	288	3	96
HLD	77	0	4	96
HLD	77	96	5	96
HLD	77	192	6	96
HLD	77	288	7	96
TAP	78	0	0
TAP	78	48	7
TAP	78	96	1
TAP	78	144	3
TAP	78	192	2
TAP	78	240	4
TAP	78	288	3
TAP	78	336	5
TAP	79	0	0
TAP	79	48	7
TAP	79	96	2
TAP	79	144	4
TAP	79	192	3
TAP	79	240	5
TAP	79	288	4
TAP	79	336	6
TAP	80	0	0
TAP	80	24	1
TAP	80	48	2
TAP	80	72	3
TAP	80	96	4
TAP	80	120	5
TAP	80	144	6
TAP	80	168	7
TAP	80	192	0
TAP	80	216	1
TAP	80	240	2
TAP	80	264	3
TAP	80	288	4
TAP	80	312	5
TAP	80	336	6
TAP	80	360	7
BRK	81	0	0
BRK	81	0	4
STR	81	96	3
SI_	81	96	3	96	48	7
TTP	81	192	0	C	1	M1
TAP	82	0	2
TAP	82	0	7
TAP	82	64	1
TAP	82	96	0
TAP	82	160	3
TAP	82	192	4
TAP	82	256	7
TAP	82	288	6
TAP	82	352	0
STR	83	0	5
SI_	83	0	5	96	48	0
STR	83	96	1
SI_	83	96	1	96	48	4
STR	83	192	6
SI_	83	192	6	96	48	3
TAP	83	288	2
TAP	84	0	0
TAP	84	64	6
TAP	84	96	7
TAP	84	160	4
TAP	84	192	3
TAP	84	256	0
TAP	84	288	1
TAP	84	352	7
STR	85	0	2
SI_	85	0	2	96	48	7
STR	85	96	6
SI_	85	96	6	96	48	3
STR	85	192	1
SI_	85	192	1	96	48	4
TAP	85	288	5
TAP	86	0	7
TAP	86	64	1
TAP	86	96	0
TAP	86	160	3
TAP	86	192	4
TAP	86	256	7
TAP	86	288	6
TAP	86	352	0
STR	87	0	5
SI_	87	0	5	96	48	0
STR	87	96	1
SI_	87	96	1	96	48	4
STR	87	192	6
SI_	87	192	6	96	48	3
TAP	87	288	2
TAP	88	0	0
TAP	88	64	6
TAP	88	96	7
TAP	88	160	4
TAP	88	192	3
TAP	88	256	0
TAP	88	288	1
XTP	88	352	2
XTP	88	352	7
TAP	89	96	0
TTP	89	96	6	B	0	M1
TTP	89	192	2	B	0	M1
TAP	89	192	7
TAP	89	288	1
TTP	89	288	4	E	0	M1
TAP	90	0	0
TAP	90	0	5
TAP	90	64	6
TAP	90	96	7
TAP	90	160	5
TAP	90	192	4
TAP	90	256	0
TAP	90	288	1
TAP	90	352	7
STR	91	0	2
SI_	91	0	2	96	48	6
STR	91	96	4
SI_	91	96	4	96	48	0
STR	91	192	1
SI_	91	192	1	96	48	4
TAP	91	288	5
TAP	92	0	7
TAP	92	64	1
TAP	92	96	0
TAP	92	160	2
TAP	92	192	3
TAP	92	256	7
TAP	92	288	6
TAP	92	352	0
STR	93	0	5
SI_	93	0	5	96	48	0
STR	93	96	2
SCR	93	96	2	96	48	5
STR	93	192	7
SUL	93	192	7	96	48	3
TAP	93	288	1
TAP	94	0	0
TAP	94	64	6
TAP	94	96	7
TAP	94	160	3
TAP	94	192	2
TAP	94	256	0
TAP	94	288	1
TAP	94	352	7
STR	95	0	2
SV_	95	0	2	96	48	5
STR	95	96	7
SI_	95	96	7	96	48	3
STR	95	192	1
SUR	95	192	1	96	48	5
TAP	95	288	6
STR	96	0	7
SCL	96	0	7	96	48	4
TAP	96	96	4
STR	96	192	0
SCR	96	192	0	96	48	3
TAP	96	288	3
TAP	97	0	7
TAP	97	96	3
TAP	97	96	4
BRK	97	192	1
BRK	97	192	6
XTP	98	0	0
XTP	98	0	7
TAP	98	16	1
TAP	98	32	2
HLD	98	48	3	96
XTP	98	144	0
TAP	98	160	1
TAP	98	176	2
HLD	98	192	3	96
BRK	98	288	1
XTP	99	0	0
XTP	99	0	7
TAP	99	16	6
TAP	99	32	5
HLD	99	48	4	96
XTP	99	144	7
TAP	99	160	6
TAP	99	176	5
HLD	99	192	4	96
BRK	99	288	6
XTP	100	0	0
XTP	100	0	7
TAP	100	16	1
TAP	100	32	2
HLD	100	48	3	96
XTP	100	144	0
TAP	100	160	1
TAP	100	176	2
HLD	100	192	3	96
BRK	100	288	1
TTP	101	0	1	E	0	M1
TTP	101	96	7	E	0	M1
TTP	101	192	5	E	0	M1
TTP	101	288	3	E	0	M1
XTP	102	0	0
XTP	102	0	7
TAP	102	16	6
TAP	102	32	5
HLD	102	48	4	96
XTP	102	144	7
TAP	102	160	6
TAP	102	176	5
HLD	102	192	4	96
BRK	102	288	6
XTP	103	0	0
XTP	103	0	7
TAP	103	16	1
TAP	103	32	2
HLD	103	48	3	96
XTP	103	144	0
TAP	103	160	1
TAP	103	176	2
HLD	103	192	3	96
BRK	103	288	1
XTP	104	0	0
XTP	104	0	7
TAP	104	16	6
TAP	104	32	5
HLD	104	48	4	96
XTP	104	144	7
TAP	104	160	6
TAP	104	176	5
HLD	104	192	4	96
BRK	104	288	6
TTP	105	0	7	E	0	M1
TTP	105	96	1	E	0	M1
TTP	105	192	3	E	0	M1
TTP	105	288	5	E	0	M1
XTP	106	0	0
XTP	106	0	7
TAP	106	16	1
TAP	106	32	2
HLD	106	48	3	96
XTP	106	144	1
TAP	106	160	2
TAP	106	176	3
HLD	106	192	4	96
BRK	106	288	1
XTP	107	0	0
XTP	107	0	7
TAP	107	16	6
TAP	107	32	5
HLD	107	48	4	96
XTP	107	144	6
TAP	107	160	5
TAP	107	176	4
HLD	107	192	3	96
BRK	107	288	6
XTP	108	0	0
XTP	108	0	7
TAP	108	16	1
TAP	108	32	2
HLD	108	48	3	96
XTP	108	144	1
TAP	108	160	2
TAP	108	176	3
HLD	108	192	4	96
BRK	108	288	1
TTP	109	0	6	E	0	M1
TTP	109	96	0	E	0	M1
TTP	109	192	4	E	0	M1
TTP	109	288	2	E	0	M1
XTP	110	0	0
XTP	110	0	7
TAP	110	16	6
TAP	110	32	5
HLD	110	48	4	96
XTP	110	144	6
TAP	110	160	5
TAP	110	176	4
HLD	110	192	3	96
BRK	110	288	6
XTP	111	0	0
XTP	111	0	7
TAP	111	16	1
TAP	111	32	2
HLD	111	48	3	96
XTP	111	144	1
TAP	111	160	2
TAP	111	176	3
HLD	111	192	4	96
BRK	111	288	1
XHO	112	0	0	96
XTP	112	0	5
TAP	112	16	4
TAP	112	32	3
TAP	112	48	2
XTP	112	144	2
XHO	112	144	7	96
TAP	112	160	3
TAP	112	176	4
TAP	112	192	5
XTP	112	288	0
XTP	112	288	7
BST	113	0	1
SI_	113	0	1	96	48	4
BST	113	0	6
SI_	113	0	6	96	48	3
HLD	114	0	3	1056
TAP	114	192	5
TAP	114	288	5
TTP	115	0	4	B	0	M1
TTP	115	24	3	B	0	M1
HLD	115	144	2	144
TAP	116	0	2
HLD	116	144	4	144
XTP	117	0	1
XTP	117	0	3
TAP	117	96	2
XTP	117	192	4
XTP	117	192	6
TAP	117	288	5
XTP	118	0	2
XST	118	0	3
SI_	118	0	3	96	192	7
TAP	118	96	2
TAP	118	192	2
TAP	118	288	2
XST	119	0	4
SI_	119	0	4	96	192	0
XTP	119	0	5
TAP	119	96	5
TAP	119	192	5
TAP	119	288	5
XTP	120	0	3
XST	120	0	4
SI_	120	0	4	96	48	6
TAP	120	96	4
XST	120	192	3
SI_	120	192	3	96	48	1
TAP	120	288	3
XST	121	0	4
SI_	121	0	4	96	48	7
TAP	121	96	4
XST	121	192	3
SI_	121	192	3	96	48	0
TAP	121	288	3
TAP	122	0	7
TAP	122	24	6
TAP	122	48	5
TAP	122	72	4
TAP	122	96	3
TAP	122	120	2
TAP	122	144	1
TAP	122	168	0
TAP	122	192	7
TAP	122	216	6
TAP	122	240	5
TAP	122	264	4
TAP	122	288	3
TAP	122	312	2
TAP	122	336	1
TAP	122	360	0
BRK	123	0	3
BRK	123	0	7
STR	123	96	4
SI_	123	96	4	96	48	0
TTP	123	192	0	C	1	M1
XTP	124	0	2
XTP	124	0	7
TAP	124	64	1
TAP	124	96	0
TAP	124	160	3
TAP	124	192	4
TAP	124	256	7
TAP	124	288	6
TAP	124	352	4
STR	125	0	5
SI_	125	0	5	96	48	1
TAP	125	64	5
STR	125	96	3
SI_	125	96	3	96	48	7
TAP	125	160	3
STR	125	192	6
SI_	125	192	6	96	48	3
TAP	125	256	6
TAP	125	288	2
XTP	126	0	0
XTP	126	0	5
TAP	126	64	6
TAP	126	96	7
TAP	126	160	5
TAP	126	192	4
TAP	126	256	0
TAP	126	288	1
TAP	126	352	3
STR	127	0	2
SI_	127	0	2	96	48	7
TAP	127	64	2
STR	127	96	5
SCL	127	96	5	96	48	2
TAP	127	160	5
STR	127	192	0
SUR	127	192	0	96	48	4
TAP	127	256	0
TAP	127	288	6
XTP	128	0	2
XTP	128	0	7
TAP	128	64	1
TAP	128	96	0
TAP	128	160	4
TAP	128	192	5
TAP	128	256	7
TAP	128	288	6
TAP	128	352	0
STR	129	0	5
SV_	129	0	5	96	48	2
TAP	129	64	5
STR	129	96	0
SI_	129	96	0	96	48	4
TAP	129	160	0
STR	129	192	6
SUL	129	192	6	96	48	2
TAP	129	256	6
TAP	129	288	1
XTP	130	0	0
XTP	130	0	7
TAP	130	96	5
TAP	130	128	3
TAP	130	160	4
TAP	130	192	2
XTP	130	288	0
XTP	130	288	1
BRK	130	352	2
BRK	130	352	7
TAP	131	96	1
TTP	131	96	4	E	0	M1
TTP	131	192	3	E	0	M1
TAP	131	192	6
TAP	131	288	0
TTP	131	288	5	B	0	M1
STR	132	0	6
SI_	132	0	6	96	48	3
TAP	132	64	6
STR	132	96	7
SI_	132	96	7	96	48	2
TAP	132	160	7
STR	132	192	5
SCL	132	192	5	96	48	2
TAP	132	256	5
STR	132	288	0
SUR	132	288	0	96	48	4
TAP	132	352	0
STR	133	0	6
SV_	133	0	6	96	48	3
TAP	133	64	6
STR	133	96	2
SI_	133	96	2	96	48	7
TAP	133	160	2
TAP	133	192	5
TAP	133	256	5
BRK	133	288	0
BRK	133	288	4
STR	134	0	1
SI_	134	0	1	96	48	4
TAP	134	64	1
STR	134	96	0
SI_	134	96	0	96	48	5
TAP	134	160	0
STR	134	192	2
SCR	134	192	2	96	48	5
TAP	134	256	2
STR	134	288	7
SUL	134	288	7	96	48	3
TAP	134	352	7
STR	135	0	1
SV_	135	0	1	96	48	4
TAP	135	64	1
STR	135	96	5
SI_	135	96	5	96	48	0
TAP	135	160	5
TAP	135	192	2
TAP	135	256	2
BRK	135	288	3
BRK	135	288	7
STR	136	0	6
SV_	136	0	6	96	48	1
TAP	136	64	6
STR	136	96	0
SUR	136	96	0	96	48	4
TAP	136	160	0
STR	136	192	7
SUL	136	192	7	96	48	2
TAP	136	256	7
TAP	136	288	1
XTP	137	0	0
XTP	137	0	3
TAP	137	64	1
TAP	137	64	4
TAP	137	128	2
TAP	137	128	5
XTP	137	192	4
XTP	137	192	7
TAP	137	256	3
TAP	137	256	6
TAP	137	320	2
TAP	137	320	5
STR	138	0	0
SCR	138	0	0	96	96	4
STR	138	96	4
SCR	138	96	4	96	96	0
STR	138	192	0
SCR	138	192	0	96	96	4
STR	138	288	4
SF_	138	288	4	96	96	0
TTP	139	0	0	C	1	M1
BRK	139	192	1
BRK	139	192	6
TAP	140	0	3
STR	140	0	5
SI_	140	0	5	96	48	7
TAP	140	96	4
STR	140	192	3
SI_	140	192	3	96	48	1
TAP	140	192	5
TAP	140	288	4
TAP	141	0	3
STR	141	0	5
SI_	141	0	5	96	48	7
TAP	141	96	4
STR	141	192	3
SI_	141	192	3	96	48	1
TAP	141	192	5
TAP	141	288	4
TAP	142	0	0
TAP	142	0	7
TAP	142	96	4
TAP	142	96	5
TAP	142	192	2
TAP	142	240	4
TAP	142	264	3
TAP	142	288	4
HLD	142	336	1	144
TAP	143	48	0
TAP	143	96	0
TAP	143	192	6
TAP	143	240	7
TAP	143	288	5
STR	144	0	2
SI_	144	0	2	96	48	0
TAP	144	0	4
TAP	144	96	3
TAP	144	192	2
STR	144	192	4
SI_	144	192	4	96	48	6
TAP	144	288	3
STR	145	0	2
SI_	145	0	2	96	48	0
TAP	145	0	4
TAP	145	96	3
TAP	145	192	2
STR	145	192	4
SI_	145	192	4	96	48	6
TAP	145	288	3
TAP	146	0	0
TAP	146	0	7
TAP	146	96	2
TAP	146	96	3
TAP	146	192	5
TAP	146	240	3
TAP	146	264	4
STR	146	288	3
SSR	146	288	3	96	288	7
TAP	146	336	6
XTP	148	0	0
XTP	148	0	1
TAP	148	96	4
TAP	148	96	6
XTP	148	144	4
XHO	148	144	6	96
TAP	148	240	7
TAP	148	288	0
TAP	148	288	5
XTP	149	0	6
XTP	149	0	7
TAP	149	96	1
TAP	149	96	3
XHO	149	144	1	96
XTP	149	144	3
TAP	149	240	0
TAP	149	288	2
TAP	149	288	7
XTP	150	0	4
XTP	150	0	5
TAP	150	96	0
TAP	150	96	2
XTP	150	144	0
XHO	150	144	2	96
TAP	150	240	3
TAP	150	288	1
TAP	150	288	4
XTP	151	0	2
XTP	151	0	3
TAP	151	96	5
TAP	151	96	7
XHO	151	144	5	96
XTP	151	144	7
TAP	151	240	4
TAP	151	288	3
TAP	151	288	6
XST	152	0	2
SI_	152	0	2	96	48	0
XTP	152	0	5
TAP	152	96	2
TAP	152	96	3
XTP	152	192	2
XST	152	192	5
SI_	152	192	5	96	48	7
TAP	152	288	4
TAP	152	288	5
XST	153	0	2
SI_	153	0	2	96	48	0
XTP	153	0	5
TAP	153	96	2
TAP	153	96	3
XTP	153	192	2
XST	153	192	5
SI_	153	192	5	96	48	7
TAP	153	288	4
TAP	153	288	5
XTP	154	0	0
XTP	154	24	7
XTP	154	48	0
XTP	154	72	7
XTP	154	96	0
XTP	154	120	7
XTP	154	144	0
XTP	154	168	7
XTP	154	192	0
XTP	154	216	7
XTP	154	240	0
XTP	154	264	7
XTP	154	288	0
XTP	154	312	7
XTP	154	336	0
XTP	154	360	7
XTP	155	0	0
TAP	155	16	1
TAP	155	32	2
TAP	155	48	3
TAP	155	64	4
TAP	155	80	5
TAP	155	96	6
TAP	155	112	7
TAP	155	128	0
TAP	155	144	1
TAP	155	160	2
TAP	155	176	3
XTP	155	192	4
XTP	155	192	7
TAP	155	208	6
TAP	155	224	5
TAP	155	240	4
TAP	155	256	3
TAP	155	272	2
STR	155	288	1
SI_	155	288	1	96	48	5
TAP	155	304	0
TAP	155	320	7
TAP	155	336	6
TAP	155	352	5
TAP	155	368	4
BRK	156	0	1
BRK	156	0	3
TTP	156	1	0	C	1	M1

T_REC_TAP	612
T_REC_BRK	33
T_REC_XTP	97
T_REC_HLD	67
T_REC_XHO	18
T_REC_STR	82
T_REC_BST	2
T_REC_XST	10
T_REC_TTP	38
T_REC_THO	1
T_REC_SLD	94
T_REC_ALL	1054
T_NUM_TAP	839
T_NUM_BRK	35
T_NUM_HLD	86
T_NUM_SLD	94
T_NUM_ALL	1054
T_JUDGE_TAP	874
T_JUDGE_HLD	163
T_JUDGE_SLD	94
T_JUDGE_ALL	1131
TTM_EACHPAIRS	109
TTM_SCR_TAP	419500
TTM_SCR_BRK	91000
TTM_SCR_HLD	86000
TTM_SCR_SLD	141000
TTM_SCR_ALL	737500
TTM_SCR_S	712000
TTM_SCR_SS	734000
TTM_RAT_ACV	10047

