VERSION	0.00.00	1.03.00
FES_MODE	0
BPM_DEF	270.000	270.000	270.000	270.000
MET_DEF	4	4
RESOLUTION	384
CLK_DEF	384
COMPATIBLE_CODE	MA2

BPM	0	0	270.000
MET	0	0	4	4

TTP	2	96	3	E	0	M1
TTP	2	288	2	B	0	M1
TTP	2	288	2	E	0	M1
TTP	3	96	5	E	0	M1
TTP	3	288	5	B	0	M1
TTP	3	288	6	E	0	M1
TTP	4	96	1	E	0	M1
TTP	4	96	7	E	0	M1
TTP	4	288	2	E	0	M1
TTP	4	288	6	E	0	M1
TTP	5	96	3	E	0	M1
TTP	5	96	5	E	0	M1
TTP	5	288	0	C	0	M1
TTP	6	96	5	E	0	M1
TTP	6	288	5	B	0	M1
TTP	6	288	6	E	0	M1
TTP	7	96	0	E	0	M1
TTP	7	288	3	B	0	M1
TTP	7	288	4	B	0	M1
THO	8	0	0	384	C	0	M1
XTP	9	96	0
XTP	9	192	0
TAP	10	0	6
HLD	10	96	6	576
TAP	10	288	4
TAP	11	96	4
TAP	11	288	2
TAP	12	0	2
HLD	12	96	2	576
TAP	12	288	3
TAP	13	96	3
TAP	13	288	5
TAP	14	0	5
HLD	14	96	5	576
TAP	14	288	4
TAP	15	96	4
TAP	15	288	3
STR	16	0	3
SV_	16	0	3	96	192	0
SV_	16	0	3	96	192	6
TAP	16	0	4
XTP	17	0	7
XTP	17	96	7
BRK	17	192	1
BRK	17	192	6
TAP	18	0	2
HLD	18	0	3	192
TAP	18	192	1
TAP	18	288	1
HLD	19	0	2	192
TAP	19	0	3
TAP	19	192	4
TAP	19	288	4
TAP	20	0	2
HLD	20	0	3	192
TAP	20	192	1
TAP	20	288	1
STR	21	0	2
SI_	21	0	2	96	192	5
HLD	22	0	4	192
TAP	22	0	5
TAP	22	192	6
TAP	22	288	6
TAP	23	0	4
HLD	23	0	5	192
TAP	23	192	3
TAP	23	288	3
HLD	24	0	4	192
TAP	24	0	5
TAP	24	192	6
STR	24	288	6
SCR	24	288	6	96	240	2
SUR	24	288	6	96	240	2
HLD	26	0	1	96
HLD	26	0	3	96
TAP	26	144	1
TAP	26	144	3
TAP	26	288	0
TAP	26	288	7
HLD	27	0	4	96
HLD	27	0	6	96
TAP	27	144	4
TAP	27	144	6
TAP	27	288	0
TAP	27	288	7
HLD	28	0	1	96
HLD	28	0	3	96
TAP	28	144	1
TAP	28	144	3
TAP	28	288	0
TAP	28	288	7
TAP	29	0	4
TAP	29	0	6
TAP	29	96	4
TAP	29	96	6
TAP	29	192	3
TAP	29	192	7
TAP	30	0	1
TAP	30	0	3
TAP	30	96	2
TAP	30	192	4
TAP	30	192	6
TAP	30	288	5
TAP	31	0	0
TAP	31	0	3
TAP	31	96	1
TAP	31	192	4
TAP	31	192	7
TAP	31	288	6
TAP	32	0	3
TAP	32	0	4
TAP	32	96	2
TAP	32	96	5
TAP	32	192	1
TAP	32	192	6
TAP	32	288	0
TAP	32	288	7
HLD	33	0	1	192
HLD	33	0	6	192
BRK	33	288	0
BRK	33	288	7
TAP	34	0	2
TAP	34	48	3
TAP	34	96	2
TAP	34	144	3
TAP	34	192	1
TAP	34	288	1
TAP	34	288	3
TAP	35	0	5
TAP	35	48	4
TAP	35	96	5
TAP	35	144	4
TAP	35	192	6
TAP	35	288	4
TAP	35	288	6
TAP	36	0	2
TAP	36	48	3
TAP	36	96	1
TAP	36	144	4
TAP	36	192	3
TAP	36	240	4
TAP	36	288	2
TAP	36	336	5
TAP	37	0	4
TAP	37	48	5
TAP	37	96	4
XTP	37	192	2
XTP	37	192	6
TAP	38	0	1
TAP	38	48	0
TAP	38	96	1
TAP	38	144	0
TAP	38	192	2
TAP	38	288	1
TAP	38	288	7
TAP	39	0	6
TAP	39	48	7
TAP	39	96	6
TAP	39	144	7
TAP	39	192	5
TAP	39	288	0
TAP	39	288	6
TAP	40	0	1
TAP	40	0	3
TAP	40	96	2
TAP	40	96	3
TAP	40	192	4
TAP	40	192	6
TAP	40	288	4
TAP	40	288	5
TAP	41	0	2
TAP	41	96	1
TAP	41	96	3
BRK	41	192	0
BRK	41	192	4
TAP	42	0	5
TAP	42	48	4
TAP	42	96	5
TAP	42	144	4
TAP	42	192	6
TAP	42	288	4
TAP	42	288	6
TAP	43	0	2
TAP	43	48	3
TAP	43	96	2
TAP	43	144	3
TAP	43	192	1
TAP	43	288	1
TAP	43	288	3
TAP	44	0	5
TAP	44	48	4
TAP	44	96	6
TAP	44	144	3
TAP	44	192	4
TAP	44	240	3
TAP	44	288	5
TAP	44	336	2
TAP	45	0	3
TAP	45	48	2
TAP	45	96	3
XTP	45	192	1
XHO	45	192	5	192
TAP	46	0	7
TAP	46	48	6
TAP	46	96	7
TAP	46	144	6
TAP	46	192	0
TAP	46	240	7
TAP	46	288	0
TAP	46	336	7
TAP	47	0	1
TAP	47	48	0
TAP	47	96	1
TAP	47	144	0
TAP	47	192	2
TAP	47	240	3
STR	47	288	4
SCL	47	288	4	96	576	6
TAP	47	336	5
STR	50	0	1
SLL	50	0	1	96	528	2
TAP	50	0	5
TAP	51	0	3
TAP	51	144	3
TAP	51	288	3
TAP	52	0	2
STR	52	0	6
SLR	52	0	6	96	528	5
TAP	53	0	4
TAP	53	144	4
TAP	53	288	4
STR	54	0	1
SLL	54	0	1	96	528	2
TAP	54	0	5
TAP	55	0	3
TAP	55	144	3
TAP	55	288	3
TAP	56	0	2
STR	56	0	6
SCL	56	0	6	96	480	1
TAP	56	192	1
TAP	57	0	0
TAP	57	192	7
TAP	58	0	1
STR	58	0	5
SLL	58	0	5	96	528	6
TAP	59	0	7
TAP	59	144	7
TAP	59	288	7
STR	60	0	2
SLR	60	0	2	96	528	1
TAP	60	0	6
TAP	61	0	0
TAP	61	144	0
TAP	61	288	0
TAP	62	0	1
STR	62	0	5
SLL	62	0	5	96	528	6
TAP	63	0	7
TAP	63	144	7
TAP	63	288	7
TAP	64	0	0
TAP	64	0	5
TAP	64	192	2
TAP	64	192	7
TAP	65	0	0
TAP	65	0	7
TAP	65	96	0
TAP	65	96	7
BRK	65	192	1
BRK	65	192	6
STR	66	0	5
SI_	66	0	5	96	432	0
STR	67	0	2
SI_	67	0	2	96	432	7
STR	68	0	6
SI_	68	0	6	96	432	3
STR	69	0	1
SI_	69	0	1	96	432	4
STR	70	0	5
SI_	70	0	5	96	432	2
STR	71	0	1
SI_	71	0	1	96	432	6
STR	72	0	7
SI_	72	0	7	96	432	4
TAP	73	0	0
XTP	73	192	0
HLD	74	0	2	1344
HLD	74	0	5	576
TAP	76	0	5
TAP	76	192	6
TAP	77	0	7
TAP	77	192	0
TAP	78	0	0
TAP	78	0	1
TAP	78	96	1
TAP	78	192	1
TAP	78	192	2
TAP	78	288	2
TAP	79	0	2
TAP	79	0	3
TAP	79	96	3
TAP	79	192	3
TAP	79	192	4
STR	79	288	3
SSR	79	288	3	96	288	7
STR	79	288	4
SSL	79	288	4	96	288	0
XTP	81	0	1
XTP	81	0	6
XTP	81	96	2
XTP	81	96	5
XTP	81	192	3
XTP	81	192	4
BRK	81	288	0
BRK	81	288	7
STR	82	0	1
SI_	82	0	1	96	48	3
STR	82	96	7
SI_	82	96	7	96	48	5
STR	82	192	4
SI_	82	192	4	96	48	0
XTP	82	288	6
XTP	83	0	6
TAP	83	96	4
TAP	83	96	5
TAP	83	192	6
TAP	83	192	7
TAP	83	288	4
TAP	83	288	5
STR	84	0	6
SI_	84	0	6	96	48	4
STR	84	96	0
SI_	84	96	0	96	48	2
STR	84	192	3
SI_	84	192	3	96	48	7
XTP	84	288	1
XTP	85	0	1
TAP	85	96	2
TAP	85	96	3
TAP	85	192	0
TAP	85	192	1
TAP	85	288	2
TAP	85	288	3
STR	86	0	1
SI_	86	0	1	96	48	3
STR	86	96	7
SI_	86	96	7	96	48	5
STR	86	192	4
SI_	86	192	4	96	48	0
XTP	86	288	6
XTP	87	0	6
TAP	87	96	4
TAP	87	96	5
TAP	87	192	6
TAP	87	192	7
TAP	87	288	4
TAP	87	288	5
STR	88	0	6
SI_	88	0	6	96	48	4
STR	88	96	0
SI_	88	96	0	96	48	2
TAP	88	192	3
STR	88	288	3
SV_	88	288	3	96	72	0
SV_	88	288	3	96	72	6
BRK	89	192	1
BRK	89	192	5
STR	90	0	6
SI_	90	0	6	96	48	4
STR	90	96	0
SI_	90	96	0	96	48	2
STR	90	192	7
SI_	90	192	7	96	48	3
XTP	90	288	1
XTP	91	0	1
TAP	91	96	2
TAP	91	96	3
TAP	91	192	0
TAP	91	192	1
TAP	91	288	2
TAP	91	288	3
STR	92	0	1
SI_	92	0	1	96	48	3
STR	92	96	7
SI_	92	96	7	96	48	5
STR	92	192	0
SI_	92	192	0	96	48	4
XTP	92	288	6
XTP	93	0	6
TAP	93	96	4
TAP	93	96	5
TAP	93	192	6
TAP	93	192	7
TAP	93	288	4
TAP	93	288	5
STR	94	0	6
SI_	94	0	6	96	48	4
STR	94	96	0
SI_	94	96	0	96	48	2
STR	94	192	7
SI_	94	192	7	96	48	3
XTP	94	288	1
XTP	95	0	1
TAP	95	96	2
TAP	95	96	3
TAP	95	192	0
TAP	95	192	1
TAP	95	288	2
TAP	95	288	3
TAP	96	0	0
TAP	96	0	1
TAP	96	96	6
TAP	96	96	7
TAP	96	192	4
TAP	96	192	5
TAP	96	288	2
STR	96	288	3
SV_	96	288	3	96	72	0
SV_	96	288	3	96	72	6
BRK	97	192	1
BRK	97	192	5
HLD	98	0	4	96
HLD	98	0	6	96
TAP	98	144	4
TAP	98	144	6
XTP	98	288	6
XTP	98	288	7
HLD	99	0	1	96
HLD	99	0	3	96
TAP	99	144	1
TAP	99	144	3
XTP	99	288	0
XTP	99	288	1
HLD	100	0	4	96
HLD	100	0	6	96
TAP	100	144	4
TAP	100	144	6
XST	100	288	6
SLL	100	288	6	96	288	1
XST	100	288	7
SLL	100	288	7	96	288	1
HLD	102	0	0	96
HLD	102	0	2	96
TAP	102	144	0
TAP	102	144	2
XTP	102	288	2
XTP	102	288	3
HLD	103	0	5	96
HLD	103	0	7	96
TAP	103	144	5
TAP	103	144	7
XTP	103	288	4
XTP	103	288	5
HLD	104	0	0	96
HLD	104	0	2	96
TAP	104	144	0
TAP	104	144	2
XST	104	288	2
SLL	104	288	2	96	288	5
XST	104	288	3
SLL	104	288	3	96	288	5
TAP	106	0	4
HLD	106	0	6	96
TAP	106	96	5
TAP	106	144	5
XTP	106	288	6
XTP	106	288	7
HLD	107	0	1	96
TAP	107	0	3
TAP	107	96	2
TAP	107	144	2
XTP	107	288	0
XTP	107	288	1
TAP	108	0	4
HLD	108	0	6	96
TAP	108	96	5
TAP	108	144	5
XST	108	288	6
SLR	108	288	6	96	288	4
XST	108	288	7
SLL	108	288	7	96	288	1
TAP	110	0	0
HLD	110	0	2	96
TAP	110	96	1
TAP	110	144	1
XTP	110	288	2
XTP	110	288	3
HLD	111	0	5	96
TAP	111	0	7
TAP	111	96	6
TAP	111	144	6
XTP	111	288	4
XTP	111	288	5
TAP	112	0	0
HLD	112	0	2	96
TAP	112	96	1
TAP	112	144	1
XTP	112	288	3
XTP	112	288	4
STR	113	0	1
SI_	113	0	1	96	384	4
TAP	113	0	6
STR	114	0	6
SI_	114	0	6	96	384	3
STR	115	0	0
SI_	115	0	0	96	384	3
STR	116	0	7
SI_	116	0	7	96	48	4
BRK	116	192	3
BRK	116	240	3
BRK	116	288	3
HLD	117	0	1	96
HLD	117	0	2	96
HLD	117	192	3	96
HLD	117	192	4	96
HLD	118	0	5	96
HLD	118	0	6	96
HLD	118	192	3	96
HLD	118	192	4	96
HLD	119	0	1	96
HLD	119	0	3	96
HLD	119	192	4	96
HLD	119	192	6	96
TAP	120	0	1
TAP	120	0	3
TAP	120	96	2
TAP	120	96	3
TAP	120	192	4
TAP	120	192	6
TAP	120	288	4
TAP	120	288	5
TAP	121	0	1
TAP	121	0	3
TAP	121	96	3
TAP	121	96	4
TAP	121	192	4
TAP	121	192	6
STR	121	288	3
SSR	121	288	3	96	288	7
STR	121	288	4
SSL	121	288	4	96	288	0
XTP	123	0	1
XTP	123	0	6
XTP	123	96	2
XTP	123	96	5
XTP	123	192	3
XTP	123	192	4
BRK	123	288	1
BRK	123	288	6
STR	124	0	0
SI_	124	0	0	96	48	4
STR	124	96	7
SI_	124	96	7	96	48	5
STR	124	192	1
SI_	124	192	1	96	48	5
XTP	124	288	7
XTP	125	0	7
TAP	125	96	4
TAP	125	96	6
TAP	125	192	0
TAP	125	192	1
TAP	125	288	4
TAP	125	288	6
STR	126	0	7
SI_	126	0	7	96	48	3
STR	126	96	0
SI_	126	96	0	96	48	2
STR	126	192	6
SI_	126	192	6	96	48	2
XTP	126	288	0
XTP	127	0	0
TAP	127	96	1
TAP	127	96	3
TAP	127	192	6
TAP	127	192	7
TAP	127	288	1
TAP	127	288	3
STR	128	0	0
SI_	128	0	0	96	48	4
STR	128	96	7
SI_	128	96	7	96	48	5
STR	128	192	1
SI_	128	192	1	96	48	5
XTP	128	288	7
XTP	129	0	7
TAP	129	96	4
TAP	129	96	6
TAP	129	192	0
TAP	129	192	1
TAP	129	288	4
TAP	129	288	6
STR	130	0	7
SI_	130	0	7	96	48	3
STR	130	96	0
SI_	130	96	0	96	48	2
STR	130	192	6
SI_	130	192	6	96	48	2
STR	130	288	0
SV_	130	288	0	96	72	3
SV_	130	288	0	96	72	5
BRK	131	192	2
BRK	131	192	6
STR	132	0	2
SI_	132	0	2	96	48	6
STR	132	96	4
SI_	132	96	4	96	48	7
STR	132	192	1
SI_	132	192	1	96	48	5
XTP	132	288	0
XTP	133	0	0
TAP	133	96	4
TAP	133	96	6
TAP	133	192	0
TAP	133	192	1
TAP	133	288	4
TAP	133	288	6
STR	134	0	5
SI_	134	0	5	96	48	1
STR	134	96	3
SI_	134	96	3	96	48	0
STR	134	192	6
SI_	134	192	6	96	48	2
XTP	134	288	7
XTP	135	0	7
TAP	135	96	1
TAP	135	96	3
TAP	135	192	6
TAP	135	192	7
TAP	135	288	1
TAP	135	288	3
TAP	136	0	0
TAP	136	0	7
TAP	136	96	1
TAP	136	96	2
TAP	136	192	3
TAP	136	192	4
STR	136	288	5
SCL	136	288	5	96	288	6
STR	136	288	6
SUL	136	288	6	96	288	6
TAP	138	0	0
TAP	138	0	4
TAP	138	96	1
TAP	138	96	5
TAP	138	192	2
TAP	138	192	6
STR	138	288	3
SI_	138	288	3	96	96	0
STR	138	288	7
SI_	138	288	7	96	96	4
BRK	139	192	1
BRK	139	192	5
TAP	140	0	1
TAP	140	0	7
TAP	140	96	7
TTP	140	192	4	B	0	M1
TTP	140	192	4	E	0	M1
TAP	140	192	7
TAP	140	288	7
TAP	141	0	2
TAP	141	0	7
TAP	141	96	7
TTP	141	192	4	B	0	M1
TTP	141	192	4	E	0	M1
TAP	141	192	7
TAP	141	288	7
TAP	142	0	0
TAP	142	0	6
TAP	142	96	0
TAP	142	192	0
TTP	142	192	3	B	0	M1
TTP	142	192	4	E	0	M1
TAP	142	288	0
STR	143	0	0
SV_	143	0	0	96	144	3
STR	143	0	6
SV_	143	0	6	96	144	3
TAP	144	0	2
TAP	144	0	4
TAP	144	96	4
TTP	144	192	0	B	0	M1
TTP	144	192	0	E	0	M1
TAP	144	192	4
TAP	144	288	4
TAP	145	0	2
TAP	145	0	4
TAP	145	96	4
TTP	145	192	0	B	0	M1
TTP	145	192	0	E	0	M1
TAP	145	192	4
TAP	145	288	4
TAP	146	0	3
TAP	146	0	5
TAP	146	96	3
TTP	146	192	0	E	0	M1
TAP	146	192	3
TTP	146	192	7	B	0	M1
TAP	146	288	3
STR	147	0	3
SV_	147	0	3	96	144	0
STR	147	0	5
SV_	147	0	5	96	144	0
TAP	148	0	4
TAP	148	0	6
TAP	148	96	1
TAP	148	96	3
TAP	148	144	1
TAP	148	144	3
TAP	148	240	0
TAP	148	240	7
TAP	148	288	0
TAP	148	288	7
TAP	149	0	1
TAP	149	0	3
TAP	149	96	4
TAP	149	96	6
TAP	149	144	4
TAP	149	144	6
TAP	149	240	0
TAP	149	240	7
TAP	149	288	0
TAP	149	288	7
TAP	150	0	4
TAP	150	0	6
TAP	150	96	1
TAP	150	96	3
TAP	150	144	1
TAP	150	144	3
TAP	150	240	0
TAP	150	240	7
STR	150	288	0
SLL	150	288	0	96	288	3
STR	150	288	7
SSR	150	288	7	96	288	3
TAP	152	0	2
TAP	152	48	3
TAP	152	96	1
TAP	152	144	1
TAP	152	192	5
TAP	152	240	4
TAP	152	288	6
TAP	152	336	6
TAP	153	0	2
TAP	153	48	3
TAP	153	96	0
TAP	153	144	0
TAP	153	192	5
TAP	153	240	4
TAP	153	288	7
TAP	153	336	7
TAP	154	0	0
TAP	154	24	1
TAP	154	48	2
TAP	154	72	3
TAP	154	96	4
TAP	154	120	5
TAP	154	144	6
TAP	154	168	7
TAP	154	192	0
TAP	154	216	1
TAP	154	240	2
TAP	154	264	3
TAP	154	288	4
TAP	154	312	5
TAP	154	336	6
TAP	154	360	7
BST	155	0	0
SV_	155	0	0	96	144	3
SV_	155	0	0	96	144	6
TTP	155	192	0	C	1	M1
BRK	156	0	1
BRK	156	0	5

T_REC_TAP	431
T_REC_BRK	25
T_REC_XTP	60
T_REC_HLD	49
T_REC_XHO	1
T_REC_STR	77
T_REC_BST	1
T_REC_XST	6
T_REC_TTP	32
T_REC_THO	1
T_REC_SLD	90
T_REC_ALL	773
T_NUM_TAP	606
T_NUM_BRK	26
T_NUM_HLD	51
T_NUM_SLD	90
T_NUM_ALL	773
T_JUDGE_TAP	632
T_JUDGE_HLD	96
T_JUDGE_SLD	90
T_JUDGE_ALL	818
TTM_EACHPAIRS	188
TTM_SCR_TAP	303000
TTM_SCR_BRK	67600
TTM_SCR_HLD	51000
TTM_SCR_SLD	135000
TTM_SCR_ALL	556600
TTM_SCR_S	537400
TTM_SCR_SS	554000
TTM_RAT_ACV	10046

