VERSION	0.00.00	1.03.00
FES_MODE	0
BPM_DEF	270.000	270.000	270.000	270.000
MET_DEF	4	4
RESOLUTION	384
CLK_DEF	384
COMPATIBLE_CODE	MA2

BPM	0	0	270.000
MET	0	0	4	4

HLD	10	0	2	384
HLD	10	0	3	384
HLD	12	0	4	384
HLD	12	0	5	384
XTP	13	192	4
XTP	13	192	5
HLD	14	0	3	384
HLD	14	0	4	384
TAP	15	192	2
TAP	15	192	5
BST	16	0	1
SLR	16	0	1	96	384	7
BST	16	0	6
SLL	16	0	6	96	384	0
TAP	18	0	1
TAP	18	192	0
TAP	18	192	1
TAP	19	0	6
TAP	19	192	6
TAP	19	192	7
HLD	20	0	1	192
HLD	20	192	0	192
HLD	21	0	7	192
TAP	21	192	6
TAP	22	0	5
TAP	22	192	4
TAP	22	192	5
TAP	23	0	2
TAP	23	192	2
TAP	23	192	3
HLD	24	0	5	192
HLD	24	192	4	192
HLD	25	0	3	192
TAP	25	192	2
TAP	26	0	0
TAP	26	0	1
TAP	26	192	0
TAP	26	192	1
TAP	27	0	6
TAP	27	0	7
TAP	27	192	6
TAP	27	192	7
HLD	28	0	1	192
HLD	28	192	0	192
HLD	29	0	7	192
TAP	29	192	6
TAP	30	0	4
TAP	30	0	5
TAP	30	192	4
TAP	30	192	5
TAP	31	0	2
TAP	31	0	3
TAP	31	192	2
TAP	31	192	3
TAP	32	0	3
TAP	32	0	4
TAP	32	192	3
TAP	32	192	4
TAP	33	0	2
TAP	33	0	5
TAP	33	96	2
TAP	33	96	5
BRK	33	192	2
BRK	33	192	5
TAP	34	0	6
TAP	34	96	6
TAP	34	192	5
TAP	34	288	5
TAP	35	0	4
TAP	35	96	4
TAP	35	192	3
TAP	35	288	3
TAP	36	0	2
TAP	36	96	2
TAP	36	192	1
TAP	36	288	1
TAP	37	0	0
TAP	37	96	0
TAP	37	192	1
TAP	37	192	7
TAP	38	0	1
TAP	38	96	1
TAP	38	192	2
TAP	38	288	2
TAP	39	0	3
TAP	39	96	3
TAP	39	192	4
TAP	39	288	4
TAP	40	0	5
TAP	40	96	5
TAP	40	192	6
TAP	40	288	6
TAP	41	0	0
TAP	41	0	7
TAP	41	96	0
TAP	41	96	7
TAP	41	192	1
TAP	41	192	6
TAP	42	0	5
TAP	42	96	5
TAP	42	192	6
TAP	42	288	6
TAP	43	0	7
TAP	43	96	7
TAP	43	192	0
TAP	43	288	0
TAP	44	0	1
TAP	44	96	1
TAP	44	192	2
TAP	44	288	2
TAP	45	0	3
TAP	45	96	3
TAP	45	192	2
TAP	45	192	4
TAP	46	0	2
TAP	46	96	2
TAP	46	192	1
TAP	46	288	1
TAP	47	0	0
TAP	47	96	0
TAP	47	192	7
TAP	47	288	7
STR	48	0	1
SV_	48	0	1	96	288	4
STR	48	0	6
SV_	48	0	6	96	288	3
STR	50	0	2
SCR	50	0	2	96	192	5
TAP	51	0	6
TAP	51	192	6
STR	52	0	6
SI_	52	0	6	96	192	3
TAP	53	0	2
TAP	53	192	2
STR	54	0	2
SI_	54	0	2	96	192	7
TAP	55	0	6
TAP	55	192	6
STR	56	0	6
SI_	56	0	6	96	192	3
TAP	57	0	2
TAP	57	192	1
TAP	57	192	4
STR	58	0	5
SCL	58	0	5	96	192	2
TAP	59	0	1
TAP	59	192	1
STR	60	0	1
SI_	60	0	1	96	192	4
TAP	61	0	5
TAP	61	192	5
STR	62	0	5
SI_	62	0	5	96	192	0
TAP	63	0	1
TAP	63	192	1
TAP	64	0	0
TAP	64	0	1
TAP	64	192	0
TAP	64	192	7
XTP	65	0	1
XTP	65	0	6
TTP	66	0	0	B	0	L1
TTP	67	0	1	B	0	L1
TTP	68	0	2	B	0	L1
TTP	69	0	3	B	0	L1
TTP	70	0	4	B	0	L1
TTP	71	0	5	B	0	L1
TTP	72	0	6	B	0	L1
TTP	73	0	7	B	0	L1
TTP	74	0	0	B	0	L1
TTP	74	0	1	B	0	L1
TTP	75	0	4	B	0	L1
TTP	75	0	5	B	0	L1
TTP	76	0	6	B	0	L1
TTP	76	0	7	B	0	L1
TTP	77	0	2	B	0	L1
TTP	77	0	3	B	0	L1
TAP	78	0	6
TAP	78	192	6
TAP	79	0	1
TAP	79	192	1
TAP	80	0	0
TAP	80	0	7
TAP	80	192	0
TAP	80	192	7
TAP	81	0	1
TAP	81	0	6
TAP	81	96	1
TAP	81	96	6
BRK	81	192	1
BRK	81	192	6
TAP	82	0	0
TAP	82	96	0
TAP	82	192	1
TAP	82	288	1
TAP	83	0	2
TAP	83	0	3
TAP	83	96	2
TAP	83	96	3
TAP	83	192	1
TAP	83	192	4
TAP	84	0	4
TAP	84	96	4
TAP	84	192	5
TAP	84	288	5
TAP	85	0	6
TAP	85	0	7
TAP	85	96	6
TAP	85	96	7
TAP	85	192	0
TAP	85	192	5
TAP	86	0	0
TAP	86	96	0
TAP	86	192	1
TAP	86	288	1
TAP	87	0	2
TAP	87	0	3
TAP	87	96	2
TAP	87	96	3
TAP	87	192	1
TAP	87	192	4
TAP	88	0	5
TAP	88	96	5
TAP	88	192	6
TAP	88	288	6
TAP	89	0	0
TAP	89	0	7
TAP	89	96	0
TAP	89	96	7
XTP	89	192	1
XTP	89	192	6
TAP	90	0	3
TAP	90	96	3
TAP	90	192	2
TAP	90	288	2
TAP	91	0	0
TAP	91	0	1
TAP	91	96	0
TAP	91	96	1
TAP	91	192	2
TAP	91	192	7
TAP	92	0	7
TAP	92	96	7
TAP	92	192	6
TAP	92	288	6
TAP	93	0	4
TAP	93	0	5
TAP	93	96	4
TAP	93	96	5
TAP	93	192	3
TAP	93	192	6
TAP	94	0	3
TAP	94	96	3
TAP	94	192	2
TAP	94	288	2
TAP	95	0	0
TAP	95	0	1
TAP	95	96	0
TAP	95	96	1
TAP	95	192	2
TAP	95	192	7
TAP	96	0	7
TAP	96	96	7
TAP	96	192	6
TAP	96	288	6
TAP	97	0	2
TAP	97	0	5
TAP	97	96	2
TAP	97	96	5
BRK	97	192	1
BRK	97	192	6
TAP	98	0	4
TAP	98	0	5
XTP	98	144	4
XTP	98	144	5
TAP	99	0	2
TAP	99	0	3
XTP	99	144	2
XTP	99	144	3
TAP	100	0	4
TAP	100	0	5
XTP	100	144	4
XTP	100	144	5
TAP	101	0	2
TAP	101	96	2
TAP	101	192	1
TAP	101	192	3
TAP	102	0	0
TAP	102	0	1
XTP	102	144	0
XTP	102	144	1
TAP	103	0	6
TAP	103	0	7
XTP	103	144	6
XTP	103	144	7
TAP	104	0	0
TAP	104	0	1
XTP	104	144	0
XTP	104	144	1
TAP	105	0	7
TAP	105	96	0
TAP	105	192	1
TAP	105	192	6
TAP	106	0	4
TAP	106	0	5
XTP	106	144	3
XTP	106	144	6
TAP	107	0	2
TAP	107	0	3
XTP	107	144	1
XTP	107	144	4
TAP	108	0	4
TAP	108	0	5
XTP	108	144	3
XTP	108	144	6
TAP	109	0	2
TAP	109	96	2
TAP	109	192	1
TAP	109	192	3
TAP	110	0	0
TAP	110	0	1
XTP	110	144	2
XTP	110	144	7
TAP	111	0	6
TAP	111	0	7
XTP	111	144	0
XTP	111	144	5
TAP	112	0	0
TAP	112	0	1
XTP	112	144	2
XTP	112	144	7
XST	114	0	0
SCR	114	0	0	96	480	5
XST	116	0	7
SCL	116	0	7	96	480	2
TAP	118	0	0
TAP	118	0	1
TAP	118	192	0
TAP	118	192	1
TAP	119	0	6
TAP	119	0	7
TAP	119	192	6
TAP	119	192	7
TAP	120	0	4
TAP	120	0	5
TAP	120	192	4
TAP	120	192	5
TAP	121	0	3
TAP	121	0	4
TAP	121	192	2
TAP	121	192	5
TAP	122	0	6
TAP	122	96	6
TAP	122	192	1
TAP	122	288	1
TAP	123	0	0
TAP	123	0	7
TAP	123	96	0
TAP	123	96	7
BRK	123	192	1
BRK	123	192	6
TAP	124	0	2
TAP	124	96	2
TAP	124	192	2
TAP	124	192	3
TAP	124	288	2
TAP	124	288	3
TAP	125	0	1
TAP	125	96	0
TAP	125	192	1
TAP	125	192	7
TAP	126	0	6
TAP	126	96	6
TAP	126	192	6
TAP	126	192	7
TAP	126	288	6
TAP	126	288	7
TAP	127	0	5
TAP	127	96	4
TAP	127	192	3
TAP	127	192	5
TAP	128	0	2
TAP	128	96	2
TAP	128	192	2
TAP	128	192	3
TAP	128	288	2
TAP	128	288	3
TAP	129	0	1
TAP	129	96	0
TAP	129	192	1
TAP	129	192	7
TAP	130	0	6
TAP	130	96	6
TAP	130	192	6
TAP	130	192	7
TAP	130	288	6
TAP	130	288	7
TAP	131	0	5
TAP	131	96	3
TAP	131	96	4
TAP	131	192	2
TAP	131	192	5
TAP	132	0	1
TAP	132	96	1
TAP	132	192	0
TAP	132	192	1
TAP	132	288	0
TAP	132	288	1
TAP	133	0	2
TAP	133	96	3
TAP	133	192	2
TAP	133	192	4
TAP	134	0	5
TAP	134	96	5
TAP	134	192	4
TAP	134	192	5
TAP	134	288	4
TAP	134	288	5
TAP	135	0	6
TAP	135	96	7
TAP	135	192	0
TAP	135	192	6
TAP	136	0	1
TAP	136	96	1
TAP	136	192	0
TAP	136	192	1
TAP	136	288	0
TAP	136	288	1
XTP	137	0	2
XTP	137	96	3
XTP	137	192	4
XTP	137	288	5
TAP	138	0	1
TAP	138	0	6
TAP	138	96	1
TAP	138	96	6
TAP	138	192	2
TAP	138	192	5
TAP	138	288	2
TAP	138	288	5
TAP	139	0	3
TAP	139	0	4
TAP	139	96	3
TAP	139	96	4
BRK	139	192	2
BRK	139	192	5
STR	140	0	1
SI_	140	0	1	96	192	4
TAP	141	0	5
TAP	141	96	5
TAP	141	192	4
TAP	141	192	5
STR	142	0	6
SI_	142	0	6	96	192	3
TAP	143	0	2
TAP	143	96	2
TAP	143	192	2
TAP	143	192	3
STR	144	0	5
SI_	144	0	5	96	192	0
TAP	145	0	1
TAP	145	96	1
TAP	145	192	0
TAP	145	192	1
STR	146	0	2
SI_	146	0	2	96	192	7
TAP	147	0	6
TAP	147	96	6
TAP	147	192	6
TAP	147	192	7
TAP	148	0	6
TAP	148	0	7
TAP	148	96	6
TAP	148	96	7
TAP	148	192	6
TAP	148	192	7
TAP	149	0	0
TAP	149	0	1
TAP	149	96	0
TAP	149	96	1
TAP	149	192	0
TAP	149	192	1
TAP	150	0	2
TAP	150	0	3
TAP	150	96	2
TAP	150	96	3
TAP	150	192	2
TAP	150	192	3
TAP	151	0	4
TAP	151	0	5
TAP	151	96	4
TAP	151	96	5
TAP	151	192	4
TAP	151	192	5
TAP	152	0	2
TAP	152	96	2
TAP	152	192	3
TAP	152	288	3
TAP	153	0	4
TAP	153	96	4
TAP	153	192	5
TAP	153	288	5
TAP	154	0	3
TAP	154	0	4
TAP	154	96	3
TAP	154	96	4
TAP	154	192	2
TAP	154	192	5
TAP	154	288	2
TAP	154	288	5
TAP	155	0	1
TAP	155	0	6
TAP	155	96	1
TAP	155	96	6
TAP	155	192	0
TAP	155	192	7
TAP	155	288	0
TAP	155	288	7
BRK	156	0	1
BRK	156	0	6

T_REC_TAP	409
T_REC_BRK	12
T_REC_XTP	34
T_REC_HLD	15
T_REC_XHO	0
T_REC_STR	13
T_REC_BST	2
T_REC_XST	2
T_REC_TTP	16
T_REC_THO	0
T_REC_SLD	17
T_REC_ALL	520
T_NUM_TAP	474
T_NUM_BRK	14
T_NUM_HLD	15
T_NUM_SLD	17
T_NUM_ALL	520
T_JUDGE_TAP	488
T_JUDGE_HLD	42
T_JUDGE_SLD	17
T_JUDGE_ALL	547
TTM_EACHPAIRS	153
TTM_SCR_TAP	237000
TTM_SCR_BRK	36400
TTM_SCR_HLD	15000
TTM_SCR_SLD	25500
TTM_SCR_ALL	313900
TTM_SCR_S	303150
TTM_SCR_SS	312500
TTM_RAT_ACV	10044

