VERSION	0.00.00	1.03.00
FES_MODE	0
BPM_DEF	270.000	270.000	270.000	270.000
MET_DEF	4	4
RESOLUTION	384
CLK_DEF	384
COMPATIBLE_CODE	MA2

BPM	0	0	270.000
MET	0	0	4	4

TAP	10	0	7
TAP	11	0	7
TAP	12	0	7
TAP	14	0	0
TAP	15	0	0
BRK	16	0	0
TAP	18	0	7
TAP	19	0	7
TAP	20	0	6
TAP	21	0	6
TAP	22	0	5
TAP	23	0	5
HLD	24	0	4	384
TAP	26	0	3
TAP	27	0	3
TAP	28	0	2
TAP	29	0	2
TAP	30	0	1
TAP	31	0	1
TAP	32	0	0
BRK	33	0	0
BRK	33	0	7
TAP	34	0	0
TAP	34	192	0
TAP	35	0	0
TAP	36	0	1
TAP	36	192	1
TAP	37	0	1
TAP	38	0	2
TAP	38	192	2
TAP	39	0	2
TAP	40	0	3
TAP	40	192	3
TAP	41	0	3
TAP	41	0	4
TAP	42	0	5
TAP	42	192	5
TAP	43	0	5
TAP	44	0	6
TAP	44	192	6
TAP	45	0	6
TAP	46	0	7
TAP	46	192	7
TAP	47	0	7
XTP	48	0	0
XTP	48	0	7
STR	50	0	7
SI_	50	0	7	96	672	4
STR	54	0	0
SI_	54	0	0	96	672	3
STR	58	0	6
SI_	58	0	6	96	672	3
STR	62	0	1
SI_	62	0	1	96	672	4
TTP	66	0	4	B	0	L1
TTP	67	0	5	B	0	L1
TTP	68	0	6	B	0	L1
TTP	70	0	3	B	0	L1
TTP	71	0	2	B	0	L1
TTP	72	0	1	B	0	L1
TTP	74	0	3	B	0	L1
TTP	74	0	5	B	0	L1
TTP	76	0	2	B	0	L1
TTP	76	0	4	B	0	L1
TTP	78	0	1	B	0	L1
TTP	78	0	6	B	0	L1
TTP	80	0	0	C	1	L1
XTP	82	0	7
TAP	82	192	7
TAP	83	0	6
TAP	83	192	6
TAP	84	0	5
TAP	84	192	5
XTP	85	0	4
XTP	85	0	5
TAP	86	0	3
TAP	86	192	3
TAP	87	0	2
TAP	87	192	2
TAP	88	0	1
TAP	88	192	1
XTP	89	0	0
XTP	89	0	1
TAP	90	0	0
TAP	90	192	0
TAP	91	0	1
TAP	91	192	1
TAP	92	0	2
TAP	92	192	2
XTP	93	0	2
XTP	93	0	3
TAP	94	0	4
TAP	94	192	4
TAP	95	0	5
TAP	95	192	5
TAP	96	0	6
TAP	96	192	6
BRK	97	0	7
XST	98	0	7
SI_	98	0	7	96	672	4
XST	102	0	3
SI_	102	0	3	96	672	0
XHO	106	0	6	384
XHO	106	0	7	384
XHO	108	0	0	384
XHO	108	0	1	384
TAP	110	0	2
TAP	111	0	3
TAP	112	0	4
XTP	113	0	3
XTP	113	0	4
HLD	114	0	3	384
HLD	116	0	4	384
XTP	117	192	3
XTP	117	192	4
TAP	118	0	4
TAP	118	192	4
TAP	119	0	5
TAP	119	192	5
XTP	120	0	6
XTP	120	192	6
XTP	121	0	7
XTP	121	192	7
XHO	122	0	0	384
XHO	122	0	7	384
BRK	124	0	7
TAP	124	96	7
TAP	124	192	7
TAP	125	0	6
TAP	125	0	7
TAP	126	0	5
TAP	126	96	5
TAP	126	192	5
XTP	127	0	4
XTP	127	0	5
TAP	128	0	3
TAP	128	96	3
TAP	128	192	3
TAP	129	0	2
TAP	129	0	3
TAP	130	0	1
TAP	130	96	1
TAP	130	192	1
XTP	131	0	0
XTP	131	0	1
TAP	132	0	0
TAP	132	96	0
TAP	132	192	0
TAP	133	0	1
TAP	133	192	1
TAP	134	0	2
TAP	134	96	2
TAP	134	192	2
TAP	135	0	3
TAP	135	192	3
TAP	136	0	4
TAP	136	96	4
TAP	136	192	4
TAP	137	0	3
TAP	137	96	3
TAP	137	192	3
TAP	138	0	3
TAP	138	0	4
TAP	138	96	3
TAP	138	96	4
TAP	138	192	3
TAP	138	192	4
XTP	139	0	2
XTP	139	0	5
HLD	140	0	5	192
XTP	141	0	5
HLD	142	0	6	192
XTP	143	0	6
HLD	144	0	7	192
XTP	145	0	7
HLD	146	0	0	192
HLD	146	0	7	192
XTP	147	0	0
XTP	147	0	7
XTP	148	0	6
XTP	148	0	7
XTP	149	0	4
XTP	149	0	5
XTP	150	0	2
XTP	150	0	3
XTP	151	0	0
XTP	151	0	1
XHO	152	0	6	192
XHO	152	0	7	192
XHO	153	0	0	192
XHO	153	0	1	192
TAP	154	0	0
TAP	154	0	7
TAP	154	192	0
TAP	154	192	7
XTP	155	0	1
XTP	155	0	6
TTP	156	0	0	C	1	L1

T_REC_TAP	111
T_REC_BRK	5
T_REC_XTP	38
T_REC_HLD	8
T_REC_XHO	10
T_REC_STR	4
T_REC_BST	0
T_REC_XST	2
T_REC_TTP	14
T_REC_THO	0
T_REC_SLD	6
T_REC_ALL	198
T_NUM_TAP	169
T_NUM_BRK	5
T_NUM_HLD	18
T_NUM_SLD	6
T_NUM_ALL	198
T_JUDGE_TAP	174
T_JUDGE_HLD	54
T_JUDGE_SLD	6
T_JUDGE_ALL	234
TTM_EACHPAIRS	30
TTM_SCR_TAP	84500
TTM_SCR_BRK	13000
TTM_SCR_HLD	18000
TTM_SCR_SLD	9000
TTM_SCR_ALL	124500
TTM_SCR_S	120300
TTM_SCR_SS	124000
TTM_RAT_ACV	10040

