VERSION	0.00.00	1.03.00
FES_MODE	0
BPM_DEF	180.000	180.000	180.000	180.000
MET_DEF	4	4
RESOLUTION	384
CLK_DEF	384
COMPATIBLE_CODE	MA2

BPM	0	0	180.000
MET	0	0	4	4

HLD	1	0	0	192
STR	1	192	7
SCL	1	192	7	96	672	4
TAP	2	0	3
TAP	2	192	2
TAP	3	0	1
STR	3	192	0
SCR	3	192	0	96	672	3
TAP	4	192	4
HLD	5	0	4	192
TAP	6	0	5
STR	7	0	7
SCL	7	0	7	96	672	4
TAP	8	0	3
HLD	9	0	3	288
TAP	9	288	4
TAP	9	336	4
HLD	10	0	5	288
TAP	10	288	4
TAP	10	336	3
HLD	11	0	2	288
TAP	11	288	4
TAP	11	336	5
HLD	12	0	6	288
TAP	12	288	3
TAP	12	336	2
HLD	13	0	1	288
TAP	13	288	5
TAP	13	336	6
HLD	14	0	7	288
TAP	14	288	2
TAP	14	336	1
HLD	15	0	0	576
TAP	16	0	4
HLD	16	192	7	576
THO	17	0	0	384	C	0	M1
TAP	19	0	2
TAP	19	0	4
TAP	19	48	5
HLD	19	96	6	96
TAP	19	144	4
TAP	19	192	3
TAP	19	240	2
TAP	19	288	2
TAP	19	336	1
TAP	19	336	4
TAP	20	0	5
TAP	20	48	3
TAP	20	48	6
HLD	20	96	7	96
TAP	20	144	4
TAP	20	192	3
TAP	20	240	2
TAP	20	240	4
HLD	20	288	1	96
HLD	20	288	5	96
HLD	21	48	6	96
TAP	21	96	4
TAP	21	144	3
HLD	21	192	2	96
TAP	21	240	4
TAP	21	288	5
HLD	21	336	6	96
TAP	22	0	4
TAP	22	48	3
TAP	22	96	2
HLD	22	144	2	96
TAP	22	240	7
TAP	22	336	0
TAP	22	336	5
TAP	23	48	3
TAP	23	48	6
TAP	23	96	2
TAP	23	144	1
HLD	23	192	0	96
TAP	23	192	4
TAP	23	288	3
TAP	23	336	1
TAP	23	336	4
TAP	24	48	2
TAP	24	48	5
TAP	24	144	3
TAP	24	144	6
TAP	24	192	5
TAP	24	240	2
TAP	24	240	4
TAP	24	288	1
HLD	24	336	0	96
TAP	25	48	7
TAP	25	96	4
HLD	25	96	6	96
TAP	25	192	0
HLD	25	240	1	96
TAP	25	240	3
HLD	25	336	7	96
TTP	26	48	4	E	0	M1
TTP	26	60	5	E	0	M1
TTP	26	72	6	E	0	M1
TTP	26	84	7	E	0	M1
TTP	26	96	0	E	0	M1
TTP	26	108	1	E	0	M1
TTP	26	120	2	E	0	M1
TTP	26	132	3	E	0	M1
TTP	26	144	4	E	0	M1
TAP	27	0	2
STR	27	0	4
SI_	27	0	4	96	48	2
HLD	27	72	4	72
STR	27	192	3
SI_	27	192	3	96	48	5
TAP	27	192	5
HLD	27	264	3	72
TAP	28	0	2
STR	28	0	4
SI_	28	0	4	96	48	2
HLD	28	72	4	72
STR	28	192	3
SI_	28	192	3	96	48	5
TAP	28	192	5
HLD	28	264	3	72
TAP	29	0	4
STR	29	0	6
SI_	29	0	6	96	48	3
HLD	29	72	6	72
STR	29	192	1
SI_	29	192	1	96	48	3
TAP	29	192	5
HLD	29	264	1	72
TAP	30	0	2
STR	30	0	4
SI_	30	0	4	96	48	2
HLD	30	72	4	72
TAP	30	192	3
TAP	30	240	3
TAP	30	288	5
TAP	30	336	4
STR	31	0	3
SI_	31	0	3	96	48	5
TAP	31	0	5
HLD	31	72	3	72
TAP	31	192	2
STR	31	192	4
SI_	31	192	4	96	48	2
HLD	31	264	4	72
STR	32	0	3
SI_	32	0	3	96	48	5
TAP	32	0	5
HLD	32	72	3	72
TAP	32	192	4
STR	32	192	6
SI_	32	192	6	96	48	3
HLD	32	264	6	72
STR	33	0	1
SI_	33	0	1	96	48	3
TAP	33	0	5
HLD	33	72	1	72
TAP	33	192	2
STR	33	192	5
SI_	33	192	5	96	48	2
HLD	33	264	5	72
HLD	34	0	1	288
XTP	34	288	3
XTP	34	312	4
XTP	34	336	5
XTP	34	360	6
XST	35	0	7
SCL	35	0	7	96	48	4
TAP	35	96	3
STR	35	192	0
SCR	35	192	0	96	48	3
TAP	35	288	4
STR	36	0	6
SI_	36	0	6	96	48	0
SI_	36	0	6	96	48	4
TAP	36	48	6
STR	36	192	1
SI_	36	192	1	96	48	3
SI_	36	192	1	96	48	7
TAP	36	240	1
TAP	37	0	6
HLD	37	48	6	48
TAP	37	96	4
HLD	37	144	4	48
TAP	37	192	3
HLD	37	240	3	48
STR	37	288	1
SXL	37	288	1	96	96	3
SXR	37	288	1	96	96	7
TAP	37	336	1
BRK	38	144	2
BRK	38	192	6
BRK	38	240	3
BRK	38	288	4
BRK	38	336	0
BRK	39	0	0
TAP	39	96	2
TAP	39	96	3
TAP	39	144	4
STR	39	192	5
SI_	39	192	5	96	48	1
TAP	39	288	3
STR	39	336	2
SI_	39	336	2	96	48	6
TAP	40	48	4
TAP	40	96	4
TAP	40	192	5
STR	40	240	5
SCL	40	240	5	96	48	2
TAP	40	336	2
STR	41	0	1
SCL	41	0	1	96	48	6
TAP	41	96	4
STR	41	144	5
SI_	41	144	5	96	48	2
TAP	41	240	2
HLD	41	288	1	480
TAP	42	0	3
STR	42	48	3
SI_	42	48	3	96	48	6
TAP	42	240	7
STR	42	288	7
SLL	42	288	7	96	96	3
TAP	43	144	2
TAP	43	168	1
HLD	43	192	0	96
TAP	43	336	4
TAP	43	360	5
HLD	44	0	6	96
TAP	44	144	4
TAP	44	168	3
HLD	44	192	2	96
TAP	44	336	0
TAP	44	360	7
HLD	45	0	6	96
TAP	45	144	2
TAP	45	168	3
HLD	45	192	4	96
TAP	45	336	6
TAP	45	360	5
HLD	46	0	4	96
TAP	46	144	7
TAP	46	168	0
HLD	46	192	1	96
TAP	46	336	3
TAP	46	360	4
TAP	47	0	5
TAP	47	96	3
TAP	47	96	6
HLD	47	144	3	96
HLD	47	144	6	96
TAP	47	288	3
TAP	47	288	6
TAP	47	336	2
TAP	47	336	5
TAP	48	0	1
TAP	48	0	4
HLD	48	48	1	96
TAP	48	48	4
TAP	48	144	3
STR	48	192	4
SI_	48	192	4	96	48	7
TAP	48	240	4
STR	48	288	1
SCR	48	288	1	96	48	4
TAP	48	336	1
HLD	49	0	7	96
HLD	49	144	4	96
TAP	49	144	6
STR	49	288	5
SLL	49	288	5	96	144	0
TAP	49	288	6
TAP	49	336	5
TAP	49	336	6
BRK	50	288	7
STR	51	0	0
SCR	51	0	0	96	96	4
STR	51	96	4
SCR	51	96	4	96	96	0
TAP	51	192	0
STR	51	288	4
SI_	51	288	4	96	48	0
STR	52	96	4
SF_	52	96	4	96	48	0
STR	52	288	4
SXL	52	288	4	96	96	4
STR	53	0	4
SCL	53	0	4	96	192	4
XTP	53	96	0
XTP	53	144	0
TTP	53	288	0	C	1	M1
TAP	54	96	0
TAP	54	96	7
TAP	54	192	5
TAP	54	240	4
TAP	54	288	3
TAP	54	336	2
STR	55	0	1
SSR	55	0	1	96	144	5
TAP	55	96	4
STR	55	144	5
SSR	55	144	5	96	144	1
TAP	55	240	0
TAP	55	288	0
STR	56	48	0
SV_	56	48	0	96	48	3
STR	56	48	6
SV_	56	48	6	96	48	3
TAP	56	240	4
TAP	56	288	3
TAP	56	336	2
STR	57	0	1
SCL	57	0	1	96	48	6
TAP	57	96	4
STR	57	144	5
SUR	57	144	5	96	48	2
TAP	57	240	3
TAP	57	336	4
TAP	58	0	4
STR	58	48	3
SF_	58	48	3	96	48	7
TAP	58	48	5
TAP	58	336	7
STR	59	0	7
SI_	59	0	7	96	96	4
STR	59	96	4
SI_	59	96	4	96	96	0
STR	59	192	0
SI_	59	192	0	96	96	3
STR	59	288	3
SCL	59	288	3	96	144	5
HLD	60	0	4	144
STR	60	288	7
SXR	60	288	7	96	96	7
STR	61	0	7
SCR	61	0	7	96	144	6
XTP	61	96	3
XTP	61	144	3
TTP	61	288	0	C	1	M1
XTP	62	48	0
XTP	62	96	1
XTP	62	96	7
TAP	62	192	3
TAP	62	192	5
TAP	62	288	4
TAP	62	336	3
STR	63	0	2
SCR	63	0	2	96	48	5
TAP	63	96	5
STR	63	192	6
SUL	63	192	6	96	48	1
TAP	63	288	1
STR	64	0	0
SCR	64	0	0	96	48	3
TAP	64	96	4
HLD	64	192	7	96
TAP	64	288	4
STR	65	0	0
SI_	65	0	0	96	48	3
STR	65	48	3
SCL	65	48	3	96	48	7
TAP	65	96	4
TAP	65	144	5
STR	65	240	4
SI_	65	240	4	96	48	7
STR	65	288	7
SCL	65	288	7	96	48	3
TAP	65	336	0
TAP	66	96	1
HLD	66	144	1	432
STR	67	192	7
SCL	67	192	7	96	144	0
TAP	67	216	0
TAP	67	240	7
TAP	67	264	0
TTP	68	0	0	C	1	M1
HLD	68	192	0	72
HLD	68	264	2	72
TAP	68	336	3
STR	69	0	4
SI_	69	0	4	96	192	7
TAP	69	192	3
TAP	69	288	3
HLD	70	0	2	96
STR	70	0	7
SI_	70	0	7	96	192	4
HLD	70	144	0	96
HLD	70	288	3	384
TAP	71	96	4
TAP	71	192	4
TAP	71	288	4
TTP	71	336	5	E	0	M1
TTP	71	360	4	E	0	M1
TTP	72	0	3	E	0	M1
TAP	72	96	4
TAP	72	192	4
TAP	72	288	4
TTP	72	336	4	E	0	M1
TTP	72	360	3	E	0	M1
TTP	73	0	2	E	0	M1
TAP	73	96	4
TTP	73	192	1	B	0	M1
TTP	73	192	1	E	0	M1
TAP	73	288	4
TTP	74	0	2	B	0	M1
TTP	74	0	2	E	0	M1
TTP	74	0	3	E	0	M1
TAP	74	96	4
TAP	74	192	4
HLD	74	288	3	96
TAP	74	288	4
TAP	75	0	4
TAP	75	96	1
TAP	75	96	4
TAP	75	192	2
TAP	75	192	4
TAP	75	288	3
TAP	75	288	4
TAP	76	0	2
TAP	76	48	3
TAP	76	96	4
TAP	76	144	5
HLD	76	192	2	96
TAP	76	240	3
TAP	76	288	4
TAP	76	336	5
HLD	77	0	2	96
TAP	77	48	3
TAP	77	96	4
TAP	77	144	5
TAP	77	192	2
TAP	77	240	3
TAP	77	288	4
TAP	77	336	5
TAP	78	0	2
TAP	78	48	3
TAP	78	96	4
TAP	78	144	5
TAP	78	192	2
TAP	78	240	3
TAP	78	288	2
TAP	78	288	4
TAP	78	336	5
HLD	79	0	2	96
TAP	79	48	3
TAP	79	96	4
TAP	79	144	5
TAP	79	192	2
TAP	79	240	3
TAP	79	288	2
TAP	79	288	4
TAP	79	336	5
HLD	80	0	2	96
TAP	80	48	3
TAP	80	96	4
TAP	80	144	5
TAP	80	192	2
TAP	80	240	3
TAP	80	288	2
TAP	80	288	4
TAP	80	336	5
HLD	81	0	2	96
TAP	81	48	3
TAP	81	96	4
TAP	81	144	5
TAP	81	192	2
TAP	81	240	3
TAP	81	288	2
TAP	81	288	4
TAP	81	336	5
HLD	82	0	2	96
TAP	82	48	3
TAP	82	96	4
TAP	82	144	5
TAP	82	192	2
TAP	82	240	3
TAP	82	288	4
TAP	82	336	5
TAP	83	0	2
TAP	83	48	3
TAP	83	96	4
TAP	83	144	3
TAP	83	192	2
TAP	83	240	3
TAP	83	288	4
TAP	83	336	5
HLD	84	0	3	96
HLD	84	0	6	96
HLD	84	144	2	96
HLD	84	144	4	96
HLD	84	288	1	96
HLD	84	288	5	96
HLD	85	48	0	96
HLD	85	48	7	96
HLD	85	192	3	96
HLD	85	192	5	96
HLD	85	336	1	96
HLD	85	336	6	96
STR	86	96	0
SI_	86	96	0	96	48	4
STR	86	144	4
SI_	86	144	4	96	48	0
TAP	86	192	5
TAP	86	288	6
HLD	87	0	1	96
HLD	87	0	4	96
HLD	87	144	3	96
HLD	87	144	5	96
HLD	87	288	2	96
HLD	87	288	6	96
HLD	88	48	0	96
HLD	88	48	7	96
HLD	88	192	2	96
HLD	88	192	4	96
HLD	88	336	1	96
HLD	88	336	6	96
STR	89	96	0
SI_	89	96	0	96	48	4
STR	89	96	7
SI_	89	96	7	96	48	3
STR	89	192	0
SCR	89	192	0	96	48	3
STR	89	192	7
SCL	89	192	7	96	48	4
TAP	89	288	0
TAP	89	288	7
BRK	90	0	1
BRK	90	0	6
HLD	90	96	5	96
HLD	90	192	4	96
STR	90	288	3
SCR	90	288	3	96	96	7
STR	91	96	4
SCL	91	96	4	96	96	0
TAP	91	288	3
STR	91	336	3
SI_	91	336	3	96	48	7
TAP	92	48	0
STR	92	96	0
SI_	92	96	0	96	48	4
TAP	92	192	7
TAP	92	288	5
TAP	92	336	5
TAP	93	0	4
TAP	93	48	4
TAP	93	96	3
TAP	93	96	5
TAP	93	144	3
HLD	93	144	5	96
TAP	93	240	4
TAP	93	288	3
TAP	93	336	3
TAP	94	0	2
TAP	94	0	4
HLD	94	48	2	96
TAP	94	48	4
STR	94	144	3
SI_	94	144	3	96	48	7
TAP	94	192	3
STR	94	240	0
SI_	94	240	0	96	48	4
TAP	94	288	0
TAP	94	336	5
STR	95	0	5
SCL	95	0	5	96	48	2
TAP	95	96	0
HLD	95	144	0	96
STR	95	240	7
SLL	95	240	7	96	192	3
SLR	95	240	7	96	192	3
TAP	95	288	7
HLD	97	0	3	1536
STR	98	0	7
SI_	98	0	7	96	144	4
STR	99	0	4
SCL	99	0	4	96	480	5
TAP	100	288	6
HLD	101	0	7	192
TAP	101	240	2
TAP	101	264	3
HLD	101	288	4	384
TAP	102	336	0
TAP	102	360	7
HLD	103	0	6	288
TAP	103	336	4
TAP	103	360	3
STR	104	0	2
SCR	104	0	2	96	48	5
XTP	104	240	1
TAP	104	256	0
TAP	104	272	7
TAP	104	288	6
TAP	104	304	5
TAP	104	320	4
TAP	104	336	3
TAP	104	352	2
TAP	104	368	1
STR	105	0	0
SI_	105	0	0	96	96	3
STR	105	96	3
SI_	105	96	3	96	96	7
STR	105	192	7
SI_	105	192	7	96	96	4
STR	105	288	4
SCR	105	288	4	96	96	2
HLD	106	0	3	144
STR	106	288	2
SI_	106	288	2	96	48	7
STR	106	288	3
SI_	106	288	3	96	48	6
TAP	107	0	2
TAP	107	0	3
STR	107	96	4
SI_	107	96	4	96	48	1
STR	107	96	5
SI_	107	96	5	96	48	0
STR	107	192	4
SCR	107	192	4	96	192	2
TAP	107	192	5
BRK	107	288	7
XTP	108	48	3
XTP	108	96	3
TAP	108	192	2
TAP	108	192	4
TAP	108	288	3
TAP	108	336	4
STR	109	0	5
SCL	109	0	5	96	48	2
TAP	109	96	2
STR	109	192	1
SUR	109	192	1	96	48	6
TAP	109	288	6
STR	110	0	7
SCL	110	0	7	96	48	4
TAP	110	96	3
HLD	110	192	0	192
TAP	110	288	3
STR	111	0	7
SI_	111	0	7	96	48	4
STR	111	48	4
SCR	111	48	4	96	48	0
TAP	111	96	3
TAP	111	144	2
TAP	111	240	3
STR	111	288	3
SI_	111	288	3	96	48	0
STR	111	336	0
SCR	111	336	0	96	48	4
TAP	112	0	7
TAP	112	48	6
TAP	112	144	7
STR	112	192	7
SI_	112	192	7	96	48	4
STR	112	240	4
SCR	112	240	4	96	48	0
TAP	112	336	2
HLD	113	0	2	144
TAP	113	144	3
STR	113	192	3
SI_	113	192	3	96	480	7

T_REC_TAP	311
T_REC_BRK	10
T_REC_XTP	14
T_REC_HLD	104
T_REC_XHO	0
T_REC_STR	95
T_REC_BST	0
T_REC_XST	1
T_REC_TTP	23
T_REC_THO	1
T_REC_SLD	100
T_REC_ALL	659
T_NUM_TAP	444
T_NUM_BRK	10
T_NUM_HLD	105
T_NUM_SLD	100
T_NUM_ALL	659
T_JUDGE_TAP	454
T_JUDGE_HLD	333
T_JUDGE_SLD	100
T_JUDGE_ALL	887
TTM_EACHPAIRS	76
TTM_SCR_TAP	222000
TTM_SCR_BRK	26000
TTM_SCR_HLD	105000
TTM_SCR_SLD	150000
TTM_SCR_ALL	503000
TTM_SCR_S	486950
TTM_SCR_SS	502000
TTM_RAT_ACV	10019

