VERSION	0.00.00	1.03.00
FES_MODE	0
BPM_DEF	180.000	180.000	180.000	180.000
MET_DEF	4	4
RESOLUTION	384
CLK_DEF	384
COMPATIBLE_CODE	MA2

BPM	0	0	180.000
MET	0	0	4	4

TAP	1	0	3
HLD	1	0	4	1152
HLD	3	0	3	1152
HLD	5	0	5	1152
THO	7	0	0	384	C	0	M1
HLD	9	0	2	384
TAP	9	0	5
TAP	9	288	3
HLD	10	0	3	384
TAP	10	288	4
HLD	11	0	4	384
TAP	11	288	5
HLD	12	0	5	576
TAP	12	288	4
HLD	13	0	4	192
TAP	13	288	3
TAP	13	288	4
HLD	14	0	2	192
HLD	14	0	3	192
TAP	14	288	3
TAP	14	288	4
HLD	15	0	3	384
HLD	15	0	4	384
TAP	16	192	2
TAP	16	192	5
STR	17	0	1
SLR	17	0	1	96	480	0
STR	17	0	6
SLL	17	0	6	96	480	7
TAP	19	0	1
TAP	19	0	6
TAP	19	96	2
TAP	19	192	3
TAP	19	288	5
TAP	20	0	3
TAP	20	0	6
TAP	20	96	5
TAP	20	192	4
TAP	20	288	2
TAP	21	0	1
TAP	21	0	4
TAP	21	96	2
TAP	21	192	3
TAP	21	288	5
TAP	22	0	4
TAP	22	0	5
TAP	22	96	3
TAP	22	192	2
TAP	22	192	4
TAP	23	0	5
TAP	23	96	4
TAP	23	192	2
TAP	23	288	1
TAP	23	288	3
TAP	24	0	2
TAP	24	96	4
TAP	24	192	5
TAP	24	288	4
TAP	24	288	6
TAP	25	0	7
TAP	25	96	7
TAP	25	192	0
STR	25	288	1
SUL	25	288	1	96	192	4
STR	25	288	6
SUR	25	288	6	96	192	3
TAP	27	0	5
XHO	27	72	5	192
TAP	27	192	3
XHO	27	264	3	192
TAP	28	0	4
XHO	28	72	4	192
TAP	28	192	3
TAP	28	264	3
TAP	29	0	2
XHO	29	72	2	192
TAP	29	192	4
XHO	29	264	4	192
TAP	30	0	3
XHO	30	72	3	192
TAP	30	192	4
TAP	30	264	4
TAP	31	0	5
XHO	31	72	5	192
TAP	31	192	4
XHO	31	264	4	192
TAP	32	0	3
XHO	32	72	3	192
TAP	32	192	2
TAP	32	264	2
TAP	33	0	1
XHO	33	72	1	192
TAP	33	192	0
XHO	33	264	0	120
STR	34	0	7
SI_	34	0	7	96	144	3
TAP	35	0	1
TAP	35	96	2
TAP	35	192	3
TAP	35	192	4
TAP	35	288	2
TAP	36	0	1
TAP	36	0	3
TAP	36	96	0
TAP	36	192	7
TAP	36	288	0
TAP	36	288	7
TAP	37	0	6
TAP	37	96	5
TAP	37	192	3
TAP	37	192	4
TAP	37	288	5
TAP	38	0	4
TAP	38	0	6
TAP	38	96	7
TAP	38	192	3
TAP	38	192	7
TAP	38	288	6
HLD	39	0	2	192
TAP	39	0	5
TAP	39	96	5
TAP	39	192	3
TAP	39	288	3
TAP	39	288	4
TAP	40	0	2
HLD	40	0	5	192
TAP	40	96	2
TAP	40	192	4
TAP	40	288	3
TAP	40	288	4
TAP	41	0	2
TAP	41	96	0
TAP	41	192	7
TAP	41	288	5
TAP	42	0	3
HLD	42	0	4	96
TAP	42	96	3
BRK	42	192	1
BRK	42	192	6
STR	43	0	2
SCR	43	0	2	96	192	5
TAP	43	192	6
TAP	43	288	6
STR	44	0	5
SCL	44	0	5	96	192	2
TAP	44	192	1
TAP	44	288	1
STR	45	0	2
SV_	45	0	2	96	192	5
TAP	45	192	7
TAP	45	288	7
HLD	46	0	6	96
HLD	46	0	7	96
TAP	46	192	6
TAP	46	192	7
TAP	46	288	4
TAP	46	288	5
TAP	47	0	2
TAP	47	48	2
TAP	47	144	1
TAP	47	144	3
TAP	47	288	5
TAP	47	336	5
TAP	48	48	4
TAP	48	48	6
TAP	48	192	0
TAP	48	192	7
TAP	48	288	1
TAP	48	288	6
HLD	49	0	2	144
HLD	49	0	5	144
XTP	49	288	1
XTP	49	288	6
XHO	49	336	1	240
XHO	49	336	6	240
TAP	50	288	0
TAP	50	288	7
HLD	51	0	1	96
HLD	51	96	3	96
HLD	51	192	4	96
TAP	51	288	5
HLD	52	0	6	96
HLD	52	96	4	96
HLD	52	192	3	96
TAP	52	288	1
TAP	53	0	0
STR	53	0	7
SCR	53	0	7	96	240	5
TAP	54	0	0
TAP	54	96	0
TAP	54	192	1
TAP	54	192	7
TAP	54	288	2
TAP	54	288	6
TAP	55	0	3
STR	55	0	5
SI_	55	0	5	96	96	2
TAP	55	192	1
TAP	55	288	1
TAP	55	288	3
STR	56	0	2
SI_	56	0	2	96	96	5
TAP	56	192	6
TAP	56	288	4
TAP	56	288	6
TAP	57	0	0
TAP	57	0	7
TAP	57	96	1
TAP	57	96	3
TAP	57	192	3
TAP	57	192	4
TAP	57	288	3
STR	57	288	4
SF_	57	288	4	96	192	0
HLD	59	0	6	96
HLD	59	96	4	96
HLD	59	192	3	96
TAP	59	288	2
HLD	60	0	1	96
HLD	60	96	3	96
HLD	60	192	4	96
TAP	60	288	5
TAP	61	0	3
TAP	61	0	6
TAP	61	96	4
TAP	61	96	5
TAP	61	192	2
TAP	61	192	3
BRK	61	288	0
BST	61	288	1
SCR	61	288	1	96	192	6
TAP	62	288	7
TAP	62	336	0
HLD	63	0	6	96
TAP	63	96	4
TAP	63	192	3
TAP	63	192	4
TAP	63	288	2
TAP	63	336	3
HLD	64	0	1	96
TAP	64	96	0
TAP	64	192	0
TAP	64	192	7
TAP	64	288	1
TAP	64	288	6
TAP	65	0	2
TAP	65	48	2
TAP	65	144	1
TAP	65	144	3
TAP	65	240	3
TAP	65	240	4
BRK	65	336	4
BRK	65	336	6
STR	66	48	0
SI_	66	48	0	96	432	4
TAP	66	48	7
XTP	68	0	3
XHO	68	0	5	768
TTP	68	192	4	E	0	M1
TTP	69	0	3	E	0	M1
HLD	70	0	0	768
TTP	70	192	3	E	0	M1
TTP	71	0	4	E	0	M1
HLD	72	0	7	768
TTP	72	192	1	B	0	M1
TTP	73	0	3	B	0	M1
THO	74	0	0	768	C	0	M1
BST	76	0	7
SI_	76	0	7	96	384	4
STR	77	0	0
SI_	77	0	0	96	384	3
STR	78	0	7
SI_	78	0	7	96	384	4
STR	79	0	0
SI_	79	0	0	96	384	3
STR	80	0	7
SCL	80	0	7	96	384	4
STR	81	0	0
SCR	81	0	0	96	384	3
STR	82	0	7
SCL	82	0	7	96	384	4
TAP	83	0	3
TAP	83	192	3
HLD	84	0	4	96
HLD	84	0	5	96
HLD	84	144	3	96
HLD	84	144	4	96
HLD	84	288	2	96
HLD	84	288	3	96
HLD	85	48	3	96
HLD	85	48	4	96
HLD	85	192	4	96
HLD	85	192	5	96
HLD	85	336	3	96
HLD	85	336	4	96
TAP	86	96	3
TAP	86	96	4
TAP	86	192	3
TAP	86	192	4
TAP	86	288	2
HLD	87	0	1	96
HLD	87	0	3	96
HLD	87	144	2	96
HLD	87	144	4	96
HLD	87	288	3	96
HLD	87	288	5	96
HLD	88	48	4	96
HLD	88	48	6	96
HLD	88	192	3	96
HLD	88	192	5	96
HLD	88	336	2	96
HLD	88	336	4	96
STR	89	96	3
SCL	89	96	3	96	96	0
STR	89	96	4
SCR	89	96	4	96	96	7
BRK	90	0	1
BRK	90	0	6
HLD	90	96	2	384
TAP	90	96	5
TAP	90	192	5
TAP	90	288	3
TAP	91	0	1
TAP	91	96	3
TAP	91	192	1
HLD	91	192	6	384
TAP	91	288	1
TAP	92	0	7
TAP	92	96	5
TAP	92	192	7
TAP	92	288	0
TAP	92	288	5
TAP	93	0	1
TAP	93	0	4
TAP	93	96	2
TAP	93	144	2
TAP	93	144	3
TAP	93	240	6
TAP	93	288	4
TAP	93	288	6
TAP	94	0	1
TAP	94	48	1
TAP	94	48	3
TAP	94	144	5
TAP	94	192	4
TAP	94	192	5
TAP	94	288	3
TAP	94	288	4
HLD	95	0	2	144
HLD	95	0	5	144
XST	95	288	1
SCR	95	288	1	96	336	6
XTP	95	288	6
XTP	95	336	1
XTP	95	336	6
XHO	97	0	7	1536
TTP	98	0	0	E	0	M1
TTP	99	0	0	C	0	M1
TTP	100	0	4	E	0	M1
STR	101	0	4
SUL	101	0	4	96	288	7
STR	102	0	3
SUR	102	0	3	96	288	0
HLD	103	0	2	528
HLD	104	0	4	144
TAP	104	240	1
TAP	104	240	7
BRK	104	288	1
BRK	104	288	7
HLD	105	0	0	96
HLD	105	96	2	96
HLD	105	192	4	96
TAP	105	288	6
HLD	106	0	7	96
HLD	106	96	5	96
HLD	106	192	3	96
TAP	106	288	1
TAP	107	0	0
TAP	107	0	7
TAP	107	96	5
TAP	107	144	4
TAP	107	144	6
TAP	107	240	2
BST	107	288	1
SCL	107	288	1	96	192	4
BRK	107	288	3
TAP	108	288	2
TAP	108	336	3
HLD	109	0	1	96
TAP	109	96	0
TAP	109	192	2
TAP	109	192	7
TAP	109	288	6
TAP	109	336	7
HLD	110	0	5	96
TAP	110	96	4
TAP	110	192	3
TAP	110	192	6
TAP	110	288	2
TAP	110	288	5
HLD	111	0	1	96
HLD	111	0	4	96
HLD	111	144	2	96
HLD	111	144	3	96
HLD	111	288	4	96
HLD	111	288	5	96
TAP	112	48	3
TAP	112	48	6
TAP	112	144	0
TAP	112	144	7
TAP	112	192	1
TAP	112	192	6
TAP	112	240	2
TAP	112	240	5
XTP	112	336	4
XHO	113	0	4	192
XTP	113	144	3
BST	113	192	3
SI_	113	192	3	96	480	7

T_REC_TAP	239
T_REC_BRK	10
T_REC_XTP	8
T_REC_HLD	79
T_REC_XHO	16
T_REC_STR	23
T_REC_BST	4
T_REC_XST	1
T_REC_TTP	9
T_REC_THO	2
T_REC_SLD	28
T_REC_ALL	419
T_NUM_TAP	280
T_NUM_BRK	14
T_NUM_HLD	97
T_NUM_SLD	28
T_NUM_ALL	419
T_JUDGE_TAP	294
T_JUDGE_HLD	457
T_JUDGE_SLD	28
T_JUDGE_ALL	779
TTM_EACHPAIRS	104
TTM_SCR_TAP	140000
TTM_SCR_BRK	36400
TTM_SCR_HLD	97000
TTM_SCR_SLD	42000
TTM_SCR_ALL	315400
TTM_SCR_S	304600
TTM_SCR_SS	314000
TTM_RAT_ACV	10044

