VERSION	0.00.00	1.03.00
FES_MODE	0
BPM_DEF	180.000	180.000	180.000	180.000
MET_DEF	4	4
RESOLUTION	384
CLK_DEF	384
COMPATIBLE_CODE	MA2

BPM	0	0	180.000
MET	0	0	4	4

XHO	1	0	2	384
HLD	2	0	3	384
HLD	3	0	4	384
TAP	4	0	5
HLD	5	0	6	384
HLD	6	0	7	384
HLD	7	0	0	384
TAP	8	0	1
STR	9	0	2
SI_	9	0	2	96	192	7
STR	10	0	6
SI_	10	0	6	96	192	2
STR	11	0	1
SI_	11	0	1	96	192	5
TAP	12	0	6
TAP	12	192	6
TAP	12	192	7
STR	13	0	5
SI_	13	0	5	96	192	0
STR	14	0	1
SI_	14	0	1	96	192	5
STR	15	0	6
SI_	15	0	6	96	192	2
TAP	16	0	1
TAP	16	192	0
TAP	16	192	1
XST	17	0	0
SXL	17	0	0	96	480	3
XST	17	0	7
SXR	17	0	7	96	480	4
TAP	19	0	5
TAP	19	96	5
TAP	19	192	4
TAP	19	288	4
TAP	20	0	3
TAP	20	96	3
TAP	20	192	2
TAP	20	192	4
TAP	21	0	1
TAP	21	96	1
TAP	21	192	0
TAP	21	288	0
TAP	22	0	7
TAP	22	96	7
TAP	22	192	0
TAP	22	192	6
HLD	23	0	5	96
TAP	23	96	4
TAP	23	192	4
HLD	24	0	2	96
TAP	24	96	3
TAP	24	192	3
TAP	25	0	4
TAP	25	96	4
TAP	25	192	3
TAP	25	288	3
TAP	26	0	3
TAP	26	0	4
TAP	26	96	3
TAP	26	96	4
BRK	26	192	2
BRK	26	192	5
TTP	27	0	4	B	0	L1
TTP	27	192	5	B	0	L1
TTP	28	0	6	B	0	L1
TTP	28	192	7	B	0	L1
TTP	29	0	0	B	0	L1
TTP	29	192	1	B	0	L1
TTP	30	0	2	B	0	L1
TTP	30	192	0	C	0	L1
TTP	31	0	4	B	0	L1
TTP	31	0	5	B	0	L1
TTP	31	192	6	B	0	L1
TTP	31	192	7	B	0	L1
TTP	32	0	0	B	0	L1
TTP	32	0	1	B	0	L1
TTP	32	192	2	B	0	L1
TTP	32	192	3	B	0	L1
TTP	33	0	4	B	0	L1
TTP	33	0	5	B	0	L1
TTP	33	192	6	B	0	L1
TTP	33	192	7	B	0	L1
TTP	34	0	0	C	1	L1
TAP	35	0	6
TAP	35	96	6
TAP	35	192	7
TAP	36	0	1
TAP	36	96	1
TAP	36	192	0
TAP	37	0	6
TAP	37	96	6
TAP	37	192	7
TAP	38	0	0
TAP	38	96	0
XTP	38	192	1
XTP	38	192	7
TAP	39	0	2
TAP	39	96	2
TAP	39	192	3
TAP	40	0	5
TAP	40	96	5
TAP	40	192	4
TAP	41	0	2
TAP	41	96	2
TAP	41	192	3
TAP	42	0	4
TAP	42	96	3
BRK	42	192	2
BRK	42	192	5
STR	43	0	6
SCL	43	0	6	96	192	3
TAP	44	0	2
TAP	44	192	2
TAP	44	192	3
STR	45	0	1
SCR	45	0	1	96	192	4
TAP	46	0	5
TAP	46	192	4
TAP	46	192	5
XHO	47	0	6	288
XHO	47	288	0	288
XTP	48	192	7
XST	49	0	0
SI_	49	0	0	96	192	4
XTP	49	0	7
TAP	50	288	3
TAP	50	288	4
TAP	51	0	2
TAP	51	96	2
TAP	51	192	2
TAP	51	192	3
TAP	51	288	2
TAP	51	288	3
TAP	52	0	1
TAP	52	96	0
TAP	52	192	1
TAP	52	192	7
TAP	53	0	6
TAP	53	96	6
TAP	53	192	6
TAP	53	192	7
TAP	53	288	6
TAP	53	288	7
TAP	54	0	5
TAP	54	96	4
TAP	54	192	3
TAP	54	192	4
TAP	55	0	5
TAP	55	96	5
TAP	55	192	4
TAP	55	192	5
TAP	55	288	4
TAP	55	288	5
TAP	56	0	6
TAP	56	96	7
TAP	56	192	0
TAP	56	192	6
TAP	57	0	1
TAP	57	96	1
TAP	57	192	0
TAP	57	192	1
TAP	57	288	0
TAP	57	288	1
TAP	58	0	2
TAP	58	96	3
TAP	58	96	4
XTP	58	192	2
XTP	58	192	5
TAP	59	0	6
TAP	59	96	6
TAP	59	192	6
TAP	59	192	7
TAP	59	288	6
TAP	59	288	7
TAP	60	0	5
TAP	60	96	4
TAP	60	192	3
TAP	60	192	5
TAP	61	0	2
TAP	61	96	2
TAP	61	192	2
TAP	61	192	3
TAP	61	288	2
TAP	61	288	3
TAP	62	0	1
TAP	62	96	0
TAP	62	192	0
TAP	62	192	7
STR	63	0	6
SI_	63	0	6	96	192	2
STR	64	0	1
SI_	64	0	1	96	192	5
STR	65	0	7
SI_	65	0	7	96	192	3
TTP	66	0	0	C	1	L1
TTP	68	0	0	B	0	L1
TTP	68	0	1	E	0	L1
TTP	69	0	2	B	0	L1
TTP	69	0	2	E	0	L1
TTP	70	0	3	B	0	L1
TTP	70	0	3	E	0	L1
TTP	72	0	7	B	0	L1
TTP	72	0	7	E	0	L1
TTP	73	0	5	B	0	L1
TTP	73	0	6	E	0	L1
TTP	74	0	4	B	0	L1
TTP	74	0	5	E	0	L1
HLD	76	0	2	384
HLD	77	0	3	384
HLD	78	0	4	384
TAP	79	0	5
HLD	80	0	6	384
HLD	81	0	7	384
HLD	82	0	0	384
TAP	83	0	1
STR	84	0	2
SXR	84	0	2	96	480	7
STR	86	0	6
SXR	86	0	6	96	480	3
STR	88	0	2
SCL	88	0	2	96	528	4
XTP	90	0	3
XTP	90	0	4
TAP	90	192	5
TAP	90	288	5
TAP	91	96	4
TAP	91	192	4
TAP	92	0	3
TAP	92	96	3
TAP	92	288	2
TAP	93	0	2
TAP	93	96	2
TAP	93	192	1
TAP	93	288	0
TAP	94	0	7
TAP	94	96	6
TAP	94	192	5
TAP	94	288	4
HLD	95	0	2	336
HLD	95	0	5	336
TTP	97	0	4	B	0	L1
TTP	98	0	5	B	0	L1
TTP	99	0	6	B	0	L1
TTP	100	0	7	B	0	L1
TTP	101	0	0	B	0	L1
TTP	102	0	1	B	0	L1
TTP	103	0	2	B	0	L1
TTP	104	0	0	C	1	L1
TAP	105	0	1
TAP	105	96	0
TAP	105	96	1
TAP	105	192	6
TAP	105	288	6
TAP	105	288	7
TAP	106	0	5
TAP	106	96	4
TAP	106	192	3
TAP	106	192	5
TAP	107	0	2
TAP	107	96	2
TAP	107	96	3
TAP	107	192	5
TAP	107	288	4
TAP	107	288	5
TAP	108	0	6
TAP	108	96	0
TAP	108	96	7
TAP	108	192	1
TAP	108	192	6
STR	109	0	1
SUR	109	0	1	96	192	5
STR	110	0	6
SUL	110	0	6	96	192	2
TAP	111	0	1
TAP	111	96	0
TAP	111	96	1
TAP	111	288	6
TAP	112	0	6
TAP	112	0	7
STR	112	192	0
SXL	112	192	0	96	576	3
STR	112	192	7
SXR	112	192	7	96	576	4

T_REC_TAP	169
T_REC_BRK	4
T_REC_XTP	8
T_REC_HLD	15
T_REC_XHO	3
T_REC_STR	18
T_REC_BST	0
T_REC_XST	3
T_REC_TTP	42
T_REC_THO	0
T_REC_SLD	21
T_REC_ALL	283
T_NUM_TAP	240
T_NUM_BRK	4
T_NUM_HLD	18
T_NUM_SLD	21
T_NUM_ALL	283
T_JUDGE_TAP	244
T_JUDGE_HLD	126
T_JUDGE_SLD	21
T_JUDGE_ALL	391
TTM_EACHPAIRS	45
TTM_SCR_TAP	120000
TTM_SCR_BRK	10400
TTM_SCR_HLD	18000
TTM_SCR_SLD	31500
TTM_SCR_ALL	179900
TTM_SCR_S	174150
TTM_SCR_SS	179500
TTM_RAT_ACV	10022

