VERSION	0.00.00	1.03.00
FES_MODE	0
BPM_DEF	180.000	180.000	180.000	180.000
MET_DEF	4	4
RESOLUTION	384
CLK_DEF	384
COMPATIBLE_CODE	MA2

BPM	0	0	180.000
MET	0	0	4	4

TAP	9	0	0
TAP	11	0	0
TAP	13	0	7
XTP	15	0	7
BRK	17	0	0
TAP	19	0	0
TAP	20	0	0
TAP	21	0	1
TAP	22	0	1
TAP	23	0	2
TAP	24	0	2
TAP	25	0	3
TAP	26	0	3
TAP	26	0	4
HLD	27	0	4	384
HLD	29	0	5	384
HLD	31	0	6	384
HLD	33	0	0	384
HLD	33	0	7	384
TAP	35	0	7
TAP	35	192	7
TAP	36	0	7
TAP	37	0	6
TAP	37	192	6
TAP	38	0	6
TAP	39	0	5
TAP	39	192	5
TAP	40	0	5
TAP	41	0	4
TAP	41	192	4
TAP	42	0	3
TAP	42	0	4
TTP	43	0	3	B	0	L1
TTP	44	0	4	B	0	L1
TTP	45	0	2	B	0	L1
TTP	46	0	5	B	0	L1
THO	47	0	0	768	C	0	L1
XTP	50	0	0
XTP	50	0	7
TAP	51	0	0
TAP	51	192	0
TAP	52	0	1
TAP	52	192	1
TAP	53	0	2
TAP	53	192	2
XTP	54	0	3
XTP	54	0	4
TAP	55	0	4
TAP	55	192	4
TAP	56	0	5
TAP	56	192	5
TAP	57	0	6
TAP	57	192	6
XTP	58	0	0
XTP	58	0	7
TAP	59	0	7
TAP	59	192	7
TAP	60	0	6
TAP	60	96	6
TAP	60	192	6
TAP	61	0	5
TAP	61	192	5
TAP	62	0	4
TAP	62	96	4
TAP	62	192	3
TAP	62	192	4
TAP	63	0	3
TAP	63	192	3
TAP	64	0	2
TAP	64	96	2
TAP	64	192	2
TAP	65	0	1
TAP	65	192	1
HLD	66	0	0	384
HLD	66	0	7	384
STR	68	0	0
SI_	68	0	0	96	480	3
TAP	71	0	7
STR	72	0	7
SI_	72	0	7	96	480	4
TAP	75	0	3
TAP	75	0	4
HLD	76	0	2	384
HLD	78	0	3	384
HLD	80	0	4	384
HLD	82	0	5	384
HLD	84	0	6	384
HLD	84	0	7	384
HLD	86	0	0	384
HLD	86	0	1	384
TAP	88	0	0
TAP	88	0	7
TAP	88	192	0
TAP	88	192	7
XTP	89	0	0
XTP	89	0	7
TAP	90	0	0
TAP	90	192	0
TAP	91	0	1
TAP	91	192	1
TAP	92	0	2
TAP	92	192	2
HLD	93	0	2	384
HLD	93	0	3	384
HLD	95	0	4	384
HLD	95	0	5	384
TTP	97	0	4	B	0	L1
TTP	97	0	5	B	0	L1
TTP	99	0	2	B	0	L1
TTP	99	0	3	B	0	L1
TTP	101	0	5	B	0	L1
TTP	101	0	6	B	0	L1
THO	103	0	0	384	C	0	L1
TAP	105	0	7
TAP	105	96	7
TAP	105	192	7
TAP	106	0	6
TAP	106	96	6
TAP	106	192	6
TAP	107	0	5
TAP	107	96	5
TAP	107	192	5
TAP	108	0	4
TAP	108	96	4
TAP	108	192	3
TAP	108	192	4
TAP	109	0	2
TAP	109	96	2
TAP	109	192	2
TAP	110	0	1
TAP	110	96	1
TAP	110	192	1
TAP	111	0	0
TAP	111	192	0
TAP	111	192	1
TAP	112	0	7
TAP	112	192	6
TAP	112	192	7
TAP	113	0	0
HLD	113	192	0	576
HLD	113	192	7	576

T_REC_TAP	94
T_REC_BRK	1
T_REC_XTP	9
T_REC_HLD	21
T_REC_XHO	0
T_REC_STR	2
T_REC_BST	0
T_REC_XST	0
T_REC_TTP	10
T_REC_THO	2
T_REC_SLD	2
T_REC_ALL	141
T_NUM_TAP	115
T_NUM_BRK	1
T_NUM_HLD	23
T_NUM_SLD	2
T_NUM_ALL	141
T_JUDGE_TAP	116
T_JUDGE_HLD	200
T_JUDGE_SLD	2
T_JUDGE_ALL	318
TTM_EACHPAIRS	20
TTM_SCR_TAP	57500
TTM_SCR_BRK	2600
TTM_SCR_HLD	23000
TTM_SCR_SLD	3000
TTM_SCR_ALL	86100
TTM_SCR_S	83450
TTM_SCR_SS	86000
TTM_RAT_ACV	10011

