VERSION	0.00.00	1.03.00
FES_MODE	0
BPM_DEF	155.000	155.000	155.000	155.000
MET_DEF	4	4
RESOLUTION	384
CLK_DEF	384
COMPATIBLE_CODE	MA2

BPM	0	0	155.000
MET	0	0	4	4

TAP	1	288	3
TAP	1	336	3
HLD	1	360	4	72
TAP	2	48	2
TAP	2	96	5
TAP	2	144	5
HLD	2	168	4	72
TAP	2	240	6
TAP	2	288	2
TAP	2	336	2
HLD	2	360	3	72
TAP	3	48	1
TAP	3	96	4
STR	3	144	4
SI_	3	144	4	96	48	0
HLD	3	168	3	72
TAP	4	0	3
TTP	4	0	6	B	0	M1
TTP	4	0	7	E	0	M1
TTP	4	96	2	B	0	M1
TTP	4	96	3	E	0	M1
TAP	4	96	5
TAP	4	192	1
TTP	4	192	5	B	0	M1
TTP	4	192	5	E	0	M1
TTP	4	288	1	B	0	M1
TTP	4	288	1	E	0	M1
TAP	4	288	7
XTP	4	360	0
XHO	4	360	6	72
TAP	5	48	7
TAP	5	96	6
TAP	5	144	0
TAP	5	144	5
BRK	5	168	0
BRK	5	168	5
TAP	5	288	5
TAP	5	336	5
HLD	5	360	4	72
TAP	6	48	6
TAP	6	96	2
TAP	6	144	2
HLD	6	168	3	72
TAP	6	240	1
TAP	6	288	6
TAP	6	336	6
HLD	6	360	7	72
TAP	7	48	5
TAP	7	96	1
STR	7	144	1
SI_	7	144	1	96	48	5
HLD	7	168	0	72
XTP	7	336	0
XTP	7	336	4
XTP	7	360	3
XTP	7	360	7
XTP	8	0	2
XTP	8	0	6
XHO	8	216	5	48
TAP	8	264	4
TAP	8	288	5
XTP	8	360	3
XTP	8	360	6
XTP	9	48	1
XTP	9	48	4
XHO	9	96	2	48
TAP	9	144	3
TAP	9	168	2
XTP	9	216	7
XTP	9	240	7
TAP	9	264	0
XTP	9	288	7
STR	10	0	2
SCR	10	0	2	96	48	5
STR	10	96	6
SI_	10	96	6	96	48	2
STR	10	192	1
SCL	10	192	1	96	48	6
TAP	10	288	5
TAP	10	336	5
TAP	11	48	1
HLD	11	96	1	72
HLD	11	168	2	72
TAP	11	240	3
STR	11	288	4
SCR	11	288	4	96	192	3
TAP	11	336	5
TAP	12	0	6
TAP	12	288	5
XTP	12	336	4
XTP	12	336	6
TAP	13	48	5
TAP	13	96	4
TAP	13	144	3
TAP	13	192	2
BRK	13	240	1
BRK	13	240	3
XTP	14	0	3
XTP	14	0	4
TAP	14	48	2
TAP	14	72	3
TAP	14	96	2
TAP	14	144	1
TAP	14	144	4
HLD	14	192	0	72
HLD	14	264	1	72
TAP	14	336	2
TAP	15	48	5
TAP	15	72	4
TAP	15	96	5
TAP	15	144	3
TAP	15	144	6
HLD	15	192	7	72
HLD	15	264	6	72
TAP	15	336	5
XTP	16	0	0
XTP	16	0	7
TAP	16	48	1
TAP	16	96	3
TAP	16	144	1
TAP	16	192	0
TAP	16	192	7
TAP	16	240	6
TAP	16	288	4
TAP	16	336	6
TAP	17	0	0
TAP	17	0	7
TAP	17	48	1
TAP	17	48	6
TAP	17	96	2
TAP	17	96	5
TAP	17	144	0
STR	17	144	7
SCL	17	144	7	96	48	4
TAP	17	168	0
TAP	17	168	7
XTP	17	240	1
XTP	17	264	2
XTP	17	288	3
XHO	18	0	1	240
BRK	18	0	6
TAP	18	240	3
TAP	18	288	1
TAP	18	336	2
HLD	19	0	3	144
HLD	19	144	4	144
TAP	19	288	3
TAP	19	336	4
HLD	20	0	6	240
TAP	20	240	4
TAP	20	288	6
TAP	20	336	5
HLD	21	0	3	72
HLD	21	72	2	72
TAP	21	144	1
STR	21	192	1
SCR	21	192	1	96	48	4
TAP	21	288	5
STR	22	0	7
SI_	22	0	7	96	48	5
TAP	22	48	7
TAP	22	96	4
TAP	22	144	4
STR	22	192	3
SI_	22	192	3	96	48	1
TAP	22	240	3
TAP	22	288	0
TAP	22	336	0
STR	23	0	7
SI_	23	0	7	96	48	1
TAP	23	48	7
TAP	23	96	2
TAP	23	144	2
STR	23	192	3
SI_	23	192	3	96	48	5
TAP	23	240	3
TAP	23	288	6
TAP	23	336	6
TTP	24	0	5	E	0	M1
TTP	24	12	4	E	0	M1
TTP	24	24	3	E	0	M1
TTP	25	0	0	B	0	M1
TTP	25	0	0	E	0	M1
TTP	25	0	4	B	0	M1
TTP	25	0	4	E	0	M1
TTP	25	96	0	C	1	M1
TTP	25	96	2	B	0	M1
TTP	25	96	2	E	0	M1
TTP	25	96	6	B	0	M1
TTP	25	96	6	E	0	M1
TAP	26	0	0
TAP	26	0	1
TAP	26	72	6
TAP	26	72	7
TAP	26	144	3
TAP	26	144	4
STR	26	192	3
SI_	26	192	3	96	48	0
STR	26	192	4
SI_	26	192	4	96	48	7
STR	27	0	1
SLR	27	0	1	96	96	7
XTP	27	0	6
XST	27	72	6
SI_	27	72	6	96	24	4
XTP	27	144	6
TAP	27	240	0
TAP	27	288	1
TAP	27	336	2
STR	28	0	3
SLL	28	0	3	96	96	5
XTP	28	0	6
XST	28	72	6
SI_	28	72	6	96	24	0
XTP	28	144	6
TAP	28	240	4
TAP	28	288	3
TAP	28	336	2
TAP	29	0	0
TAP	29	0	1
TAP	29	48	7
TAP	29	96	5
TAP	29	96	6
TAP	29	144	4
TAP	29	192	2
TAP	29	192	3
TAP	29	240	1
TAP	29	288	0
STR	29	288	7
SCR	29	288	7	96	96	6
TAP	29	336	6
HLD	30	0	5	144
TTP	30	144	0	B	0	M1
TTP	30	144	0	C	1	M1
TTP	30	144	1	B	0	M1
TAP	31	0	3
TAP	31	0	5
TAP	31	48	2
TAP	31	48	4
HLD	31	96	1	48
TAP	31	144	0
XTP	31	168	2
XTP	31	168	7
TAP	31	240	3
TAP	31	240	5
HLD	31	288	6	48
TAP	31	336	7
XTP	31	360	0
XTP	31	360	5
TAP	32	48	2
TAP	32	48	4
HLD	32	96	0	48
TAP	32	144	7
XTP	32	168	1
XTP	32	168	6
TAP	32	240	1
TAP	32	240	3
TAP	32	288	2
TAP	32	288	4
TAP	32	336	3
TAP	32	336	5
TAP	33	0	4
STR	33	0	6
SCR	33	0	6	96	48	1
STR	33	96	2
SI_	33	96	2	96	48	6
STR	33	192	5
SCL	33	192	5	96	48	2
TAP	33	288	1
TAP	34	0	4
TAP	34	0	6
TAP	34	72	1
TAP	34	72	3
BST	34	144	0
SCR	34	144	0	96	48	3
BRK	34	144	7
XTP	34	240	6
XTP	34	264	5
XTP	34	288	4
XTP	35	0	1
STR	35	0	6
SLL	35	0	6	96	96	0
XST	35	72	1
SI_	35	72	1	96	24	3
XTP	35	144	1
TAP	35	240	7
TAP	35	288	6
TAP	35	336	5
XTP	36	0	1
STR	36	0	4
SLR	36	0	4	96	96	2
XST	36	72	1
SI_	36	72	1	96	24	7
XTP	36	144	1
TAP	36	240	3
TAP	36	288	4
TAP	36	336	5
TAP	37	0	6
TAP	37	0	7
TAP	37	48	0
TAP	37	96	1
TAP	37	96	2
TAP	37	144	3
TAP	37	192	4
TAP	37	192	5
TAP	37	240	6
TAP	37	288	0
TAP	37	288	7
TAP	37	336	1
TAP	37	336	6
TAP	38	0	2
TAP	38	0	5
STR	38	72	0
SCL	38	72	0	96	48	5
STR	38	72	7
SCR	38	72	7	96	48	2
BRK	38	144	0
BRK	38	144	7
TAP	38	240	3
TAP	38	240	4
TAP	38	288	2
TAP	38	288	5
TAP	38	336	1
TAP	38	336	6
STR	39	0	0
SI_	39	0	0	96	48	4
TAP	39	0	7
XTP	39	96	0
STR	39	96	5
SCR	39	96	5	96	48	0
STR	39	192	2
SCR	39	192	2	96	48	5
XTP	39	192	5
XTP	39	288	2
STR	39	288	7
SI_	39	288	7	96	48	3
STR	40	0	2
SCL	40	0	2	96	48	7
XTP	40	0	7
XTP	40	96	2
STR	40	96	5
SCL	40	96	5	96	48	2
STR	40	192	0
SF_	40	192	0	96	48	4
XTP	40	192	5
XTP	40	288	0
HLD	41	0	6	72
HLD	41	72	5	72
TAP	41	144	4
HLD	41	192	1	72
HLD	41	264	2	72
TAP	41	336	3
STR	42	0	3
SI_	42	0	3	96	48	0
XTP	42	0	4
XTP	42	96	3
STR	42	96	4
SI_	42	96	4	96	48	7
STR	42	192	3
SI_	42	192	3	96	48	0
XTP	42	192	4
XTP	42	288	3
TAP	42	288	4
HLD	43	0	1	48
HLD	43	0	6	48
TAP	43	72	1
TAP	43	72	6
TAP	43	120	2
TAP	43	120	5
STR	43	168	3
SCL	43	168	3	96	48	0
STR	43	168	4
SCR	43	168	4	96	48	7
HLD	44	0	1	192
TAP	44	0	6
TAP	44	192	3
TAP	44	256	3
TAP	44	288	2
TAP	44	352	2
HLD	45	0	4	96
HLD	45	96	3	96
TAP	45	192	5
TAP	45	256	5
HLD	45	288	4	96
HLD	46	0	6	96
HLD	46	96	5	96
TAP	46	192	4
TAP	46	256	4
TAP	46	288	3
TAP	46	352	3
HLD	47	0	5	96
HLD	47	96	4	96
HLD	47	192	3	96
HLD	47	288	2	96
XHO	48	0	6	96
HLD	48	96	4	96
TAP	48	192	3
TAP	48	256	3
TAP	48	288	1
HLD	48	352	1	128
HLD	49	96	7	96
HLD	49	192	5	96
HLD	49	288	3	96
XTP	50	0	4
TTP	50	96	1	E	0	M1
TTP	50	128	2	E	0	M1
TTP	50	160	3	E	0	M1
TTP	50	192	7	E	0	M1
TTP	50	224	6	E	0	M1
TTP	50	256	5	E	0	M1
TTP	50	288	0	C	0	M1
XTP	50	336	3
XTP	50	336	4
TAP	51	48	2
TAP	51	48	5
TAP	51	96	2
TAP	51	96	5
TAP	51	144	2
TAP	51	144	5
TAP	51	192	3
TAP	51	216	4
TAP	51	264	4
BRK	51	288	3
TAP	52	0	2
TAP	52	48	3
TAP	52	96	4
TAP	52	144	5
STR	52	192	6
SCL	52	192	6	96	48	3
HLD	52	192	7	72
TAP	52	336	2
HLD	53	0	0	72
STR	53	0	1
SCR	53	0	1	96	48	4
TAP	53	144	5
TAP	53	192	6
TAP	53	192	7
TAP	53	264	1
TAP	53	264	2
TAP	53	336	4
TAP	53	336	5
TAP	54	0	3
TAP	54	48	2
TAP	54	96	3
TAP	54	144	1
TAP	54	144	4
TAP	54	192	5
TAP	54	240	4
TAP	54	288	5
TAP	54	336	3
TAP	54	336	6
TAP	55	0	2
TAP	55	48	1
TAP	55	96	0
TAP	55	144	7
HLD	55	192	1	72
STR	55	192	6
SI_	55	192	6	96	48	2
TAP	56	0	1
TAP	56	0	3
TAP	56	48	2
TAP	56	96	3
TAP	56	144	5
TAP	56	168	5
TAP	56	192	4
TAP	56	240	6
TAP	56	288	5
TAP	56	336	2
TAP	56	360	2
TAP	57	0	3
TAP	57	48	1
STR	57	96	2
SCL	57	96	2	96	96	5
TAP	57	144	5
TAP	57	168	5
HLD	57	336	7	96
TAP	58	48	0
TAP	58	96	1
TAP	58	144	2
TAP	58	192	3
TAP	58	240	4
TAP	58	288	5
TAP	58	336	6
TAP	59	0	0
TAP	59	0	7
TAP	59	48	0
TAP	59	48	7
TAP	59	96	0
TAP	59	96	7
TAP	59	144	1
TAP	59	144	6
STR	59	168	1
SI_	59	168	1	96	48	4
STR	59	168	6
SI_	59	168	6	96	48	3
HLD	60	0	2	72
STR	60	72	3
SUL	60	72	3	96	96	5
HLD	60	144	4	144
HLD	61	0	5	72
STR	61	72	4
SUR	61	72	4	96	96	2
HLD	61	144	3	144
HLD	62	0	2	72
STR	62	72	3
SCL	62	72	3	96	144	5
HLD	62	144	4	144
HLD	63	0	5	72
STR	63	72	4
SCR	63	72	4	96	144	2
HLD	63	144	3	144
TTP	64	0	3	B	0	M1
TTP	64	12	0	C	0	M1
TTP	64	24	7	B	0	M1
TTP	65	0	0	B	0	M1
TTP	65	12	0	C	0	M1
TTP	65	24	4	B	0	M1
TAP	65	288	3
TAP	65	288	5
TAP	65	336	2
TAP	65	336	4
TAP	66	0	1
TAP	66	48	1
TAP	66	72	4
TAP	66	120	4
TAP	66	144	3
TAP	66	192	3
TAP	66	216	6
TAP	66	264	6
TAP	66	288	0
XTP	66	336	0
XTP	66	336	7
XST	67	0	0
SXL	67	0	0	96	192	3
XST	67	0	7
SXR	67	0	7	96	192	4
BRK	67	96	0
BRK	67	96	7
TAP	68	0	3
TAP	68	0	4
TAP	68	72	2
TAP	68	72	5
TAP	68	144	1
TAP	68	144	6
TTP	68	192	1	E	0	M1
TTP	68	224	2	E	0	M1
TTP	68	256	3	E	0	M1
TTP	68	288	7	E	0	M1
TTP	68	320	6	E	0	M1
TTP	68	352	5	E	0	M1
THO	69	0	0	384	C	0	M1
HLD	71	0	7	288
TAP	71	288	0
TAP	71	312	7
TAP	71	336	0
TAP	71	360	7
XTP	72	0	1
XTP	72	0	6
TAP	72	48	2
XTP	72	72	1
XTP	72	72	3
TAP	72	120	5
XTP	72	144	4
XTP	72	144	6
TAP	72	192	7
TAP	72	240	0
TAP	72	240	7
TAP	72	288	1
TAP	72	288	6
TAP	72	336	2
TAP	72	336	5
TAP	73	0	3
XTP	73	0	4
TAP	73	48	1
XTP	73	96	3
TAP	73	96	4
TAP	73	144	6
TAP	73	192	4
XTP	73	192	5
TAP	73	240	0
XTP	73	288	2
TAP	73	288	3
TAP	73	336	7
XTP	74	0	4
XTP	74	0	6
XTP	74	48	0
XTP	74	48	7
XTP	74	96	1
XTP	74	96	3
TAP	74	144	5
XTP	74	168	4
XTP	74	168	6
TAP	74	216	2
XTP	74	240	1
XTP	74	240	3
BRK	74	288	0
BRK	74	288	7
TAP	75	0	2
TAP	75	0	4
TAP	75	48	3
TAP	75	48	5
HLD	75	96	6	48
TAP	75	144	7
XTP	75	168	0
XTP	75	168	5
TAP	75	240	2
TAP	75	240	4
HLD	75	288	1	48
TAP	75	336	0
XTP	75	360	2
XTP	75	360	7
TAP	76	48	3
TAP	76	48	5
HLD	76	96	7	48
TAP	76	144	0
XTP	76	168	1
XTP	76	168	6
TAP	76	240	4
TAP	76	240	6
TAP	76	288	3
TAP	76	288	5
TAP	76	336	2
TAP	76	336	4
XTP	77	0	1
STR	77	0	3
SI_	77	0	3	96	48	7
STR	77	96	0
SI_	77	96	0	96	48	4
XTP	77	96	3
XTP	77	192	0
STR	77	192	6
SCR	77	192	6	96	48	1
XTP	77	288	2
XTP	77	288	6
TAP	78	0	1
XTP	78	0	3
XTP	78	72	4
TAP	78	72	6
BRK	78	144	0
BST	78	144	7
SCL	78	144	7	96	48	4
XTP	78	240	1
XTP	78	264	2
XTP	78	288	3
XTP	79	0	0
XTP	79	0	7
TAP	79	48	5
XTP	79	72	4
XTP	79	72	6
TAP	79	120	2
XTP	79	144	1
XTP	79	144	3
TAP	79	192	0
TAP	79	192	7
TAP	79	240	0
TAP	79	264	7
TAP	79	288	0
TAP	79	336	1
TAP	79	336	6
XTP	80	0	3
XTP	80	0	4
TAP	80	48	6
XTP	80	72	5
XTP	80	72	7
TAP	80	120	1
XTP	80	144	0
XTP	80	144	2
TAP	80	192	3
TAP	80	192	4
TAP	80	240	2
TAP	80	240	5
TAP	80	288	1
TAP	80	288	6
TAP	80	336	0
TAP	80	336	7
XST	81	0	1
SI_	81	0	1	96	48	5
TAP	81	48	1
XST	81	96	0
SI_	81	96	0	96	48	4
TAP	81	144	0
XST	81	192	7
SI_	81	192	7	96	48	3
TAP	81	240	7
XST	81	288	6
SI_	81	288	6	96	48	2
TAP	81	336	6
TTP	82	0	0	B	0	M1
TTP	82	0	1	B	0	M1
TTP	82	0	1	E	0	M1
TTP	82	72	4	B	0	M1
TTP	82	72	5	B	0	M1
TTP	82	72	5	E	0	M1
BRK	82	144	3
BRK	82	144	7
TAP	82	240	2
TAP	82	240	3
TAP	82	288	1
TAP	82	288	4
TAP	82	336	0
TAP	82	336	5
STR	83	0	6
SI_	83	0	6	96	48	2
TAP	83	0	7
STR	83	96	0
SCR	83	96	0	96	48	3
XTP	83	96	6
XTP	83	192	0
STR	83	192	5
SCR	83	192	5	96	48	0
STR	83	288	1
SI_	83	288	1	96	48	5
XTP	83	288	5
XTP	84	0	1
STR	84	0	7
SCL	84	0	7	96	48	4
STR	84	96	2
SCL	84	96	2	96	48	7
XTP	84	96	7
XTP	84	192	2
STR	84	192	4
SF_	84	192	4	96	48	0
XTP	84	288	4
HLD	85	0	1	72
HLD	85	72	2	72
TAP	85	144	3
HLD	85	192	6	72
HLD	85	264	5	72
TAP	85	336	4
XTP	86	0	3
STR	86	0	4
SCR	86	0	4	96	48	7
STR	86	96	3
SCL	86	96	3	96	48	0
XTP	86	96	4
XTP	86	192	3
STR	86	192	4
SI_	86	192	4	96	48	0
TAP	86	288	3
XTP	86	288	4
HLD	87	0	2	48
HLD	87	0	7	48
TAP	87	72	2
TAP	87	72	7
TAP	87	120	3
TAP	87	120	6
TAP	87	168	4
TAP	87	168	5
TAP	87	216	5
TAP	87	240	4
TAP	87	264	5
TAP	87	288	4
TAP	87	336	2
TAP	87	336	7
HLD	88	0	0	48
HLD	88	0	5	48
TAP	88	72	0
TAP	88	72	5
TAP	88	120	1
TAP	88	120	4
TAP	88	168	2
TAP	88	168	3
TAP	88	216	2
TAP	88	240	3
TAP	88	264	2
TAP	88	288	3
TAP	88	336	0
STR	88	336	5
SCR	88	336	5	96	240	2
BRK	89	0	0
TAP	89	96	1
TAP	89	192	2
TAP	89	288	3
TAP	89	336	3
HLD	89	360	5	72
TAP	90	48	7
TAP	90	96	4
STR	90	144	4
SI_	90	144	4	96	48	0
HLD	90	168	2	72
TTP	91	0	1	B	0	M1
TTP	91	0	2	E	0	M1
TAP	91	0	4
TAP	91	96	2
TTP	91	96	5	B	0	M1
TTP	91	96	6	E	0	M1
TTP	91	192	2	B	0	M1
TTP	91	192	2	E	0	M1
TAP	91	192	6
TAP	91	288	0
TTP	91	288	7	B	0	M1
TTP	91	288	7	E	0	M1
XHO	91	360	1	72
XTP	91	360	3
TAP	92	48	0
TAP	92	96	6
TAP	92	96	7
TAP	92	144	0
TAP	92	144	4
BRK	92	168	0
BRK	92	168	4
TAP	92	288	2
TAP	92	336	2
HLD	92	360	3	72
TAP	93	48	1
TAP	93	96	5
TAP	93	144	5
HLD	93	168	4	72
TAP	93	240	6
TAP	93	288	1
TAP	93	336	1
HLD	93	360	0	72
TAP	94	48	2
TAP	94	96	6
STR	94	144	6
SI_	94	144	6	96	48	2
HLD	94	168	7	72
XTP	94	336	3
XTP	94	336	7
XTP	94	360	0
XTP	94	360	4
BRK	95	0	1
BRK	95	0	5
XHO	95	216	2	48
TAP	95	264	3
TAP	95	288	2
XTP	95	360	1
XTP	95	360	4
XTP	96	48	3
XTP	96	48	6
XHO	96	96	5	48
TAP	96	144	4
TAP	96	168	5
XTP	96	216	0
XTP	96	240	0
TAP	96	264	7
XST	96	288	0
SCR	96	288	0	96	240	7
TTP	97	0	0	C	1	M1
TAP	97	288	4
TAP	97	312	4
TAP	97	336	3
TAP	97	360	5

T_REC_TAP	406
T_REC_BRK	21
T_REC_XTP	126
T_REC_HLD	74
T_REC_XHO	8
T_REC_STR	62
T_REC_BST	2
T_REC_XST	11
T_REC_TTP	57
T_REC_THO	1
T_REC_SLD	75
T_REC_ALL	843
T_NUM_TAP	662
T_NUM_BRK	23
T_NUM_HLD	83
T_NUM_SLD	75
T_NUM_ALL	843
T_JUDGE_TAP	685
T_JUDGE_HLD	176
T_JUDGE_SLD	75
T_JUDGE_ALL	936
TTM_EACHPAIRS	179
TTM_SCR_TAP	331000
TTM_SCR_BRK	59800
TTM_SCR_HLD	83000
TTM_SCR_SLD	112500
TTM_SCR_ALL	586300
TTM_SCR_S	566500
TTM_SCR_SS	584000
TTM_RAT_ACV	10039

