VERSION	0.00.00	1.03.00
FES_MODE	0
BPM_DEF	155.000	155.000	155.000	155.000
MET_DEF	4	4
RESOLUTION	384
CLK_DEF	384
COMPATIBLE_CODE	MA2

BPM	0	0	155.000
MET	0	0	4	4

XTP	1	288	3
XTP	1	288	4
TAP	2	0	2
TAP	2	96	1
TAP	2	96	3
TAP	2	192	4
TAP	2	240	4
TAP	2	288	3
TAP	2	288	5
TAP	3	0	2
TAP	3	96	1
TAP	3	96	3
STR	3	192	4
SI_	3	192	4	96	96	7
HLD	4	0	1	96
HLD	4	96	3	96
HLD	4	192	4	96
TAP	4	288	6
XST	5	0	6
SI_	5	0	6	96	96	2
TAP	5	288	1
TAP	6	0	3
TAP	6	96	4
TAP	6	96	6
TAP	6	192	3
TAP	6	240	3
TAP	6	288	2
TAP	6	288	4
TAP	7	0	5
TAP	7	96	4
TAP	7	96	6
TAP	7	192	3
TAP	7	240	3
TAP	7	288	2
TAP	7	288	4
BRK	8	0	0
XHO	8	360	5	168
XTP	9	144	3
TAP	9	288	2
TAP	9	288	4
HLD	10	0	1	384
TAP	10	96	3
TAP	10	192	4
TAP	10	240	4
TAP	10	288	3
STR	11	0	4
SI_	11	0	4	96	96	7
TAP	11	48	4
STR	11	192	2
SI_	11	192	2	96	96	5
TAP	11	240	2
HLD	12	0	7	192
TAP	12	192	4
TAP	12	288	3
TAP	13	0	2
TAP	13	0	4
TAP	13	96	1
TAP	13	96	3
TAP	13	192	0
TAP	13	192	4
TAP	13	240	0
TAP	13	240	4
HLD	14	0	6	288
TAP	14	96	4
TAP	14	192	3
TAP	14	240	3
TAP	14	288	4
TAP	15	0	2
TAP	15	48	2
TAP	15	96	3
TAP	15	192	5
TAP	15	240	5
TAP	15	288	4
TAP	16	0	3
TAP	16	0	6
TAP	16	96	3
TAP	16	96	6
TAP	16	192	2
TAP	16	192	5
STR	16	288	1
SUR	16	288	1	96	192	2
TAP	16	288	4
TAP	17	288	7
STR	18	0	7
SI_	18	0	7	96	96	3
TAP	18	288	1
STR	19	0	0
SI_	19	0	0	96	96	4
TAP	19	288	6
STR	20	0	7
SUL	20	0	7	96	96	3
TAP	20	288	1
STR	21	0	0
SCL	21	0	0	96	192	3
TAP	21	336	7
HLD	22	0	7	96
TAP	22	96	0
TAP	22	192	2
TAP	22	240	2
TAP	22	288	3
TAP	23	0	5
TAP	23	48	5
TAP	23	96	4
TAP	23	144	4
TAP	23	192	3
HLD	23	288	2	480
THO	24	0	0	480	C	1	M1
TAP	25	288	1
TAP	25	288	6
XTP	26	0	1
XTP	26	0	6
XTP	26	72	2
XTP	26	72	5
XTP	26	144	3
XTP	26	144	4
BRK	26	192	3
BRK	26	192	4
HLD	27	0	0	48
HLD	27	0	6	48
HLD	27	72	1	48
HLD	27	72	7	48
TAP	27	144	0
TAP	27	144	6
TAP	27	240	2
TAP	27	288	1
TAP	27	288	3
HLD	28	0	2	48
HLD	28	0	4	48
HLD	28	72	3	48
HLD	28	72	5	48
TAP	28	144	2
TAP	28	144	4
TAP	28	240	5
TAP	28	288	4
TAP	28	288	6
STR	29	0	2
SCR	29	0	2	96	96	5
TAP	29	48	2
STR	29	192	6
SCR	29	192	6	96	96	1
TAP	29	240	6
TAP	30	0	2
HLD	30	48	2	96
XTP	30	144	7
TAP	30	240	5
TAP	30	288	3
TAP	30	288	5
TAP	31	0	2
TAP	31	0	4
TAP	31	96	2
XTP	31	168	1
XTP	31	168	3
TAP	31	288	5
XTP	31	360	4
XTP	31	360	6
TAP	32	96	2
XTP	32	168	1
XTP	32	168	3
TAP	32	288	5
HLD	33	0	7	96
HLD	33	96	5	96
HLD	33	192	4	96
TAP	33	288	3
XTP	34	0	0
XTP	34	0	7
XTP	34	72	1
XTP	34	72	6
XTP	34	144	2
XTP	34	144	5
BRK	34	288	7
HLD	35	0	1	48
HLD	35	0	7	48
HLD	35	72	0	48
HLD	35	72	6	48
TAP	35	144	1
TAP	35	144	7
TAP	35	240	5
TAP	35	288	4
TAP	35	288	6
HLD	36	0	3	48
HLD	36	0	5	48
HLD	36	72	2	48
HLD	36	72	4	48
TAP	36	144	3
TAP	36	144	5
TAP	36	240	2
TAP	36	288	1
TAP	36	288	3
STR	37	0	5
SCL	37	0	5	96	96	2
TAP	37	48	5
STR	37	192	1
SCL	37	192	1	96	96	6
TAP	37	240	1
XTP	38	0	5
XTP	38	72	4
XTP	38	72	6
XTP	38	144	3
XTP	38	144	7
TAP	38	240	0
TAP	38	240	1
TAP	38	288	2
TAP	38	288	7
HLD	39	0	6	192
TAP	39	96	4
HLD	39	192	1	192
TAP	39	288	3
HLD	40	0	5	192
TAP	40	96	7
HLD	40	192	2	192
TAP	40	288	0
HLD	41	0	7	96
HLD	41	96	5	96
TAP	41	192	4
TAP	41	288	3
TAP	41	288	4
HLD	42	0	2	384
TAP	42	96	5
TAP	42	192	5
TAP	42	288	3
TAP	43	0	4
XTP	43	72	3
XTP	43	72	5
XTP	43	120	3
XTP	43	120	5
XTP	43	168	3
XTP	43	168	5
TAP	43	240	2
TAP	43	240	4
STR	43	288	2
SUR	43	288	2	96	288	4
TAP	43	288	4
TTP	45	0	5	B	0	M1
TTP	45	96	7	E	0	M1
TTP	45	192	2	B	0	M1
TTP	45	288	1	E	0	M1
TAP	46	0	7
TAP	46	96	6
TAP	46	192	5
TAP	46	288	4
TAP	47	0	3
TAP	47	96	2
TAP	47	96	4
HLD	47	192	1	96
HLD	47	192	5	96
TTP	48	0	5	E	0	M1
TTP	48	96	6	B	0	M1
TTP	48	192	3	E	0	M1
TTP	48	288	1	B	0	M1
TAP	49	0	4
TAP	49	96	3
TAP	49	192	2
TAP	49	288	1
STR	50	0	0
SCR	50	0	0	96	96	3
TAP	50	288	5
XHO	50	336	5	240
TAP	51	48	4
TAP	51	96	4
TAP	51	144	3
TAP	51	192	2
BRK	51	288	0
TAP	52	0	5
TAP	52	48	4
TAP	52	96	3
HLD	52	192	1	72
HLD	52	264	2	72
TAP	52	336	3
HLD	53	0	6	72
HLD	53	72	5	72
TAP	53	144	4
HLD	53	192	3	72
HLD	53	264	2	72
TAP	53	336	1
TAP	54	48	0
TAP	54	96	0
TAP	54	192	0
TAP	54	192	1
TAP	54	288	2
TAP	54	288	3
TAP	55	0	4
TAP	55	0	5
TAP	55	96	6
TAP	55	96	7
STR	55	192	0
SI_	55	192	0	96	96	4
TAP	56	0	5
TAP	56	48	5
TAP	56	96	3
TAP	56	144	3
TAP	56	192	4
TAP	56	240	4
HLD	56	288	2	96
STR	57	0	3
SLL	57	0	3	96	144	5
TAP	57	48	3
XHO	57	336	0	96
TAP	58	48	7
TAP	58	96	7
XTP	58	192	4
XTP	58	192	6
XTP	58	264	3
XTP	58	264	5
XTP	58	336	2
XTP	58	336	4
STR	59	0	2
SI_	59	0	2	96	96	6
STR	59	0	4
SI_	59	0	4	96	96	0
TAP	59	336	7
STR	60	0	7
SCL	60	0	7	96	96	4
TAP	60	288	1
STR	61	0	0
SCR	61	0	0	96	96	3
TAP	61	288	5
STR	62	0	4
SCR	62	0	4	96	96	7
TAP	62	288	1
STR	63	0	0
SSL	63	0	0	96	192	4
HLD	64	0	6	384
HLD	65	0	4	288
TAP	65	288	3
TAP	66	0	2
TAP	66	0	5
TAP	66	96	1
TAP	66	144	1
TAP	66	192	3
TAP	66	288	6
TAP	66	336	6
TAP	67	0	4
TTP	67	96	0	C	1	M1
TTP	67	96	2	B	0	M1
TTP	67	96	5	B	0	M1
XTP	68	0	7
XTP	68	72	7
XTP	68	144	7
HLD	68	192	0	96
STR	68	288	2
SCL	68	288	2	96	288	3
TTP	70	192	0	C	0	M1
BRK	71	0	0
TAP	71	288	3
TAP	71	288	4
HLD	72	0	2	48
HLD	72	0	7	48
HLD	72	72	0	48
HLD	72	72	5	48
XTP	72	144	2
XTP	72	144	7
TAP	72	240	4
TAP	72	288	3
TAP	72	288	5
STR	73	0	2
SCR	73	0	2	96	96	5
TAP	73	48	2
STR	73	192	6
SCR	73	192	6	96	96	1
TAP	73	240	6
TAP	74	0	2
HLD	74	48	2	96
XTP	74	144	7
TAP	74	240	5
TAP	74	288	3
TAP	74	288	5
TAP	75	0	2
TAP	75	0	4
TAP	75	96	2
XTP	75	168	1
XTP	75	168	3
TAP	75	288	5
XTP	75	360	4
XTP	75	360	6
TAP	76	96	2
XTP	76	168	1
XTP	76	168	3
TAP	76	288	5
HLD	77	0	7	96
HLD	77	96	5	96
HLD	77	192	4	96
TAP	77	288	3
XTP	78	0	2
XTP	78	0	5
XTP	78	72	3
XTP	78	72	4
XTP	78	144	1
XTP	78	144	6
XTP	78	288	0
HLD	79	0	2	48
HLD	79	0	7	48
HLD	79	72	0	48
HLD	79	72	5	48
XTP	79	144	2
XTP	79	144	7
TAP	79	240	4
TAP	79	288	3
TAP	79	288	5
HLD	80	0	1	48
HLD	80	0	4	48
HLD	80	72	3	48
HLD	80	72	6	48
XTP	80	144	1
XTP	80	144	4
TAP	80	240	3
TAP	80	288	2
TAP	80	288	4
STR	81	0	5
SCL	81	0	5	96	96	2
TAP	81	48	5
STR	81	192	1
SCL	81	192	1	96	96	6
TAP	81	240	1
XTP	82	0	5
XTP	82	72	4
XTP	82	72	6
XTP	82	144	3
XTP	82	144	7
TAP	82	240	0
TAP	82	240	1
TAP	82	288	2
TAP	82	288	7
HLD	83	0	6	192
TAP	83	96	4
HLD	83	192	1	192
TAP	83	288	3
HLD	84	0	5	192
TAP	84	96	7
HLD	84	192	2	192
TAP	84	288	0
HLD	85	0	7	96
HLD	85	96	5	96
TAP	85	192	4
TAP	85	288	3
TAP	85	288	4
HLD	86	0	2	384
TAP	86	96	5
TAP	86	192	5
TAP	86	288	3
TAP	87	0	4
XTP	87	72	3
XTP	87	72	5
XTP	87	120	3
XTP	87	120	5
XTP	87	168	3
XTP	87	168	5
TAP	87	240	2
TAP	87	240	4
TAP	87	288	2
TAP	87	288	4
TAP	88	0	2
TAP	88	0	4
XTP	88	72	3
XTP	88	72	5
XTP	88	120	3
XTP	88	120	5
XTP	88	168	3
XTP	88	168	5
TAP	88	240	2
TAP	88	240	4
STR	88	288	2
SCL	88	288	2	96	288	5
TAP	88	288	4
TTP	89	0	0	C	1	M1
TAP	90	0	5
TAP	90	96	4
TAP	90	96	6
STR	90	192	3
SCL	90	192	3	96	96	0
HLD	91	0	6	96
HLD	91	96	4	96
HLD	91	192	3	96
TAP	91	288	1
XST	92	0	1
SI_	92	0	1	96	96	5
TAP	92	288	6
TAP	92	336	6
TAP	93	0	4
TAP	93	96	1
TAP	93	96	3
TAP	93	192	4
TAP	93	240	4
TAP	93	288	3
TAP	93	288	5
TAP	94	0	2
TAP	94	96	1
TAP	94	96	3
TAP	94	192	4
TAP	94	240	4
TAP	94	288	3
TAP	94	288	5
BRK	95	0	7
XHO	95	360	2	168
XHO	95	360	5	168
TAP	96	192	3
TAP	96	240	3
STR	96	288	6
SCL	96	288	6	96	144	2
TTP	97	0	0	C	1	M1
STR	97	288	0
SI_	97	288	0	96	48	4

T_REC_TAP	256
T_REC_BRK	7
T_REC_XTP	79
T_REC_HLD	73
T_REC_XHO	5
T_REC_STR	31
T_REC_BST	0
T_REC_XST	2
T_REC_TTP	14
T_REC_THO	1
T_REC_SLD	33
T_REC_ALL	501
T_NUM_TAP	382
T_NUM_BRK	7
T_NUM_HLD	79
T_NUM_SLD	33
T_NUM_ALL	501
T_JUDGE_TAP	389
T_JUDGE_HLD	205
T_JUDGE_SLD	33
T_JUDGE_ALL	627
TTM_EACHPAIRS	110
TTM_SCR_TAP	191000
TTM_SCR_BRK	18200
TTM_SCR_HLD	79000
TTM_SCR_SLD	49500
TTM_SCR_ALL	337700
TTM_SCR_S	326900
TTM_SCR_SS	337000
TTM_RAT_ACV	10020

