VERSION	0.00.00	1.03.00
FES_MODE	0
BPM_DEF	155.000	155.000	155.000	155.000
MET_DEF	4	4
RESOLUTION	384
CLK_DEF	384
COMPATIBLE_CODE	MA2

BPM	0	0	155.000
MET	0	0	4	4

XTP	2	0	2
TAP	2	96	2
TAP	2	192	2
TAP	2	192	3
TAP	3	0	5
TAP	3	96	5
TAP	3	192	4
TAP	3	192	5
TAP	4	0	2
TAP	4	96	2
TAP	4	192	3
TAP	4	288	3
TAP	5	0	4
TAP	5	96	4
XTP	5	192	3
XTP	5	192	5
TAP	6	0	6
TAP	6	96	6
TAP	6	192	6
TAP	6	192	7
TAP	7	0	1
TAP	7	96	1
TAP	7	192	0
TAP	7	192	1
STR	8	0	0
SXL	8	0	0	96	480	3
STR	8	0	7
SXR	8	0	7	96	480	4
HLD	10	0	5	192
TAP	10	192	4
HLD	11	0	2	192
TAP	11	192	3
HLD	12	0	5	192
TAP	12	192	4
TAP	13	0	3
TAP	13	96	3
TAP	13	192	2
TAP	13	192	4
HLD	14	0	1	192
TAP	14	192	0
HLD	15	0	6	192
TAP	15	192	7
TAP	16	0	1
TAP	16	96	1
TAP	16	192	0
TAP	16	288	0
TAP	17	0	7
TAP	17	96	7
XTP	17	192	0
XTP	17	192	6
TTP	18	0	6	B	0	L1
TTP	18	0	7	B	0	L1
TTP	19	0	4	B	0	L1
TTP	19	0	5	B	0	L1
TTP	20	0	2	B	0	L1
TTP	20	0	3	B	0	L1
TTP	21	0	0	B	0	L1
TTP	21	0	1	B	0	L1
HLD	22	0	2	192
HLD	22	192	3	192
HLD	23	0	4	192
XTP	23	192	5
STR	24	0	6
SI_	24	0	6	96	144	2
STR	25	0	1
SI_	25	0	1	96	144	5
TAP	26	0	7
TAP	26	96	1
TAP	26	96	6
XTP	26	192	0
XTP	26	192	7
BST	27	0	6
SI_	27	0	6	96	144	2
BST	27	0	7
SI_	27	0	7	96	144	3
STR	28	0	0
SI_	28	0	0	96	144	4
STR	28	0	1
SI_	28	0	1	96	144	5
TAP	29	0	6
TAP	29	96	6
TAP	29	192	6
TAP	29	192	7
TAP	29	288	6
TAP	29	288	7
TAP	30	0	5
TAP	30	96	4
TAP	30	192	3
TAP	30	192	5
HLD	31	0	2	96
TAP	31	96	3
TAP	31	192	3
HLD	32	0	5	96
TAP	32	96	4
TAP	32	192	4
TAP	33	0	3
TAP	33	96	3
TAP	33	192	4
TAP	33	288	4
XTP	34	0	3
XTP	34	0	4
XTP	34	96	3
XTP	34	96	4
XTP	34	192	2
XTP	34	192	5
BST	35	0	0
SI_	35	0	0	96	144	4
BST	35	0	1
SI_	35	0	1	96	144	5
STR	36	0	6
SI_	36	0	6	96	144	2
STR	36	0	7
SI_	36	0	7	96	144	3
TAP	37	0	1
TAP	37	96	1
TAP	37	192	0
TAP	37	192	1
TAP	37	288	0
TAP	37	288	1
TAP	38	0	2
TAP	38	96	3
TAP	38	192	2
TAP	38	192	4
TAP	39	0	5
TAP	39	96	5
TAP	39	192	6
TAP	39	288	6
TAP	40	0	7
TAP	40	96	7
TAP	40	192	0
TAP	40	288	0
TAP	41	0	1
TAP	41	96	1
TAP	41	192	2
TAP	41	288	2
HLD	42	0	3	288
HLD	42	0	4	288
XTP	43	0	2
XTP	43	0	5
XTP	43	96	2
XTP	43	96	5
XTP	43	192	1
XTP	43	192	6
XTP	43	288	1
XTP	43	288	6
BST	44	0	0
SXL	44	0	0	96	480	3
BST	44	0	7
SXR	44	0	7	96	480	4
STR	46	0	6
SSR	46	0	6	96	336	2
TAP	47	192	1
STR	48	0	0
SSL	48	0	0	96	336	4
TAP	49	192	5
STR	50	0	6
SCL	50	0	6	96	192	2
XTP	51	0	1
TAP	51	96	0
TAP	51	192	0
TAP	51	192	7
BRK	51	288	1
BRK	51	288	6
HLD	52	0	2	96
TAP	52	96	3
TAP	52	192	3
HLD	53	0	5	96
TAP	53	96	4
TAP	53	192	4
HLD	54	0	2	96
TAP	54	96	3
TAP	54	192	3
HLD	55	0	4	96
HLD	55	0	5	96
TAP	55	192	4
TAP	55	192	5
TAP	56	0	6
TAP	56	96	6
TAP	56	192	7
TAP	57	0	1
TAP	57	96	1
TAP	57	192	0
TAP	58	0	7
TAP	58	96	7
TAP	58	192	0
TAP	58	288	0
TAP	59	0	1
TAP	59	0	6
TTP	60	0	4	B	0	L1
TTP	60	0	5	B	0	L1
TTP	61	0	6	B	0	L1
TTP	61	0	7	B	0	L1
TTP	62	0	0	B	0	L1
TTP	62	0	1	B	0	L1
TTP	63	0	2	B	0	L1
TTP	63	0	3	B	0	L1
STR	64	0	5
SCR	64	0	5	96	144	0
STR	65	0	1
SCR	65	0	1	96	144	4
TAP	66	0	5
TAP	66	96	5
TAP	66	192	4
TAP	66	192	5
TAP	67	0	2
TAP	67	0	3
HLD	67	96	2	96
HLD	67	96	3	96
TAP	68	0	3
TAP	68	96	3
TAP	68	192	4
TAP	68	288	4
STR	69	0	3
SCL	69	0	3	96	192	0
STR	69	0	4
SCR	69	0	4	96	192	7
HLD	71	0	6	192
HLD	71	0	7	192
TAP	72	0	0
TAP	72	0	1
TAP	72	96	0
TAP	72	96	1
TAP	72	192	2
TAP	72	192	7
TAP	73	0	6
TAP	73	96	6
TAP	73	96	7
TAP	73	192	1
TAP	73	288	0
TAP	73	288	1
TAP	74	0	2
TAP	74	96	3
TAP	74	192	2
TAP	74	192	4
HLD	75	0	5	96
TAP	75	96	4
TAP	75	192	4
TAP	75	192	5
HLD	76	0	2	96
TAP	76	96	3
TAP	76	192	2
TAP	76	192	3
TAP	77	0	4
TAP	77	96	4
TAP	77	192	3
TAP	77	288	3
XTP	78	0	3
XTP	78	0	4
XTP	78	96	3
XTP	78	96	4
XTP	78	192	2
XTP	78	192	5
BST	79	0	0
SI_	79	0	0	96	144	4
BST	79	0	1
SI_	79	0	1	96	144	5
STR	80	0	6
SI_	80	0	6	96	144	2
STR	80	0	7
SI_	80	0	7	96	144	3
TAP	81	0	1
TAP	81	96	0
TAP	81	96	1
TAP	81	192	6
TAP	81	288	6
TAP	81	288	7
XTP	82	0	5
XTP	82	96	3
XTP	82	96	4
XTP	82	192	2
XTP	82	192	5
TAP	83	0	5
TAP	83	96	5
TAP	83	192	6
TAP	83	288	6
TAP	84	0	7
TAP	84	96	7
TAP	84	192	0
TAP	84	288	0
TAP	85	0	1
TAP	85	96	1
TAP	85	192	2
TAP	85	288	2
TAP	86	0	3
STR	86	0	4
SI_	86	0	4	96	144	0
TAP	87	0	1
TAP	87	96	0
TAP	87	192	7
TAP	87	288	6
TAP	88	0	5
TAP	88	96	4
TAP	88	192	3
TAP	88	288	2
BRK	89	0	3
BRK	89	0	4
TAP	90	0	2
TAP	90	96	2
TAP	90	192	2
TAP	90	192	3
TAP	91	0	5
TAP	91	96	5
TAP	91	192	4
TAP	91	288	4
TAP	92	0	3
TAP	92	96	3
TAP	92	192	2
TAP	92	192	4
TAP	93	0	1
TAP	93	96	1
TAP	93	192	0
TAP	93	192	1
TAP	94	0	6
TAP	94	96	6
TAP	94	192	6
TAP	94	192	7
STR	95	0	0
SXL	95	0	0	96	480	3
STR	95	0	7
SXR	95	0	7	96	480	4
TTP	97	0	0	C	1	L1

T_REC_TAP	187
T_REC_BRK	4
T_REC_XTP	34
T_REC_HLD	23
T_REC_XHO	0
T_REC_STR	20
T_REC_BST	8
T_REC_XST	0
T_REC_TTP	17
T_REC_THO	0
T_REC_SLD	28
T_REC_ALL	321
T_NUM_TAP	258
T_NUM_BRK	12
T_NUM_HLD	23
T_NUM_SLD	28
T_NUM_ALL	321
T_JUDGE_TAP	270
T_JUDGE_HLD	74
T_JUDGE_SLD	28
T_JUDGE_ALL	372
TTM_EACHPAIRS	63
TTM_SCR_TAP	129000
TTM_SCR_BRK	31200
TTM_SCR_HLD	23000
TTM_SCR_SLD	42000
TTM_SCR_ALL	225200
TTM_SCR_S	217300
TTM_SCR_SS	224000
TTM_RAT_ACV	10053

