VERSION	0.00.00	1.03.00
FES_MODE	0
BPM_DEF	155.000	155.000	155.000	155.000
MET_DEF	4	4
RESOLUTION	384
CLK_DEF	384
COMPATIBLE_CODE	MA2

BPM	0	0	155.000
MET	0	0	4	4

XTP	2	0	0
TAP	3	0	0
XTP	4	0	7
TAP	5	0	7
XHO	6	0	0	384
XHO	8	0	7	384
TAP	10	0	0
TAP	11	0	1
TAP	12	0	2
TAP	13	0	3
TAP	13	0	4
TAP	14	0	4
TAP	15	0	5
TAP	16	0	6
TAP	17	0	0
TAP	17	0	7
TTP	18	0	0	B	0	L1
TTP	19	0	7	B	0	L1
TTP	20	0	1	B	0	L1
TTP	21	0	6	B	0	L1
TTP	22	0	2	B	0	L1
TTP	23	0	5	B	0	L1
TTP	24	0	3	B	0	L1
THO	25	0	0	384	C	0	L1
XTP	27	0	7
TAP	27	192	7
TAP	28	0	6
TAP	28	192	6
TAP	29	0	5
TAP	29	192	5
TAP	30	0	3
TAP	30	0	4
TAP	30	192	3
TAP	30	192	4
TAP	31	0	3
TAP	31	192	3
TAP	32	0	2
TAP	32	192	2
TAP	33	0	1
TAP	33	192	1
TAP	34	0	0
TAP	34	0	7
XTP	34	192	0
XTP	34	192	7
TAP	35	0	0
TAP	35	96	0
TAP	35	192	0
TAP	36	0	1
TAP	36	192	1
TAP	37	0	2
TAP	37	96	2
TAP	37	192	2
TAP	38	0	3
TAP	38	192	3
TAP	38	192	4
TAP	39	0	4
TAP	39	96	4
TAP	39	192	4
TAP	40	0	5
TAP	40	192	5
TAP	41	0	6
TAP	41	96	6
TAP	41	192	6
TAP	42	0	7
TAP	42	192	7
XHO	43	0	0	384
XHO	43	0	7	384
HLD	46	0	6	384
HLD	46	0	7	384
HLD	48	0	0	384
HLD	48	0	1	384
HLD	50	0	0	336
HLD	50	0	7	336
STR	52	0	0
SI_	52	0	0	96	288	3
STR	54	0	7
SI_	54	0	7	96	288	4
STR	56	0	0
SI_	56	0	0	96	288	4
STR	58	0	7
SI_	58	0	7	96	288	3
TTP	60	0	2	B	0	L1
TTP	61	0	1	B	0	L1
TTP	62	0	0	B	0	L1
TTP	63	0	7	B	0	L1
TTP	64	0	6	B	0	L1
TTP	65	0	5	B	0	L1
TTP	66	0	3	B	0	L1
TTP	66	0	4	B	0	L1
TTP	67	0	2	B	0	L1
TTP	67	0	5	B	0	L1
THO	68	0	0	384	C	0	L1
TAP	71	0	0
TAP	71	0	7
TAP	71	192	0
TAP	71	192	7
XTP	72	0	6
TAP	72	96	6
TAP	72	192	6
TAP	73	0	5
TAP	73	96	5
TAP	73	192	5
TAP	74	0	4
TAP	74	96	4
TAP	74	192	3
TAP	74	192	4
TAP	75	0	3
TAP	75	96	3
TAP	75	192	3
TAP	76	0	2
TAP	76	96	2
TAP	76	192	2
TAP	77	0	1
TAP	77	96	1
TAP	77	192	1
TAP	78	0	0
TAP	78	96	0
TAP	78	192	0
TAP	78	192	7
BRK	79	0	0
TAP	79	96	0
TAP	79	192	0
TAP	80	0	1
TAP	80	96	1
TAP	80	192	1
TAP	81	0	2
TAP	81	96	2
TAP	81	192	2
TAP	82	0	3
TAP	82	96	4
TAP	82	192	3
TAP	82	192	4
TAP	83	0	4
TAP	83	96	4
TAP	83	192	4
TAP	84	0	5
TAP	84	96	5
TAP	84	192	5
TAP	85	0	6
TAP	85	96	6
TAP	85	192	6
XTP	86	0	0
XTP	86	0	7
TAP	86	192	0
TAP	86	192	7
TAP	87	0	1
TAP	87	96	1
TAP	87	192	0
TAP	87	192	1
TAP	88	0	6
TAP	88	96	6
TAP	88	192	6
TAP	88	192	7
HLD	89	0	0	192
TAP	90	0	0
TAP	90	192	0
TAP	90	192	1
HLD	91	0	7	192
TAP	92	0	7
TAP	92	192	6
TAP	92	192	7
HLD	93	0	5	192
TAP	94	0	5
TAP	94	192	3
TAP	94	192	4
BRK	95	0	2
BRK	95	0	5
THO	96	0	0	384	C	1	L1

T_REC_TAP	116
T_REC_BRK	3
T_REC_XTP	8
T_REC_HLD	9
T_REC_XHO	4
T_REC_STR	4
T_REC_BST	0
T_REC_XST	0
T_REC_TTP	17
T_REC_THO	3
T_REC_SLD	4
T_REC_ALL	168
T_NUM_TAP	145
T_NUM_BRK	3
T_NUM_HLD	16
T_NUM_SLD	4
T_NUM_ALL	168
T_JUDGE_TAP	148
T_JUDGE_HLD	114
T_JUDGE_SLD	4
T_JUDGE_ALL	266
TTM_EACHPAIRS	24
TTM_SCR_TAP	72500
TTM_SCR_BRK	7800
TTM_SCR_HLD	16000
TTM_SCR_SLD	6000
TTM_SCR_ALL	102300
TTM_SCR_S	98950
TTM_SCR_SS	102000
TTM_RAT_ACV	10029

