VERSION	0.00.00	1.03.00
FES_MODE	0
BPM_DEF	150.000	150.000	150.000	150.000
MET_DEF	4	4
RESOLUTION	384
CLK_DEF	384
COMPATIBLE_CODE	MA2

BPM	0	0	150.000
MET	0	0	4	4

TAP	1	0	2
TAP	1	48	2
TAP	1	80	3
TAP	1	96	2
TAP	1	144	2
TAP	1	192	4
TAP	1	240	1
TAP	1	288	7
TAP	1	336	3
TAP	2	0	5
TAP	2	48	5
TAP	2	80	4
TAP	2	96	5
TAP	2	144	5
TAP	2	192	3
TAP	2	240	6
TAP	2	288	2
TAP	2	288	5
TAP	3	0	1
TAP	3	48	1
TAP	3	80	0
TAP	3	96	1
TAP	3	144	1
TAP	3	192	7
TAP	3	240	2
TAP	3	288	4
TAP	3	336	0
TAP	4	0	6
TAP	4	48	6
TAP	4	80	7
TAP	4	96	6
TAP	4	144	6
TAP	4	192	0
TAP	4	240	5
TAP	4	288	1
TAP	4	288	6
XTP	5	0	3
XTP	5	0	4
XTP	5	48	3
XTP	5	48	4
XTP	5	96	2
XTP	5	96	5
XTP	5	144	2
XTP	5	144	5
BRK	5	192	1
BRK	5	192	6
TAP	6	0	1
TAP	6	0	5
TAP	6	48	4
TAP	6	96	2
TAP	6	144	3
TAP	6	192	3
TAP	6	192	6
TAP	6	240	5
TAP	6	288	1
TAP	6	336	2
TAP	7	0	2
TAP	7	0	6
TAP	7	48	5
TAP	7	96	2
TAP	7	144	3
TAP	7	192	3
TAP	7	192	5
TAP	7	240	4
TAP	7	288	1
TAP	7	336	2
TAP	8	0	2
TAP	8	0	5
TAP	8	48	4
TAP	8	96	2
TAP	8	144	3
TAP	8	192	3
TAP	8	192	6
TAP	8	240	5
TAP	8	288	1
TAP	8	336	2
TAP	9	0	4
TAP	9	0	6
TAP	9	48	5
TAP	9	96	3
TAP	9	96	4
TAP	9	144	2
TAP	9	192	1
TAP	9	192	3
TAP	9	288	3
TAP	9	288	5
TAP	10	0	2
TAP	10	0	6
TAP	10	48	3
TAP	10	96	5
TAP	10	144	4
TAP	10	192	1
TAP	10	192	4
TAP	10	240	2
TAP	10	288	6
TAP	10	336	5
TAP	11	0	1
TAP	11	0	5
TAP	11	48	2
TAP	11	96	5
TAP	11	144	4
TAP	11	192	2
TAP	11	192	4
TAP	11	240	3
TAP	11	288	6
TAP	11	336	5
TAP	12	0	2
TAP	12	0	5
TAP	12	48	3
TAP	12	96	5
TAP	12	144	4
TAP	12	192	1
TAP	12	192	4
TAP	12	240	2
TAP	12	288	6
TAP	12	336	5
TAP	13	0	1
TAP	13	0	4
TAP	13	48	2
TAP	13	96	3
TAP	13	96	4
TAP	13	144	5
XTP	13	192	3
XTP	13	192	6
XTP	13	288	1
XTP	13	288	5
TTP	14	0	4	B	0	M1
TTP	14	48	1	E	0	M1
TTP	14	96	7	E	0	M1
TTP	14	144	3	B	0	M1
TTP	14	192	5	E	0	M1
TTP	14	240	3	E	0	M1
TTP	14	288	7	E	0	M1
TTP	14	336	1	E	0	M1
TTP	15	0	4	B	0	M1
TTP	15	48	6	B	0	M1
TTP	15	96	3	B	0	M1
TTP	15	144	1	B	0	M1
TTP	15	192	0	E	0	M1
TTP	15	240	0	C	0	M1
TTP	15	288	4	E	0	M1
TAP	16	0	2
TAP	16	0	5
TAP	16	48	5
TAP	16	96	3
TAP	16	96	5
TAP	16	144	5
TAP	16	192	1
TAP	16	192	4
TAP	16	240	4
TAP	16	288	3
TAP	16	288	4
TAP	16	336	4
STR	17	0	2
SI_	17	0	2	96	48	5
TAP	17	0	3
TAP	17	48	3
TAP	17	96	3
TAP	17	144	3
TAP	17	192	3
STR	17	192	6
SI_	17	192	6	96	48	1
TAP	17	240	3
TAP	17	288	3
TAP	17	336	3
TAP	18	0	2
TAP	18	0	3
TAP	18	48	2
TAP	18	96	2
TAP	18	96	5
TAP	18	144	2
TAP	18	192	3
TAP	18	192	4
TAP	18	240	3
TAP	18	288	3
TAP	18	288	6
TAP	18	336	3
TAP	19	0	4
STR	19	0	5
SCR	19	0	5	96	96	0
TAP	19	48	4
TAP	19	96	4
TAP	19	144	4
TAP	19	192	4
TAP	19	240	4
TAP	19	288	3
TAP	19	288	6
STR	20	0	1
SCR	20	0	1	96	96	4
TAP	20	0	4
TAP	20	48	4
TAP	20	96	5
TAP	20	144	5
TAP	20	192	6
TAP	20	240	6
TAP	20	288	3
STR	20	288	7
SCL	20	288	7	96	96	4
TAP	20	336	3
TAP	21	0	2
TAP	21	48	2
TAP	21	96	1
TAP	21	144	1
TAP	21	192	0
TAP	21	192	5
TAP	21	288	1
TAP	21	320	1
TAP	21	336	0
HLD	22	0	2	96
TAP	22	0	7
TAP	22	96	6
TAP	22	128	6
TAP	22	144	7
TAP	22	192	0
HLD	22	192	5	96
TAP	22	288	3
TAP	22	320	3
TAP	22	336	4
BRK	23	0	1
BRK	23	0	6
TAP	23	144	2
TAP	23	144	5
HLD	23	192	2	48
HLD	23	192	5	48
TAP	23	288	3
TAP	23	288	4
BRK	24	0	4
BRK	24	0	6
TAP	24	48	3
TAP	24	96	2
TAP	24	96	7
TAP	24	144	1
TAP	24	176	3
HLD	24	192	2	48
TAP	24	240	1
TAP	24	288	0
TAP	24	288	2
TAP	24	336	7
TAP	25	0	4
TAP	25	0	6
TAP	25	48	3
TAP	25	96	2
TAP	25	96	4
TAP	25	144	1
TAP	25	176	6
STR	25	192	0
SI_	25	192	0	96	48	4
TAP	25	240	1
TAP	25	240	7
TAP	26	0	5
TAP	26	24	4
TAP	26	48	5
TAP	26	72	4
TAP	26	96	5
TAP	26	144	3
TAP	26	144	6
TAP	26	168	3
TAP	26	168	6
TAP	26	216	1
TAP	26	240	1
TAP	26	288	0
TAP	26	288	5
TAP	26	336	6
TAP	27	0	2
TAP	27	0	7
TAP	27	48	3
TAP	27	96	5
TAP	27	144	4
TAP	27	144	6
TAP	27	168	4
HLD	27	168	6	72
BRK	27	240	7
BRK	27	288	0
BRK	27	288	5
XTP	28	0	2
XTP	28	0	3
TAP	28	48	4
TAP	28	96	0
TAP	28	96	5
TAP	28	144	6
TAP	28	176	4
HLD	28	192	5	48
TAP	28	240	6
TAP	28	288	5
TAP	28	288	7
TAP	28	336	0
TAP	29	0	1
TAP	29	0	3
TAP	29	48	4
TAP	29	96	3
TAP	29	96	5
TAP	29	144	6
TAP	29	176	1
STR	29	192	7
SI_	29	192	7	96	48	3
TAP	29	240	0
TAP	29	240	6
TAP	30	0	2
TAP	30	24	3
TAP	30	48	2
TAP	30	72	3
TAP	30	96	2
TAP	30	144	1
TAP	30	144	4
TAP	30	168	1
TAP	30	168	4
TAP	30	216	6
TAP	30	240	6
TAP	30	288	1
TAP	30	288	7
TAP	30	336	2
TAP	31	0	3
TAP	31	0	5
TAP	31	48	6
TAP	31	96	3
TAP	31	144	2
TAP	31	144	7
HLD	31	168	2	48
HLD	31	168	7	48
TAP	31	240	2
TAP	31	240	7
BRK	31	288	0
BRK	31	288	5
HLD	32	0	3	48
BRK	32	0	6
TAP	32	48	7
HLD	32	96	4	48
TAP	32	96	6
TAP	32	144	7
HLD	32	192	2	48
TAP	32	192	6
TAP	32	240	7
XTP	32	288	4
XTP	32	288	6
XTP	32	336	3
XTP	32	336	7
TAP	33	0	1
HLD	33	0	5	48
TAP	33	48	0
TAP	33	96	1
HLD	33	96	3	48
TAP	33	144	0
TAP	33	192	1
HLD	33	192	4	48
TAP	33	240	0
XTP	33	288	1
XTP	33	288	3
XTP	33	336	0
XTP	33	336	4
TAP	34	0	5
HLD	34	0	7	48
TAP	34	48	5
TAP	34	96	2
HLD	34	96	3	48
TAP	34	144	2
TAP	34	192	4
HLD	34	192	6	48
TAP	34	240	4
TAP	34	288	2
TAP	34	288	3
TAP	34	336	1
STR	35	0	7
SCL	35	0	7	96	48	4
SCR	35	0	7	96	48	2
TAP	35	96	7
TTP	35	192	0	C	1	M1
TTP	35	192	1	B	0	M1
TTP	35	192	1	E	0	M1
TTP	35	192	2	E	0	M1
TTP	35	192	5	B	0	M1
TTP	35	192	5	E	0	M1
TTP	35	192	6	E	0	M1
BRK	36	0	1
HLD	36	0	4	48
TAP	36	48	0
TAP	36	96	1
HLD	36	96	3	48
TAP	36	144	0
TAP	36	192	1
HLD	36	192	5	48
TAP	36	240	0
XTP	36	288	1
XTP	36	288	3
XTP	36	336	0
XTP	36	336	4
HLD	37	0	2	48
TAP	37	0	6
TAP	37	48	7
HLD	37	96	4	48
TAP	37	96	6
TAP	37	144	7
HLD	37	192	3	48
TAP	37	192	6
TAP	37	240	7
XTP	37	288	4
XTP	37	288	6
XTP	37	336	3
XTP	37	336	7
HLD	38	0	0	48
TAP	38	0	2
TAP	38	48	2
TAP	38	96	4
HLD	38	96	6	48
TAP	38	144	4
HLD	38	192	2	48
TAP	38	192	3
TAP	38	240	3
TAP	38	288	1
TAP	38	288	4
TAP	38	336	5
BRK	39	0	4
BRK	39	0	6
TAP	39	48	0
TAP	39	48	7
BRK	39	96	1
BRK	39	96	3
TAP	39	144	4
TAP	39	144	5
TTP	39	192	0	C	1	M1
TTP	39	192	2	B	0	M1
TTP	39	192	3	E	0	M1
TTP	39	192	6	B	0	M1
TTP	39	192	7	E	0	M1
HLD	40	0	5	192
TTP	40	96	5	B	0	M1
HLD	40	192	4	192
TTP	40	288	4	B	0	M1
HLD	41	0	3	192
TTP	41	96	3	B	0	M1
TAP	41	192	2
TAP	41	240	2
TAP	41	288	2
HLD	42	0	3	192
TAP	42	0	4
TTP	42	96	3	B	0	M1
HLD	42	192	4	192
TTP	42	288	4	B	0	M1
TAP	43	0	3
TAP	43	96	2
TAP	43	96	5
XTP	43	192	1
XTP	43	224	3
XTP	43	256	2
XTP	43	288	6
XTP	43	320	4
XTP	43	352	5
STR	44	0	3
SCL	44	0	3	96	96	1
TAP	44	96	4
STR	44	192	5
SCR	44	192	5	96	96	7
TAP	44	288	4
STR	45	0	2
SCL	45	0	2	96	96	0
TAP	45	96	3
STR	45	192	4
SCR	45	192	4	96	96	6
TAP	45	288	3
STR	46	0	1
SCR	46	0	1	96	96	3
TAP	46	96	0
STR	46	192	7
SCL	46	192	7	96	96	5
TAP	46	288	0
STR	47	0	1
SXL	47	0	1	96	192	4
TAP	47	96	4
TAP	47	192	5
TAP	47	288	6
STR	48	0	4
SCL	48	0	4	96	96	1
HLD	48	0	6	96
TAP	48	192	5
TAP	48	288	1
TAP	48	288	4
HLD	49	0	1	96
STR	49	0	3
SCR	49	0	3	96	96	6
TAP	49	192	2
TAP	49	288	3
TAP	49	288	6
TAP	50	0	6
TAP	50	64	6
TAP	50	96	4
TAP	50	160	4
TAP	50	192	3
TAP	50	256	3
HLD	50	288	2	288
TTP	51	0	3	E	0	M1
TTP	51	96	0	C	0	M1
TTP	51	192	5	E	0	M1
TAP	51	288	3
TAP	51	288	4
STR	52	0	0
SCL	52	0	0	96	96	5
HLD	52	0	1	96
TAP	52	192	0
TAP	52	288	0
TAP	52	288	5
HLD	53	0	6	96
STR	53	0	7
SCR	53	0	7	96	96	2
TAP	53	192	7
TAP	53	288	2
TAP	53	288	7
TAP	54	0	2
TAP	54	64	2
TAP	54	96	0
TAP	54	160	0
TAP	54	192	7
TAP	54	256	7
HLD	54	288	6	480
TTP	55	0	0	E	0	M1
TTP	55	96	6	E	0	M1
TTP	55	192	2	E	0	M1
TTP	55	288	4	E	0	M1
THO	56	0	0	192	C	0	M1
TAP	57	0	1
TAP	57	0	6
TTP	57	48	3	E	0	M1
TTP	57	48	5	E	0	M1
TAP	57	96	1
TAP	57	96	6
TTP	57	144	2	B	0	M1
TTP	57	144	5	B	0	M1
BRK	57	192	1
BRK	57	192	6
TAP	58	0	4
XTP	58	0	6
XTP	58	96	2
TAP	58	96	4
TAP	58	192	4
XTP	58	192	5
TAP	58	240	5
XTP	58	288	3
TAP	58	288	4
TAP	58	336	3
TAP	59	0	4
XHO	59	0	6	192
TAP	59	144	4
TAP	59	192	4
TAP	59	288	4
TAP	59	288	5
STR	60	0	2
SI_	60	0	2	96	96	0
TAP	60	96	3
STR	60	192	4
SI_	60	192	4	96	96	2
TAP	60	288	5
STR	61	0	6
SI_	61	0	6	96	96	4
TAP	61	96	7
TAP	61	192	7
TAP	61	288	0
TAP	61	288	6
TAP	62	0	4
TAP	62	48	3
TAP	62	96	5
HLD	62	144	4	144
TAP	62	192	6
TAP	62	240	6
TAP	62	288	5
TAP	62	336	6
TAP	63	0	3
TAP	63	48	4
TAP	63	96	2
HLD	63	144	3	144
TAP	63	192	1
TAP	63	240	1
TAP	63	288	2
TAP	63	336	1
TAP	64	0	4
TAP	64	48	3
TAP	64	96	5
HLD	64	144	4	144
TAP	64	192	6
TAP	64	240	6
TAP	64	288	5
TAP	64	336	6
TAP	65	0	0
TAP	65	48	1
TAP	65	96	3
TAP	65	144	4
XST	65	192	2
SI_	65	192	2	96	48	5
XTP	65	288	5
TTP	66	0	7	E	0	M1
TTP	66	48	4	E	0	M1
TTP	66	96	5	E	0	M1
TTP	66	144	0	C	0	M1
TTP	66	192	0	E	0	M1
TTP	66	240	3	E	0	M1
TTP	66	288	4	E	0	M1
TTP	66	336	1	E	0	M1
TTP	67	0	4	B	0	M1
TTP	67	48	6	B	0	M1
TTP	67	48	6	E	0	M1
TTP	67	96	3	B	0	M1
TTP	67	144	1	B	0	M1
TTP	67	144	2	E	0	M1
TTP	67	192	0	E	0	M1
TTP	67	240	0	C	0	M1
TTP	67	288	4	E	0	M1
TAP	68	0	1
TAP	68	0	5
TAP	68	48	1
TAP	68	96	2
TAP	68	96	4
TAP	68	144	2
TAP	68	192	3
TAP	68	192	6
TAP	68	240	3
TAP	68	288	4
TAP	68	288	5
TAP	68	336	4
TAP	69	0	4
STR	69	0	6
SI_	69	0	6	96	48	2
TAP	69	48	4
TAP	69	96	4
TAP	69	144	4
STR	69	192	1
SI_	69	192	1	96	48	5
TAP	69	192	4
TAP	69	240	4
TAP	69	288	4
TAP	69	336	4
TAP	70	0	4
TAP	70	0	6
TAP	70	48	6
TAP	70	96	2
TAP	70	96	5
TAP	70	144	5
TAP	70	192	3
TAP	70	192	4
TAP	70	240	4
TAP	70	288	1
TAP	70	288	3
TAP	70	336	3
STR	71	0	2
SCL	71	0	2	96	96	7
TAP	71	0	3
TAP	71	48	3
TAP	71	96	3
TAP	71	144	3
TAP	71	192	3
TAP	71	240	3
TAP	71	288	1
TAP	71	288	4
TAP	72	0	3
STR	72	0	6
SCL	72	0	6	96	96	3
TAP	72	48	3
TAP	72	96	2
TAP	72	144	2
TAP	72	192	1
TAP	72	240	1
STR	72	288	0
SCR	72	288	0	96	96	3
TAP	72	288	3
TAP	72	336	3
TAP	73	0	4
TAP	73	48	4
TAP	73	96	5
TAP	73	144	5
TAP	73	192	0
TAP	73	192	6
TAP	73	288	1
TAP	73	320	1
TAP	73	336	0
HLD	74	0	2	96
TAP	74	0	7
TAP	74	96	6
TAP	74	128	6
TAP	74	144	7
TAP	74	192	0
HLD	74	192	5	96
TAP	74	288	3
TAP	74	320	3
TAP	74	336	4
BRK	75	0	1
BRK	75	0	6
TAP	75	144	1
TAP	75	144	6
HLD	75	192	1	48
HLD	75	192	6	48
TAP	75	288	3
TAP	75	288	4
BRK	76	0	4
BRK	76	0	6
TAP	76	48	3
TAP	76	96	0
TAP	76	96	2
TAP	76	144	1
TAP	76	176	3
HLD	76	192	2	48
TAP	76	240	1
TAP	76	288	0
TAP	76	288	2
TAP	76	336	7
TAP	77	0	4
TAP	77	0	6
TAP	77	48	3
TAP	77	96	2
TAP	77	96	4
TAP	77	144	1
TAP	77	176	7
STR	77	192	0
SI_	77	192	0	96	48	3
SI_	77	192	0	96	48	5
TAP	77	240	1
TAP	78	0	6
TAP	78	24	4
TAP	78	48	5
TAP	78	72	4
TAP	78	96	6
TAP	78	144	3
TAP	78	144	7
TAP	78	168	3
TAP	78	168	7
TAP	78	216	1
TAP	78	240	1
TAP	78	288	0
TAP	78	288	6
TAP	78	336	5
TAP	79	0	3
TAP	79	0	4
TAP	79	48	2
TAP	79	96	1
TAP	79	96	5
TAP	79	144	4
TAP	79	144	6
TAP	79	168	4
HLD	79	168	6	72
BRK	79	240	7
BRK	79	288	0
BRK	79	288	5
TAP	80	0	1
TAP	80	0	3
TAP	80	48	4
TAP	80	96	5
TAP	80	96	7
TAP	80	144	6
TAP	80	176	4
HLD	80	192	5	48
TAP	80	240	6
TAP	80	288	5
TAP	80	288	7
TAP	80	336	0
TAP	81	0	1
TAP	81	0	3
TAP	81	48	4
TAP	81	96	3
TAP	81	96	5
TAP	81	144	6
TAP	81	176	0
STR	81	192	7
SI_	81	192	7	96	48	2
SI_	81	192	7	96	48	4
TAP	81	240	6
TAP	82	0	1
TAP	82	24	3
TAP	82	48	2
TAP	82	72	3
TAP	82	96	1
TAP	82	144	0
TAP	82	144	4
TAP	82	168	0
TAP	82	168	4
TAP	82	216	6
TAP	82	240	6
TAP	82	288	1
TAP	82	288	7
TAP	82	336	2
TAP	83	0	3
TAP	83	0	4
TAP	83	48	5
TAP	83	96	6
TAP	83	96	7
TAP	83	144	0
TAP	83	144	5
HLD	83	168	0	48
HLD	83	168	5	48
TAP	83	240	0
TAP	83	240	5
BRK	83	288	2
BRK	83	288	7
BRK	84	0	1
HLD	84	0	4	48
TAP	84	48	0
TAP	84	96	1
HLD	84	96	3	48
TAP	84	144	0
TAP	84	192	1
HLD	84	192	5	48
TAP	84	240	0
XTP	84	288	1
XTP	84	288	3
XTP	84	336	0
XTP	84	336	4
HLD	85	0	1	48
TAP	85	0	6
TAP	85	48	7
HLD	85	96	4	48
TAP	85	96	6
TAP	85	144	7
HLD	85	192	3	48
TAP	85	192	6
TAP	85	240	7
XTP	85	288	4
XTP	85	288	6
XTP	85	336	3
XTP	85	336	7
HLD	86	0	0	48
TAP	86	0	2
TAP	86	48	1
TAP	86	96	2
HLD	86	96	4	48
TAP	86	144	1
TAP	86	192	5
HLD	86	192	7	48
TAP	86	240	6
TAP	86	288	3
TAP	86	288	5
TAP	86	336	6
STR	87	0	0
SCL	87	0	0	96	48	5
SCR	87	0	0	96	48	3
TAP	87	96	0
TTP	87	192	0	C	1	M1
TTP	87	192	2	B	0	M1
TTP	87	192	2	E	0	M1
TTP	87	192	3	E	0	M1
TTP	87	192	6	B	0	M1
TTP	87	192	6	E	0	M1
TTP	87	192	7	E	0	M1
HLD	88	0	3	48
BRK	88	0	6
TAP	88	48	7
HLD	88	96	4	48
TAP	88	96	6
TAP	88	144	7
HLD	88	192	2	48
TAP	88	192	6
TAP	88	240	7
XTP	88	288	4
XTP	88	288	6
XTP	88	336	3
XTP	88	336	7
TAP	89	0	1
HLD	89	0	6	48
TAP	89	48	0
TAP	89	96	1
HLD	89	96	3	48
TAP	89	144	0
TAP	89	192	1
HLD	89	192	4	48
TAP	89	240	0
XTP	89	288	1
XTP	89	288	3
XTP	89	336	0
XTP	89	336	4
TAP	90	0	5
HLD	90	0	7	48
TAP	90	48	6
HLD	90	96	3	48
TAP	90	96	5
TAP	90	144	6
HLD	90	192	0	48
TAP	90	192	2
TAP	90	240	1
TAP	90	288	2
HLD	90	288	4	48
TAP	90	336	1
BRK	91	0	0
BRK	91	0	5
TAP	91	48	4
TAP	91	48	6
BRK	91	96	1
BRK	91	96	3
TAP	91	144	0
TAP	91	144	7
BRK	91	192	2
BRK	91	192	5
BRK	91	288	0
BRK	91	288	7
BRK	92	0	1
BRK	92	0	3
BRK	92	48	4
BRK	92	48	6
BRK	92	96	0
BRK	92	96	2
BRK	92	144	5
BRK	92	144	7
TTP	92	192	0	C	1	M1
TTP	92	192	1	B	0	M1
TTP	92	192	1	E	0	M1
TTP	92	192	5	B	0	M1
TTP	92	192	5	E	0	M1
TAP	93	0	6
TAP	93	48	6
TAP	93	80	7
HLD	93	96	5	96
TAP	93	144	4
TAP	93	192	3
TAP	93	240	2
TAP	93	240	4
TAP	93	288	0
TAP	93	336	1
TAP	93	336	3
TAP	94	0	2
TAP	94	48	2
TAP	94	80	3
HLD	94	96	1	96
TAP	94	144	0
TAP	94	192	7
TAP	94	240	0
TAP	94	240	6
TAP	94	288	1
TAP	94	288	5
TAP	94	336	2
TAP	94	336	4
TAP	95	0	5
TAP	95	48	5
TAP	95	80	4
HLD	95	96	6	96
TAP	95	144	7
TAP	95	192	4
TAP	95	240	3
TAP	95	240	5
TAP	95	288	2
TAP	95	288	4
TAP	95	336	1
TAP	95	336	3
TAP	96	0	1
TAP	96	48	1
TAP	96	80	0
TAP	96	96	2
TAP	96	144	3
TAP	96	144	5
TAP	96	192	7
TAP	96	240	2
TAP	96	240	4
TAP	96	288	0
TAP	96	336	3
TAP	96	336	5
XTP	97	0	2
XTP	97	0	6
XTP	97	48	0
XTP	97	48	4
XTP	97	96	1
XTP	97	96	5
XTP	97	144	3
XTP	97	144	7
BRK	97	192	2
BRK	97	192	4
BST	97	264	7
SF_	97	264	7	96	48	3
BRK	97	336	0
BRK	97	336	6
TTP	98	0	0	C	1	M1

T_REC_TAP	631
T_REC_BRK	50
T_REC_XTP	65
T_REC_HLD	72
T_REC_XHO	1
T_REC_STR	30
T_REC_BST	1
T_REC_XST	1
T_REC_TTP	73
T_REC_THO	1
T_REC_SLD	36
T_REC_ALL	961
T_NUM_TAP	800
T_NUM_BRK	51
T_NUM_HLD	74
T_NUM_SLD	36
T_NUM_ALL	961
T_JUDGE_TAP	851
T_JUDGE_HLD	128
T_JUDGE_SLD	36
T_JUDGE_ALL	1015
TTM_EACHPAIRS	231
TTM_SCR_TAP	400000
TTM_SCR_BRK	132600
TTM_SCR_HLD	74000
TTM_SCR_SLD	54000
TTM_SCR_ALL	660600
TTM_SCR_S	635850
TTM_SCR_SS	655500
TTM_RAT_ACV	10077

