VERSION	0.00.00	1.03.00
FES_MODE	0
BPM_DEF	150.000	150.000	150.000	150.000
MET_DEF	4	4
RESOLUTION	384
CLK_DEF	384
COMPATIBLE_CODE	MA2

BPM	0	0	150.000
MET	0	0	4	4

HLD	1	0	3	96
TAP	1	144	2
TAP	1	144	4
HLD	1	192	2	72
HLD	1	192	4	72
TAP	1	336	1
TAP	1	336	5
HLD	2	0	1	72
HLD	2	0	5	72
TAP	2	144	0
TAP	2	144	6
TAP	2	192	7
TAP	2	240	0
TAP	2	288	7
HLD	3	0	7	72
TAP	3	144	0
TAP	3	144	6
HLD	3	192	0	72
HLD	3	192	6	72
TAP	3	336	1
TAP	3	336	5
HLD	4	0	1	72
HLD	4	0	5	72
TAP	4	144	2
TAP	4	144	4
TAP	4	192	3
TAP	4	240	4
TAP	4	288	3
XTP	5	0	3
XTP	5	0	4
XTP	5	48	3
XTP	5	48	4
XTP	5	96	2
XTP	5	96	5
XTP	5	144	2
XTP	5	144	5
XTP	5	192	3
XTP	5	192	4
HLD	6	0	2	96
TAP	6	96	3
TAP	6	192	4
TAP	6	240	3
TAP	6	288	4
HLD	7	0	3	96
HLD	7	96	4	96
TAP	7	192	5
TAP	7	288	4
TAP	7	288	6
STR	8	0	5
SCL	8	0	5	96	72	2
STR	8	192	1
SCR	8	192	1	96	72	4
TTP	9	0	7	B	0	M1
TTP	9	96	1	B	0	M1
TTP	9	192	4	B	0	M1
TTP	9	192	6	E	0	M1
HLD	10	0	5	96
TAP	10	96	4
TAP	10	192	3
TAP	10	240	4
TAP	10	288	3
HLD	11	0	4	96
HLD	11	96	3	96
TAP	11	192	2
STR	11	288	0
SXL	11	288	0	96	288	3
STR	11	288	4
SXL	11	288	4	96	288	7
TTP	13	0	2	E	0	M1
TTP	13	0	6	E	0	M1
TTP	13	96	2	B	0	M1
TTP	13	96	5	B	0	M1
TTP	13	192	3	B	0	M1
TTP	13	192	4	B	0	M1
THO	14	0	0	576	C	1	M1
TTP	14	0	7	E	0	M1
TTP	14	192	4	B	0	M1
TTP	15	0	5	B	0	M1
TTP	15	96	6	B	0	M1
TTP	15	192	7	E	0	M1
TAP	16	0	0
TAP	16	96	1
TAP	16	96	7
TAP	16	192	1
TAP	16	240	1
TAP	16	288	0
TAP	17	0	2
TAP	17	48	2
HLD	17	96	3	96
TAP	17	192	4
TAP	17	288	4
TAP	17	288	5
TAP	18	0	7
TAP	18	96	0
TAP	18	96	6
TAP	18	192	6
TAP	18	240	6
TAP	18	288	7
TAP	19	0	5
TAP	19	48	5
HLD	19	96	4	96
TAP	19	192	3
TAP	19	288	2
TAP	19	288	3
HLD	20	0	1	96
TAP	20	48	7
TAP	20	96	7
HLD	20	192	6	96
TAP	20	240	0
TAP	20	288	0
TAP	21	0	0
TAP	21	48	7
TAP	21	96	0
TAP	21	192	1
TAP	21	192	6
STR	21	288	1
SI_	21	288	1	96	48	4
STR	22	96	6
SI_	22	96	6	96	48	2
STR	22	288	0
SI_	22	288	0	96	48	4
STR	23	96	5
SCR	23	96	5	96	120	2
TTP	23	192	0	C	1	M1
TAP	24	0	0
TAP	24	48	0
TAP	24	96	1
TAP	24	96	7
TAP	24	192	7
TAP	24	240	7
TAP	24	288	0
TAP	24	288	6
TAP	25	0	4
TAP	25	48	4
TAP	25	96	3
STR	25	96	5
SUL	25	96	5	96	120	3
TAP	26	0	0
TAP	26	48	0
TAP	26	96	7
TAP	26	144	7
HLD	26	192	0	96
TAP	26	288	1
TAP	27	0	2
TAP	27	0	3
TAP	27	96	4
TAP	27	96	5
TAP	27	192	1
TAP	27	192	3
XTP	27	288	4
XTP	27	288	6
TAP	28	0	7
TAP	28	48	7
TAP	28	96	0
TAP	28	96	6
TAP	28	192	0
TAP	28	240	0
TAP	28	288	1
TAP	28	288	7
TAP	29	0	3
TAP	29	48	3
STR	29	96	2
SUR	29	96	2	96	120	4
TAP	29	96	4
TAP	30	0	7
TAP	30	48	7
TAP	30	96	0
TAP	30	144	0
HLD	30	192	7	96
TAP	30	288	6
TAP	31	0	4
TAP	31	0	5
TAP	31	96	2
TAP	31	96	3
TAP	31	192	4
TAP	31	192	6
BRK	31	288	1
BRK	31	288	3
TAP	32	0	2
TAP	32	0	4
TAP	32	48	3
TAP	32	96	2
TAP	32	96	4
TAP	32	192	3
TAP	32	192	5
TAP	32	240	4
TAP	32	288	3
TAP	32	288	5
TAP	33	0	5
TAP	33	0	7
TAP	33	48	6
TAP	33	96	5
TAP	33	96	7
TAP	33	192	0
TAP	33	192	2
TAP	33	240	1
TAP	33	288	0
TAP	33	288	2
TAP	34	0	2
TAP	34	0	4
TAP	34	96	3
TAP	34	96	6
TAP	34	192	1
TAP	34	192	4
TAP	34	288	3
STR	34	288	7
SI_	34	288	7	96	48	2
STR	35	0	1
SI_	35	0	1	96	48	5
STR	35	96	4
SUL	35	96	4	96	96	3
TAP	35	192	0
TAP	36	0	1
TAP	36	0	7
TAP	36	48	0
TAP	36	96	1
TAP	36	96	7
TAP	36	192	0
TAP	36	192	6
TAP	36	240	7
TAP	36	288	0
TAP	36	288	6
TAP	37	0	4
TAP	37	0	6
TAP	37	48	5
TAP	37	96	4
TAP	37	96	6
TAP	37	192	1
TAP	37	192	3
TAP	37	240	2
TAP	37	288	1
TAP	37	288	3
TAP	38	0	0
TAP	38	48	0
TAP	38	96	6
TAP	38	144	6
TAP	38	192	2
TAP	38	240	2
TAP	38	288	4
TAP	39	0	3
TAP	39	0	4
TAP	39	48	3
TAP	39	48	4
TAP	39	96	3
TAP	39	96	4
TAP	39	144	3
TAP	39	144	4
BRK	39	192	3
BRK	39	192	4
HLD	40	0	3	96
HLD	40	0	4	288
HLD	40	192	2	288
HLD	41	0	5	288
HLD	41	192	3	288
HLD	42	0	2	288
HLD	42	192	0	288
HLD	43	0	7	96
BRK	43	192	0
BRK	43	288	7
STR	44	0	1
SXL	44	0	1	96	480	4
HLD	44	0	6	192
HLD	45	0	5	192
HLD	46	0	1	192
STR	46	0	6
SUL	46	0	6	96	480	4
HLD	47	0	2	192
TAP	48	0	3
TAP	48	64	3
HLD	48	96	4	192
TAP	48	192	5
TAP	48	288	5
TAP	49	0	4
TAP	49	64	4
HLD	49	96	3	192
TAP	49	192	2
TAP	49	288	2
TAP	50	0	3
TAP	50	64	3
HLD	50	96	4	192
TAP	50	192	5
TAP	50	288	5
STR	51	0	4
SCR	51	0	4	96	72	7
STR	51	192	3
SCL	51	192	3	96	72	0
TAP	52	0	7
TAP	52	64	7
HLD	52	96	0	192
TAP	52	192	1
TAP	52	288	1
TAP	53	0	0
TAP	53	64	0
HLD	53	96	7	192
TAP	53	192	6
TAP	53	288	6
TAP	54	0	7
TAP	54	64	7
HLD	54	96	0	192
TAP	54	192	1
TAP	54	288	1
TAP	55	0	0
TAP	55	64	0
TAP	55	96	7
TAP	55	192	7
TAP	55	256	7
STR	55	288	0
SXL	55	288	0	96	288	4
SXR	55	288	0	96	288	4
XTP	57	0	3
XTP	57	0	5
XTP	57	48	3
XTP	57	48	5
XTP	57	96	2
XTP	57	96	4
XTP	57	144	2
XTP	57	144	4
BRK	57	192	1
BRK	57	192	5
HLD	58	0	2	96
HLD	58	96	3	96
TAP	58	192	2
TAP	58	240	2
TAP	58	288	3
TAP	58	336	3
HLD	59	0	2	96
HLD	59	0	4	288
TAP	59	192	2
STR	59	288	2
SCL	59	288	2	96	72	7
STR	60	96	6
SCL	60	96	6	96	72	3
TAP	60	288	0
TAP	61	0	0
TAP	61	0	1
TAP	61	96	2
TAP	61	96	7
STR	61	192	3
SUR	61	192	3	96	72	7
TAP	61	192	6
HLD	62	0	5	96
HLD	62	96	4	96
TAP	62	192	5
TAP	62	240	5
TAP	62	288	4
TAP	62	336	4
HLD	63	0	3	288
HLD	63	0	5	96
TAP	63	192	5
STR	63	288	5
SCR	63	288	5	96	72	0
STR	64	96	1
SCR	64	96	1	96	72	4
TAP	64	288	7
TAP	65	0	6
TAP	65	0	7
TAP	65	96	0
TAP	65	96	5
TAP	65	192	1
TAP	65	192	4
TAP	65	288	2
TAP	65	288	3
HLD	66	0	2	96
HLD	66	0	3	96
HLD	66	192	4	96
HLD	66	192	5	96
TAP	67	0	1
TAP	67	0	3
TAP	67	96	4
TAP	67	96	6
TAP	67	192	3
TAP	67	240	4
BRK	67	288	2
BRK	67	288	5
HLD	68	0	2	96
TAP	68	48	3
TAP	68	96	3
HLD	68	192	1	96
TAP	68	240	0
TAP	68	288	0
TAP	69	0	2
TAP	69	48	2
TAP	69	96	4
TAP	69	144	4
TAP	69	192	3
TAP	69	288	2
TAP	69	288	5
HLD	70	0	5	96
TAP	70	48	4
TAP	70	96	4
HLD	70	192	6	96
TAP	70	240	7
TAP	70	288	7
TAP	71	0	5
TAP	71	48	5
TAP	71	96	3
TAP	71	144	3
TAP	71	192	4
TAP	71	288	2
TAP	71	288	5
HLD	72	0	1	96
TAP	72	48	0
TAP	72	96	0
HLD	72	192	2	96
TAP	72	240	3
TAP	72	288	3
TAP	73	0	1
TAP	73	48	1
TAP	73	96	7
TAP	73	144	7
TAP	73	192	0
STR	73	288	6
SI_	73	288	6	96	48	2
STR	73	288	7
SI_	73	288	7	96	48	3
STR	74	96	0
SI_	74	96	0	96	48	4
STR	74	96	1
SI_	74	96	1	96	48	5
STR	74	288	0
SI_	74	288	0	96	48	4
STR	74	288	7
SI_	74	288	7	96	48	3
STR	75	96	2
SCL	75	96	2	96	120	5
TAP	75	96	5
TTP	75	192	0	C	1	M1
TAP	76	0	7
TAP	76	48	7
TAP	76	96	0
TAP	76	144	6
TAP	76	192	4
TAP	76	192	5
TAP	76	240	4
TAP	76	240	5
TAP	76	288	3
TAP	76	288	6
TAP	77	0	0
TAP	77	48	0
TAP	77	96	7
TAP	77	144	1
TAP	77	192	2
TAP	77	192	3
TAP	77	240	2
TAP	77	240	3
TAP	77	288	1
TAP	77	288	4
TAP	78	0	5
TAP	78	48	3
TAP	78	96	4
TAP	78	144	2
HLD	78	192	3	96
TAP	78	288	1
TAP	79	0	0
TAP	79	0	2
TAP	79	96	1
TAP	79	96	7
TAP	79	192	0
STR	79	192	6
SI_	79	192	6	96	48	3
XTP	79	288	7
TAP	80	0	0
TAP	80	48	0
TAP	80	96	7
TAP	80	144	1
TAP	80	192	2
TAP	80	192	3
TAP	80	240	2
TAP	80	240	3
TAP	80	288	1
TAP	80	288	4
TAP	81	0	7
TAP	81	48	7
TAP	81	96	0
TAP	81	144	6
TAP	81	192	4
TAP	81	192	5
TAP	81	240	4
TAP	81	240	5
TAP	81	288	3
TAP	81	288	6
TAP	82	0	2
TAP	82	48	4
TAP	82	96	3
TAP	82	144	5
HLD	82	192	4	96
TAP	82	288	6
TAP	83	0	5
TAP	83	0	7
TAP	83	96	0
TAP	83	96	6
STR	83	192	1
SI_	83	192	1	96	48	4
TAP	83	192	7
BRK	83	288	0
HLD	84	0	2	96
TAP	84	0	5
TAP	84	48	4
HLD	84	96	5	96
TAP	84	144	3
HLD	84	192	2	96
TAP	84	240	4
XTP	84	288	5
TAP	85	0	1
HLD	85	0	6	96
TAP	85	48	0
HLD	85	96	1	96
TAP	85	144	7
HLD	85	192	6	96
TAP	85	240	0
XTP	85	288	1
HLD	86	0	3	96
TAP	86	0	5
TAP	86	48	4
HLD	86	96	5	96
TAP	86	144	2
HLD	86	192	1	96
TAP	86	240	6
XST	86	288	7
SI_	86	288	7	96	48	2
STR	87	0	1
SI_	87	0	1	96	48	5
STR	87	96	4
SUL	87	96	4	96	96	3
TAP	87	192	0
HLD	88	0	1	96
TAP	88	0	4
TAP	88	48	3
HLD	88	96	4	96
TAP	88	144	2
HLD	88	192	1	96
TAP	88	240	3
BRK	88	288	4
TAP	89	0	3
HLD	89	0	6	96
TAP	89	48	4
HLD	89	96	3	96
TAP	89	144	5
HLD	89	192	6	96
TAP	89	240	4
BRK	89	288	3
TAP	90	0	4
TAP	90	0	5
TAP	90	48	4
TAP	90	48	5
TAP	90	96	3
TAP	90	96	6
TAP	90	144	3
TAP	90	144	6
TAP	90	192	2
TAP	90	192	7
TAP	90	240	2
TAP	90	240	7
TAP	90	288	0
TAP	90	288	1
XTP	91	0	3
XTP	91	0	7
XTP	91	48	3
XTP	91	48	7
XTP	91	96	2
XTP	91	96	6
XTP	91	144	2
XTP	91	144	6
XHO	91	192	1	96
XHO	91	192	5	96
BRK	92	0	0
BRK	92	0	4
BRK	92	48	0
BRK	92	48	4
BRK	92	96	1
BRK	92	96	5
BRK	92	144	1
BRK	92	144	5
BRK	92	192	2
BRK	92	192	6
HLD	93	0	6	72
HLD	93	72	5	72
TAP	93	144	4
HLD	93	192	3	72
HLD	93	264	2	72
TAP	93	336	1
HLD	94	0	3	72
HLD	94	72	4	72
TAP	94	144	5
TTP	94	192	2	B	0	M1
TTP	94	240	7	E	0	M1
TTP	94	288	0	C	0	M1
HLD	95	0	1	72
HLD	95	72	2	72
TAP	95	144	3
HLD	95	192	4	72
HLD	95	264	5	72
TAP	95	336	6
HLD	96	0	4	72
HLD	96	72	3	72
TAP	96	144	2
TTP	96	192	5	B	0	M1
TTP	96	240	1	E	0	M1
TTP	96	288	0	C	0	M1
TAP	97	0	1
TAP	97	0	6
TAP	97	48	1
TAP	97	48	6
TAP	97	96	2
TAP	97	96	5
TAP	97	144	2
TAP	97	144	5
STR	97	192	3
SI_	97	192	3	96	48	7
STR	97	192	4
SI_	97	192	4	96	48	0
TTP	98	0	2	B	0	M1
TTP	98	0	2	E	0	M1
TTP	98	0	5	B	0	M1
TTP	98	0	6	E	0	M1

T_REC_TAP	369
T_REC_BRK	23
T_REC_XTP	31
T_REC_HLD	87
T_REC_XHO	2
T_REC_STR	36
T_REC_BST	0
T_REC_XST	1
T_REC_TTP	27
T_REC_THO	1
T_REC_SLD	38
T_REC_ALL	615
T_NUM_TAP	464
T_NUM_BRK	23
T_NUM_HLD	90
T_NUM_SLD	38
T_NUM_ALL	615
T_JUDGE_TAP	487
T_JUDGE_HLD	242
T_JUDGE_SLD	38
T_JUDGE_ALL	767
TTM_EACHPAIRS	134
TTM_SCR_TAP	232000
TTM_SCR_BRK	59800
TTM_SCR_HLD	90000
TTM_SCR_SLD	57000
TTM_SCR_ALL	438800
TTM_SCR_S	423450
TTM_SCR_SS	436500
TTM_RAT_ACV	10052

