VERSION	0.00.00	1.03.00
FES_MODE	0
BPM_DEF	150.000	150.000	150.000	150.000
MET_DEF	4	4
RESOLUTION	384
CLK_DEF	384
COMPATIBLE_CODE	MA2

BPM	0	0	150.000
MET	0	0	4	4

TAP	1	0	5
TAP	1	96	5
TAP	1	192	4
TAP	1	288	4
TAP	2	0	3
TAP	2	192	3
TAP	2	192	4
TAP	3	0	1
TAP	3	96	1
TAP	3	192	0
TAP	3	288	0
TAP	4	0	7
TAP	4	192	0
TAP	4	192	7
TAP	5	0	1
TAP	5	0	6
TAP	5	96	1
TAP	5	96	6
XTP	5	192	1
XTP	5	192	6
HLD	6	0	2	192
TAP	6	192	3
HLD	7	0	5	192
TAP	7	192	4
TAP	8	0	3
TAP	8	96	3
TAP	8	192	2
TAP	9	0	4
TAP	9	96	4
TAP	9	192	5
HLD	10	0	6	192
TAP	10	192	7
HLD	11	0	1	192
TAP	11	192	0
HLD	12	0	6	192
TAP	12	192	7
TAP	13	0	0
TAP	13	96	0
TAP	13	192	1
TAP	13	192	6
HLD	14	0	2	96
HLD	14	0	3	96
HLD	14	192	3	96
HLD	14	192	4	96
TAP	15	0	5
TAP	15	96	5
XTP	15	192	4
XTP	15	192	5
TAP	16	0	2
TAP	16	96	2
TAP	16	192	2
TAP	16	192	3
TAP	17	0	5
TAP	17	96	5
TAP	17	192	4
TAP	17	192	5
TAP	18	0	2
TAP	18	96	3
TAP	18	192	4
TAP	18	288	5
TAP	19	0	6
TAP	19	96	6
TAP	19	192	4
TAP	19	192	6
TAP	20	0	6
TAP	20	96	6
TAP	20	192	6
TAP	20	192	7
TAP	21	0	1
TAP	21	96	1
TAP	21	192	0
TAP	21	192	1
XTP	22	0	6
XTP	22	0	7
XTP	22	192	0
XTP	22	192	1
BRK	23	0	0
BRK	23	0	7
XTP	23	192	1
XTP	23	192	6
TAP	24	0	2
TAP	24	96	3
TAP	24	192	4
TAP	24	192	5
TAP	24	288	4
TAP	24	288	5
TAP	25	0	6
TAP	25	96	7
XTP	25	192	0
XTP	25	192	7
XTP	25	288	1
XTP	25	288	6
TAP	26	0	2
TAP	26	96	1
TAP	26	96	3
TAP	26	192	5
TAP	26	288	4
TAP	26	288	6
TAP	27	0	3
TAP	27	0	4
TAP	27	96	3
TAP	27	96	4
XTP	27	192	2
XTP	27	192	5
TAP	28	0	2
TAP	28	96	3
TAP	28	192	4
TAP	28	192	5
TAP	28	288	4
TAP	28	288	5
TAP	29	0	6
TAP	29	96	7
XTP	29	192	0
XTP	29	192	7
XTP	29	288	1
XTP	29	288	6
TAP	30	0	2
TAP	30	96	1
TAP	30	96	3
TAP	30	192	5
TAP	30	288	4
TAP	30	288	6
TAP	31	0	7
TAP	31	96	0
TAP	31	96	6
XTP	31	192	1
XTP	31	192	5
TAP	32	0	1
TAP	32	48	1
TAP	32	96	1
TAP	32	192	2
TAP	32	288	3
TAP	33	0	4
TAP	33	48	4
TAP	33	96	4
TAP	33	192	5
TAP	33	288	6
TAP	34	0	7
TAP	34	48	7
TAP	34	96	7
TAP	34	192	0
TAP	34	288	1
TAP	35	0	2
TAP	35	0	3
TAP	35	96	2
TAP	35	96	3
BRK	35	192	1
BRK	35	192	4
TAP	36	0	5
TAP	36	48	5
TAP	36	96	5
TAP	36	192	6
TAP	36	288	7
TAP	37	0	0
TAP	37	48	0
TAP	37	96	0
TAP	37	192	1
TAP	37	288	2
TAP	38	0	3
TAP	38	0	4
TAP	38	96	4
TAP	38	96	5
TAP	38	192	3
TAP	38	192	4
TAP	38	288	2
TAP	38	288	3
TAP	39	0	4
TAP	39	48	4
TAP	39	96	3
TAP	39	96	4
XTP	39	192	2
XTP	39	192	5
HLD	40	0	1	192
HLD	40	192	2	192
HLD	41	0	3	192
TAP	41	192	4
HLD	42	0	6	192
HLD	42	192	5	192
HLD	43	0	4	192
TAP	43	192	3
TTP	44	0	3	E	0	L1
TTP	44	192	1	B	0	L1
TTP	44	192	2	E	0	L1
TTP	45	0	5	E	0	L1
TTP	45	192	6	B	0	L1
TTP	45	192	6	E	0	L1
TTP	46	0	4	E	0	L1
TTP	46	192	5	B	0	L1
TTP	46	192	6	B	0	L1
TTP	47	0	1	B	0	L1
TTP	47	0	2	B	0	L1
TTP	47	192	3	B	0	L1
TTP	47	192	4	B	0	L1
TTP	48	0	5	B	0	L1
TTP	48	192	7	B	0	L1
TTP	48	192	7	E	0	L1
TTP	49	0	0	B	0	L1
TTP	49	96	0	C	0	L1
TTP	49	192	4	B	0	L1
TTP	50	0	2	B	0	L1
TTP	50	192	0	B	0	L1
TTP	50	192	1	E	0	L1
TTP	51	0	7	B	0	L1
TTP	51	96	0	C	0	L1
TTP	51	192	3	B	0	L1
TTP	52	0	2	E	0	L1
TTP	52	96	1	B	0	L1
TTP	52	192	0	B	0	L1
TTP	53	0	7	B	0	L1
TTP	53	96	6	B	0	L1
TTP	53	192	6	E	0	L1
TTP	54	0	4	E	0	L1
TTP	54	96	3	B	0	L1
TTP	54	192	2	B	0	L1
TTP	55	0	4	B	0	L1
TTP	55	96	5	B	0	L1
TTP	55	192	6	E	0	L1
THO	56	0	0	384	C	0	L1
XTP	57	192	0
XTP	57	192	7
HLD	58	0	1	96
HLD	58	0	6	96
HLD	58	192	2	96
HLD	58	192	5	96
XTP	59	0	3
XTP	59	0	4
XTP	59	192	2
XTP	59	192	5
STR	60	0	6
SI_	60	0	6	96	192	3
TAP	61	0	2
TAP	61	96	2
TAP	61	192	1
STR	62	0	0
SI_	62	0	0	96	192	4
TAP	63	0	5
TAP	63	96	5
TAP	63	192	6
STR	64	0	7
SCL	64	0	7	96	192	4
STR	65	0	3
SCL	65	0	3	96	192	0
HLD	66	0	7	192
HLD	66	192	0	192
TAP	67	0	7
TAP	67	96	7
XTP	67	192	1
XTP	67	192	6
TAP	68	0	1
TAP	68	96	1
TAP	68	192	2
TAP	68	192	4
TAP	69	0	6
TAP	69	96	6
TAP	69	192	3
TAP	69	192	5
TAP	70	0	3
TAP	70	96	3
TAP	70	192	2
TAP	70	288	2
TAP	71	0	1
TAP	71	96	1
TAP	71	192	0
TAP	71	192	7
TAP	72	0	6
TAP	72	96	6
TAP	72	192	3
TAP	72	192	5
TAP	73	0	1
TAP	73	96	1
TAP	73	192	2
TAP	73	192	4
XTP	74	0	3
XTP	74	0	5
XTP	74	192	2
XTP	74	192	4
XHO	75	0	1	192
XHO	75	0	6	192
TAP	76	0	5
TAP	76	96	4
TAP	76	96	6
TAP	76	192	3
TAP	76	288	2
TAP	76	288	4
TAP	77	0	5
TAP	77	96	3
TAP	77	96	6
XTP	77	192	2
XTP	77	192	7
XTP	77	288	2
XTP	77	288	7
TAP	78	0	0
TAP	78	96	1
TAP	78	96	7
TAP	78	192	6
TAP	78	288	5
TAP	78	288	7
TAP	79	0	4
TAP	79	96	3
XTP	79	192	2
XTP	79	192	5
TAP	80	0	2
TAP	80	96	1
TAP	80	96	3
TAP	80	192	4
TAP	80	288	3
TAP	80	288	5
TAP	81	0	2
TAP	81	96	1
TAP	81	96	4
XTP	81	192	0
XTP	81	192	5
XTP	81	288	0
XTP	81	288	5
TAP	82	0	7
TAP	82	96	0
TAP	82	96	6
TAP	82	192	1
TAP	82	288	0
TAP	82	288	2
TAP	83	0	3
TAP	83	96	4
XTP	83	192	3
XTP	83	192	4
TAP	84	0	5
TAP	84	48	5
TAP	84	96	5
TAP	84	192	6
TAP	84	192	7
TAP	84	288	6
TAP	84	288	7
TAP	85	0	0
TAP	85	48	0
TAP	85	96	0
TAP	85	192	1
TAP	85	192	7
TAP	85	288	1
TAP	85	288	7
TAP	86	0	2
TAP	86	48	2
TAP	86	96	2
TAP	86	192	3
TAP	86	192	4
TAP	86	288	3
TAP	86	288	4
TAP	87	0	5
TAP	87	96	4
TAP	87	96	6
BRK	87	192	3
BRK	87	192	7
TAP	88	0	2
TAP	88	48	2
TAP	88	96	2
TAP	88	192	0
TAP	88	192	1
TAP	88	288	0
TAP	88	288	1
TAP	89	0	7
TAP	89	48	7
TAP	89	96	7
TAP	89	192	0
TAP	89	192	6
TAP	89	288	0
TAP	89	288	6
TAP	90	0	5
TAP	90	48	5
TAP	90	96	5
TAP	90	192	3
TAP	90	240	3
TAP	90	288	3
TAP	91	0	3
TAP	91	0	4
TAP	91	48	3
TAP	91	48	4
TAP	91	96	3
TAP	91	96	4
XTP	91	192	2
XTP	91	192	5
TAP	92	0	0
TAP	92	0	7
TAP	92	48	0
TAP	92	48	7
TAP	92	96	0
TAP	92	96	7
BRK	92	192	1
BRK	92	192	6
TAP	93	0	2
TAP	93	96	3
TAP	93	192	4
TAP	93	288	5
TAP	94	0	4
TAP	94	0	5
TAP	94	96	4
TAP	94	96	5
TAP	94	192	3
TAP	94	192	6
TAP	94	288	3
TAP	94	288	6
TAP	95	0	5
TAP	95	96	4
TAP	95	192	3
TAP	95	288	2
TAP	96	0	2
TAP	96	0	3
TAP	96	96	1
TAP	96	96	4
XTP	96	192	0
XTP	96	192	5
TAP	97	0	1
TAP	97	0	6
TAP	97	96	1
TAP	97	96	6
THO	97	192	0	192	C	1	L1

T_REC_TAP	283
T_REC_BRK	8
T_REC_XTP	52
T_REC_HLD	21
T_REC_XHO	2
T_REC_STR	4
T_REC_BST	0
T_REC_XST	0
T_REC_TTP	37
T_REC_THO	2
T_REC_SLD	4
T_REC_ALL	413
T_NUM_TAP	376
T_NUM_BRK	8
T_NUM_HLD	25
T_NUM_SLD	4
T_NUM_ALL	413
T_JUDGE_TAP	384
T_JUDGE_HLD	88
T_JUDGE_SLD	4
T_JUDGE_ALL	476
TTM_EACHPAIRS	103
TTM_SCR_TAP	188000
TTM_SCR_BRK	20800
TTM_SCR_HLD	25000
TTM_SCR_SLD	6000
TTM_SCR_ALL	239800
TTM_SCR_S	231850
TTM_SCR_SS	239000
TTM_RAT_ACV	10033

