VERSION	0.00.00	1.03.00
FES_MODE	0
BPM_DEF	150.000	150.000	150.000	150.000
MET_DEF	4	4
RESOLUTION	384
CLK_DEF	384
COMPATIBLE_CODE	MA2

BPM	0	0	150.000
MET	0	0	4	4

TAP	6	0	0
TAP	6	192	0
TAP	7	0	0
TAP	8	0	1
TAP	8	192	1
TAP	9	0	1
TAP	10	0	2
TAP	10	192	2
TAP	11	0	2
TAP	12	0	3
TAP	12	192	3
HLD	13	0	3	192
XTP	14	0	3
XTP	14	0	4
TAP	15	0	3
TAP	15	0	4
BRK	15	192	3
BRK	15	192	4
TAP	16	0	4
TAP	16	192	4
TAP	17	0	4
TAP	17	96	4
TAP	17	192	4
TAP	18	0	5
TAP	18	192	5
TAP	19	0	5
TAP	19	96	5
TAP	19	192	5
TAP	20	0	6
TAP	20	192	6
TAP	21	0	6
TAP	21	96	6
TAP	21	192	6
TAP	22	0	7
TAP	22	192	7
TAP	23	0	0
TAP	23	0	7
BRK	23	192	0
BRK	23	192	7
TAP	24	0	0
TAP	24	96	0
TAP	24	192	0
TAP	25	0	7
TAP	25	96	7
TAP	25	192	7
TAP	26	0	6
TAP	26	96	6
TAP	26	192	6
TAP	27	0	4
TAP	27	0	5
XTP	27	192	4
XTP	27	192	5
TAP	28	0	4
TAP	28	96	4
TAP	28	192	4
TAP	29	0	3
TAP	29	96	3
TAP	29	192	3
TAP	30	0	2
TAP	30	96	2
TAP	30	192	2
TAP	31	0	1
TAP	31	96	1
TAP	31	192	1
STR	32	0	0
SI_	32	0	0	96	288	4
TAP	34	0	6
TAP	34	192	6
TAP	35	0	7
TAP	35	96	7
TAP	35	192	0
TAP	35	192	7
STR	36	0	7
SI_	36	0	7	96	288	3
TAP	38	0	1
TAP	38	192	1
TAP	39	0	0
TAP	39	0	7
TAP	39	96	0
TAP	39	96	7
TAP	39	192	0
TAP	39	192	7
HLD	40	0	0	192
HLD	41	0	0	192
HLD	42	0	7	192
HLD	43	0	7	192
TTP	44	0	0	B	0	L1
TTP	45	0	1	B	0	L1
TTP	46	0	2	B	0	L1
TTP	47	0	3	B	0	L1
TTP	48	0	4	B	0	L1
TTP	49	0	5	B	0	L1
TTP	50	0	6	B	0	L1
TTP	51	0	7	B	0	L1
TTP	52	0	0	B	0	L1
TTP	52	0	1	B	0	L1
TTP	53	0	6	B	0	L1
TTP	53	0	7	B	0	L1
TTP	54	0	4	B	0	L1
TTP	54	0	5	B	0	L1
TTP	55	0	2	B	0	L1
TTP	55	0	3	B	0	L1
THO	56	0	0	384	C	1	L1
TAP	58	0	7
TAP	58	192	7
TAP	59	0	6
TAP	59	0	7
TAP	60	0	5
TAP	60	192	5
TAP	61	0	4
TAP	61	96	4
TAP	61	192	4
TAP	62	0	3
TAP	62	192	3
TAP	63	0	2
TAP	63	0	3
TAP	64	0	1
TAP	64	192	1
TAP	65	0	0
TAP	65	96	0
TAP	65	192	0
TAP	66	0	0
TAP	66	0	7
TAP	66	192	0
TAP	66	192	7
TAP	67	0	7
TAP	67	96	0
BRK	67	192	7
TAP	68	0	0
TAP	68	96	0
TAP	68	192	0
TAP	69	0	1
TAP	69	96	1
TAP	69	192	0
TAP	69	192	1
TAP	70	0	2
TAP	70	96	2
TAP	70	192	2
TAP	71	0	3
TAP	71	96	4
TAP	71	192	3
TAP	72	0	4
TAP	72	96	4
TAP	72	192	4
TAP	73	0	5
TAP	73	96	5
TAP	73	192	5
TAP	74	0	6
TAP	74	0	7
TAP	74	192	0
TAP	74	192	1
TAP	75	0	6
TAP	75	0	7
BRK	75	192	0
BRK	75	192	7
TAP	76	0	7
TAP	76	96	7
TAP	76	192	7
TAP	77	0	6
TAP	77	96	6
TAP	77	192	6
TAP	78	0	5
TAP	78	96	5
TAP	78	192	4
TAP	78	288	4
TAP	79	0	3
TAP	79	0	4
XTP	79	192	3
XTP	79	192	4
TAP	80	0	3
TAP	80	96	3
TAP	80	192	3
TAP	81	0	2
TAP	81	96	2
TAP	81	192	2
TAP	82	0	1
TAP	82	96	1
TAP	82	192	0
TAP	82	288	0
TAP	83	0	0
TAP	83	0	7
TAP	83	96	0
TAP	83	96	7
BRK	83	192	0
BRK	83	192	7
STR	84	0	0
SI_	84	0	0	96	288	4
TAP	86	0	6
TAP	86	96	6
TAP	86	192	6
TAP	87	0	7
TAP	87	96	7
XTP	87	192	0
XTP	87	192	7
STR	88	0	7
SI_	88	0	7	96	288	3
TAP	90	0	1
TAP	90	96	1
TAP	90	192	1
TAP	91	0	0
TAP	91	0	7
TAP	91	96	0
TAP	91	96	7
TAP	91	192	0
TAP	91	192	7
XTP	92	0	1
XTP	92	0	6
XTP	92	96	1
XTP	92	96	6
BRK	92	192	1
BRK	92	192	6
HLD	93	0	2	192
HLD	94	0	3	192
HLD	95	0	4	192
TAP	96	0	5
TAP	96	96	5
TAP	96	192	4
TAP	96	192	5
TAP	97	0	6
TAP	97	0	7
TAP	97	96	6
TAP	97	96	7
HLD	97	192	6	192
HLD	97	192	7	192

T_REC_TAP	166
T_REC_BRK	11
T_REC_XTP	12
T_REC_HLD	10
T_REC_XHO	0
T_REC_STR	4
T_REC_BST	0
T_REC_XST	0
T_REC_TTP	16
T_REC_THO	1
T_REC_SLD	4
T_REC_ALL	224
T_NUM_TAP	198
T_NUM_BRK	11
T_NUM_HLD	11
T_NUM_SLD	4
T_NUM_ALL	224
T_JUDGE_TAP	209
T_JUDGE_HLD	48
T_JUDGE_SLD	4
T_JUDGE_ALL	261
TTM_EACHPAIRS	36
TTM_SCR_TAP	99000
TTM_SCR_BRK	28600
TTM_SCR_HLD	11000
TTM_SCR_SLD	6000
TTM_SCR_ALL	144600
TTM_SCR_S	139200
TTM_SCR_SS	143500
TTM_RAT_ACV	10076

