VERSION	0.00.00	1.03.00
FES_MODE	0
BPM_DEF	176.000	176.000	176.000	176.000
MET_DEF	4	4
RESOLUTION	384
CLK_DEF	384
COMPATIBLE_CODE	MA2

BPM	0	0	176.000
MET	0	0	4	4

HLD	3	0	4	384
TAP	3	144	3
TAP	3	288	3
TAP	3	336	3
HLD	4	0	2	384
TAP	4	144	3
TAP	4	288	3
TAP	4	336	3
HLD	5	0	5	528
TAP	5	144	4
TAP	5	288	4
TAP	5	336	4
HLD	6	0	3	144
TAP	6	240	2
TAP	6	240	4
TAP	6	288	2
TAP	6	288	4
TAP	7	0	6
TAP	7	48	4
TAP	7	96	5
TAP	7	144	2
TAP	7	192	2
TAP	7	240	4
TAP	7	288	4
TAP	7	336	0
TAP	8	0	1
TAP	8	48	4
TAP	8	96	3
TAP	8	144	5
TAP	8	192	2
TAP	8	240	2
TAP	8	288	7
TAP	8	336	6
TAP	9	0	2
TAP	9	48	4
TAP	9	96	3
TAP	9	144	5
TAP	9	192	6
TAP	9	240	1
TAP	9	288	2
TAP	9	336	5
TAP	10	0	3
TAP	10	48	3
TAP	10	96	4
TAP	10	144	2
TAP	10	192	6
TAP	10	224	4
TAP	10	256	5
TAP	10	288	1
TAP	10	320	3
TAP	10	352	2
HLD	11	0	4	336
STR	11	0	6
SI_	11	0	6	96	192	3
STR	12	0	2
SI_	12	0	2	96	192	5
HLD	12	0	4	336
HLD	13	0	4	336
STR	13	0	6
SI_	13	0	6	96	192	2
HLD	14	0	1	96
HLD	14	0	4	96
TAP	14	192	2
TAP	14	224	6
HLD	14	256	4	64
TAP	14	320	5
TAP	14	352	3
HLD	15	0	4	96
TAP	15	96	3
TAP	15	144	3
HLD	15	192	5	96
TAP	15	288	4
TAP	15	336	4
HLD	16	0	6	96
TAP	16	96	5
TAP	16	144	5
HLD	16	192	7	96
TAP	16	288	0
TAP	16	336	0
BRK	17	0	0
BRK	17	0	7
TAP	17	96	0
TAP	17	192	1
TAP	17	288	1
TAP	18	0	2
TAP	18	96	2
TAP	18	192	2
TAP	18	192	6
TAP	18	240	4
TAP	18	256	3
TAP	18	272	5
BRK	18	288	4
TAP	19	0	6
STR	19	48	6
SI_	19	48	6	96	48	4
STR	19	144	6
SI_	19	144	6	96	48	2
STR	19	240	3
SI_	19	240	3	96	48	6
STR	19	336	1
SI_	19	336	1	96	48	7
STR	20	48	5
SI_	20	48	5	96	48	3
STR	20	144	1
SI_	20	144	1	96	48	5
HLD	20	240	4	96
TAP	20	336	3
STR	21	48	1
SI_	21	48	1	96	48	3
STR	21	96	1
SI_	21	96	1	96	48	5
TAP	21	240	4
TAP	21	288	4
TAP	22	0	6
STR	22	48	6
SI_	22	48	6	96	48	4
STR	22	144	6
SI_	22	144	6	96	48	2
STR	22	240	3
SI_	22	240	3	96	48	0
TAP	22	336	5
TAP	23	48	4
TAP	23	96	5
STR	23	144	6
SCR	23	144	6	96	48	1
STR	23	240	2
SCR	23	240	2	96	48	5
STR	23	336	7
SCL	23	336	7	96	48	4
TAP	24	48	1
TAP	24	96	2
STR	24	144	3
SCL	24	144	3	96	288	4
TTP	24	240	0	C	1	M1
TAP	25	240	0
TAP	25	240	7
TAP	25	288	1
TAP	25	288	6
TAP	26	0	2
TAP	26	24	4
TAP	26	48	3
TAP	26	72	5
TAP	26	96	3
TAP	26	120	5
TAP	26	144	2
TAP	26	168	4
TAP	26	192	2
TAP	26	216	5
TAP	26	240	1
TAP	26	264	6
TAP	26	288	0
BRK	27	0	1
STR	27	48	1
SI_	27	48	1	96	48	3
STR	27	144	1
SI_	27	144	1	96	48	5
STR	27	240	4
SI_	27	240	4	96	48	1
STR	27	336	6
SI_	27	336	6	96	48	0
STR	28	48	2
SI_	28	48	2	96	48	4
STR	28	144	6
SI_	28	144	6	96	48	2
HLD	28	240	3	96
TAP	28	336	4
TAP	29	48	5
TAP	29	96	4
STR	29	144	6
SI_	29	144	6	96	48	2
TAP	29	192	3
TAP	29	240	3
TAP	29	336	1
TAP	30	0	3
STR	30	48	1
SI_	30	48	1	96	48	3
STR	30	144	1
SI_	30	144	1	96	48	5
STR	30	240	4
SI_	30	240	4	96	48	7
TAP	30	336	2
TAP	31	48	3
TAP	31	96	2
STR	31	144	1
SCL	31	144	1	96	48	6
STR	31	240	5
SCL	31	240	5	96	48	2
STR	31	336	0
SCR	31	336	0	96	48	3
TAP	32	48	6
TAP	32	96	5
STR	32	144	4
SCR	32	144	4	96	288	3
TTP	32	240	0	C	1	M1
TAP	33	240	0
TAP	33	240	7
TAP	33	288	1
TAP	33	288	6
TAP	34	0	2
TAP	34	24	4
TAP	34	48	3
TAP	34	72	5
TAP	34	96	3
TAP	34	120	4
TAP	34	144	2
TAP	34	168	3
TAP	34	192	2
TAP	34	216	4
TAP	34	240	1
TAP	34	264	5
TAP	34	288	7
BRK	35	0	3
BRK	35	0	6
TAP	35	48	2
TAP	35	72	3
TAP	35	96	2
TAP	35	144	1
TAP	35	144	4
TAP	35	192	5
TAP	35	216	4
TAP	35	240	5
TAP	35	288	3
TAP	35	288	6
TAP	35	336	5
TAP	36	0	1
TAP	36	0	5
TAP	36	48	6
TAP	36	72	7
TAP	36	96	6
TAP	36	144	0
TAP	36	144	5
TAP	36	192	1
TAP	36	216	0
TAP	36	240	1
TAP	36	288	2
TAP	36	288	7
TAP	36	336	1
TAP	37	0	1
TAP	37	0	5
TAP	37	48	2
TAP	37	72	3
TAP	37	96	1
TAP	37	144	0
TAP	37	144	4
TAP	37	192	5
TAP	37	216	4
TAP	37	240	6
TAP	37	288	3
TAP	37	288	7
TAP	37	336	2
TAP	38	0	2
TAP	38	0	4
TAP	38	48	1
TAP	38	72	0
TAP	38	96	2
TAP	38	144	3
TAP	38	144	7
TAP	38	192	6
TAP	38	216	7
TAP	38	240	5
TAP	38	288	0
TAP	38	288	4
TAP	38	336	1
TAP	39	0	1
TAP	39	0	7
TAP	39	48	6
TAP	39	72	2
TAP	39	96	5
TAP	39	120	3
TAP	39	144	4
TAP	39	192	2
TAP	39	216	3
TAP	39	240	1
TAP	39	264	4
TAP	39	288	0
TAP	39	336	6
TAP	39	360	7
TAP	40	0	6
TAP	40	48	1
TAP	40	72	5
TAP	40	96	2
TAP	40	120	4
TAP	40	144	3
TAP	40	192	5
TAP	40	216	4
TAP	40	240	6
TAP	40	264	3
TAP	40	288	7
TAP	40	336	1
TAP	40	360	0
TAP	41	0	1
TAP	41	48	4
TAP	41	72	3
TAP	41	96	5
TAP	41	120	4
TAP	41	144	6
TAP	41	192	3
TAP	41	216	4
TAP	41	240	2
TAP	41	264	3
TAP	41	288	1
TAP	41	336	0
TAP	42	0	0
TAP	42	0	7
TAP	42	48	6
TAP	42	72	1
TAP	42	96	6
TAP	42	144	2
TAP	42	168	3
TAP	42	216	5
TAP	42	240	4
TAP	42	288	3
TAP	42	288	6
TAP	43	0	1
TAP	43	0	4
TAP	43	48	2
TAP	43	72	3
TAP	43	96	2
TAP	43	144	0
TAP	43	144	5
TAP	43	192	6
TAP	43	216	7
TAP	43	240	6
TAP	43	288	6
TAP	43	312	4
TAP	43	336	5
TAP	43	360	3
TAP	44	0	4
TAP	44	48	2
TAP	44	72	3
TAP	44	96	1
TAP	44	144	0
TAP	44	144	4
TAP	44	192	1
TAP	44	216	3
TAP	44	240	2
TAP	44	288	4
TAP	44	312	3
TAP	44	336	4
TAP	44	360	3
TAP	45	0	4
TAP	45	48	5
TAP	45	72	4
TAP	45	96	5
TAP	45	144	2
TAP	45	144	7
TAP	45	192	1
TAP	45	216	0
TAP	45	240	1
TAP	45	288	1
TAP	45	312	3
TAP	45	336	2
TAP	45	360	4
TAP	46	0	3
TAP	46	48	5
TAP	46	72	4
TAP	46	96	6
TAP	46	144	3
TAP	46	144	7
TAP	46	192	6
TAP	46	216	4
TAP	46	240	5
TAP	46	288	3
TAP	46	312	4
TAP	46	336	3
TAP	46	360	4
TAP	47	0	2
TAP	47	24	3
TAP	47	48	1
TAP	47	72	3
TAP	47	96	0
TAP	47	144	6
TAP	47	168	7
TAP	47	192	5
TAP	47	216	7
TAP	47	240	4
TAP	47	288	0
TAP	47	288	5
TAP	47	336	1
TAP	47	336	6
STR	48	0	2
SI_	48	0	2	96	48	7
TAP	48	0	7
TAP	48	96	5
STR	48	144	5
SI_	48	144	5	96	48	2
TAP	48	240	1
HLD	48	288	1	96
STR	49	0	0
SCL	49	0	0	96	96	4
STR	49	96	4
SCL	49	96	4	96	96	0
STR	49	192	0
SCL	49	192	0	96	192	0
TTP	49	288	0	C	0	M1
STR	50	0	0
SCL	50	0	0	96	84	4
TAP	50	96	4
TAP	50	192	3
TAP	50	204	2
TAP	50	216	1
TAP	50	228	0
TAP	50	240	7
TAP	50	252	6
TAP	50	264	5
TAP	50	276	4
BRK	50	288	0
STR	51	0	1
SI_	51	0	1	96	48	3
STR	51	48	3
SLL	51	48	3	96	96	7
STR	51	96	1
SLL	51	96	1	96	96	5
STR	51	144	7
SI_	51	144	7	96	48	5
STR	51	240	3
SI_	51	240	3	96	48	1
SI_	51	240	3	96	48	7
STR	51	336	3
SI_	51	336	3	96	48	5
TAP	52	48	3
TAP	52	48	5
TAP	52	144	2
STR	52	144	7
SI_	52	144	7	96	48	3
TAP	52	240	1
STR	52	240	7
SI_	52	240	7	96	48	1
SI_	52	240	7	96	48	5
TAP	52	336	7
TAP	53	48	0
TAP	53	48	4
TAP	53	96	1
TAP	53	144	2
STR	53	144	6
SLL	53	144	6	96	48	2
STR	53	240	0
SXL	53	240	0	96	192	5
TAP	53	336	7
BRK	54	0	7
TAP	54	288	6
STR	54	336	4
SI_	54	336	4	96	48	7
STR	54	336	6
SI_	54	336	6	96	24	4
XTP	55	48	4
STR	55	48	6
SI_	55	48	6	96	48	2
TAP	55	144	0
XTP	55	144	6
STR	55	240	1
SI_	55	240	1	96	48	5
STR	55	336	1
SI_	55	336	1	96	24	3
XST	55	336	3
SI_	55	336	3	96	48	0
XTP	56	48	1
TAP	56	48	3
STR	56	144	7
SLL	56	144	7	96	48	3
SLR	56	144	7	96	48	3
TAP	56	240	7
BRK	56	336	1
BRK	56	336	5
HLD	57	48	7	48
HLD	57	96	6	48
HLD	57	144	5	48
HLD	57	192	4	48
HLD	57	240	3	48
HLD	57	288	2	48
TAP	57	336	1
TAP	58	0	0
TAP	58	0	7
TAP	58	48	1
TAP	58	64	3
TAP	58	96	2
TAP	58	144	3
TAP	58	144	4
TAP	58	192	5
TAP	58	216	4
TAP	58	240	6
BRK	58	288	3
BRK	58	288	7
STR	59	0	6
SCL	59	0	6	96	48	4
STR	59	48	4
SCR	59	48	4	96	144	2
STR	59	96	6
SCR	59	96	6	96	96	2
STR	59	144	0
SCR	59	144	0	96	48	2
STR	59	240	4
SI_	59	240	4	96	48	0
SCR	59	240	4	96	48	6
STR	59	336	4
SCL	59	336	4	96	48	2
TAP	60	48	2
TAP	60	48	4
STR	60	144	0
SI_	60	144	0	96	48	4
TAP	60	144	5
STR	60	240	0
SCL	60	240	0	96	48	6
SCR	60	240	0	96	48	2
TAP	60	240	6
TAP	60	336	0
TAP	61	48	3
TAP	61	48	7
TAP	61	96	6
STR	61	144	1
SCR	61	144	1	96	48	5
TAP	61	144	5
STR	61	240	7
SXR	61	240	7	96	192	2
TAP	61	336	0
BRK	62	0	0
TAP	62	288	1
STR	62	336	1
SCR	62	336	1	96	24	3
STR	62	336	3
SI_	62	336	3	96	48	7
STR	63	48	1
SI_	63	48	1	96	48	5
XTP	63	48	3
XTP	63	144	1
TAP	63	144	5
STR	63	240	6
SI_	63	240	6	96	48	2
XST	63	336	4
SI_	63	336	4	96	48	0
STR	63	336	6
SCL	63	336	6	96	24	4
TAP	64	48	4
XTP	64	48	6
STR	64	144	7
SCL	64	144	7	96	48	3
SCR	64	144	7	96	48	3
TAP	64	240	7
BRK	64	336	1
BRK	64	336	5
HLD	65	48	0	48
HLD	65	96	1	48
TAP	65	144	2
HLD	65	192	4	48
HLD	65	240	5	48
STR	65	288	6
SI_	65	288	6	96	48	0
STR	65	336	1
SI_	65	336	1	96	48	3
STR	66	0	6
SI_	66	0	6	96	48	4
STR	66	48	1
SI_	66	48	1	96	48	5
STR	66	96	6
SI_	66	96	6	96	48	0
STR	66	144	1
SI_	66	144	1	96	48	7
STR	66	192	6
SI_	66	192	6	96	48	2
TAP	66	240	1
TAP	66	288	6
BRK	67	0	0
BST	67	0	3
SI_	67	0	3	96	1344	0
TAP	67	192	7
TAP	68	0	6
TAP	68	192	5
TAP	69	0	4
TAP	69	192	3
TAP	70	0	2
TAP	70	192	1
TAP	71	0	0
STR	71	0	4
SI_	71	0	4	96	1248	7
TAP	71	192	7
TAP	72	0	6
TAP	72	192	5
TTP	73	0	4	B	0	M1
TTP	73	1	5	E	0	M1
TTP	73	192	3	E	0	M1
TTP	73	193	2	B	0	M1
TTP	74	0	1	B	0	M1
TTP	74	1	1	E	0	M1
TAP	74	192	4
TAP	74	240	4
TAP	74	288	3
TAP	74	288	5
TAP	74	336	2
TAP	74	336	4
HLD	75	0	1	240
TAP	75	0	3
TAP	75	144	3
HLD	75	288	3	96
TAP	76	0	0
TAP	76	12	7
TAP	76	24	6
HLD	76	36	5	204
TAP	76	144	4
TAP	76	240	4
HLD	76	288	4	96
TAP	77	0	7
TAP	77	12	0
TAP	77	24	1
HLD	77	36	2	204
TAP	77	144	3
HLD	77	288	3	96
TAP	78	0	0
TAP	78	12	7
TAP	78	24	6
HLD	78	36	5	228
TAP	78	144	4
TAP	78	240	4
TAP	78	288	4
TAP	79	0	0
TAP	79	0	4
TAP	79	12	1
TAP	79	12	5
TAP	79	24	2
TAP	79	24	6
HLD	79	36	3	348
HLD	79	36	7	348
TAP	80	12	2
TAP	80	12	6
TAP	80	24	1
TAP	80	24	5
HLD	80	36	0	204
TAP	80	36	4
TAP	80	240	7
TAP	80	288	1
TAP	80	288	6
BRK	81	0	7
TAP	81	24	0
TAP	81	48	6
TAP	81	96	1
TAP	81	96	5
TAP	81	144	2
TAP	81	168	4
TAP	81	192	3
TAP	81	216	5
TAP	81	240	2
TAP	81	264	6
TAP	81	288	1
TAP	81	312	5
TAP	81	336	0
TAP	81	360	4
TAP	82	0	1
TAP	82	24	3
TAP	82	48	2
TAP	82	72	4
TAP	82	96	3
TAP	82	120	4
TAP	82	144	2
TAP	82	168	3
TAP	82	192	1
TAP	82	216	7
TAP	82	240	0
TAP	82	264	6
TAP	82	288	4
TAP	82	312	5
TAP	82	336	3
TAP	82	360	4
TAP	83	0	0
TAP	83	32	0
TAP	83	64	2
TAP	83	96	7
TAP	83	128	7
TAP	83	160	5
TAP	83	192	0
TAP	83	216	1
TAP	83	240	2
TAP	83	264	3
TAP	83	288	6
TAP	83	312	5
TAP	83	336	4
TAP	83	360	3
BRK	84	0	7
TAP	84	24	6
TAP	84	48	0
TAP	84	96	1
TAP	84	96	5
TAP	84	144	6
TAP	84	168	4
TAP	84	192	5
TAP	84	216	2
TAP	84	240	3
TAP	84	264	1
TAP	84	288	6
TAP	84	312	4
TAP	84	336	6
TAP	84	360	4
TAP	85	0	6
TAP	85	24	5
TAP	85	48	6
TAP	85	72	7
TAP	85	96	6
TAP	85	120	0
TAP	85	144	5
TAP	85	168	1
TAP	85	192	4
TAP	85	216	1
TAP	85	240	3
TAP	85	264	1
TAP	85	288	2
TAP	85	312	1
TAP	85	336	0
TAP	85	360	1
TAP	86	0	7
TAP	86	24	3
TAP	86	48	7
TAP	86	72	3
TAP	86	96	5
TAP	86	120	1
TAP	86	144	5
TAP	86	168	1
TAP	86	192	4
TAP	86	216	2
TAP	86	240	5
TAP	86	264	3
TAP	86	288	4
TAP	86	336	1
TAP	86	336	6
BRK	87	0	2
TAP	87	24	3
TAP	87	48	1
TAP	87	96	0
TAP	87	96	4
TAP	87	144	5
TAP	87	168	4
TAP	87	192	6
TAP	87	240	3
TAP	87	240	7
TAP	87	288	6
TAP	87	312	7
TAP	87	336	5
TAP	87	360	0
TAP	88	0	4
TAP	88	24	1
TAP	88	48	0
TAP	88	72	2
TAP	88	96	7
TAP	88	120	3
TAP	88	144	6
HLD	88	168	6	48
TAP	88	216	4
HLD	88	240	4	48
TAP	88	288	3
HLD	88	312	3	48
TAP	88	360	1
TAP	89	0	1
TAP	89	48	0
TAP	89	48	1
TAP	89	96	2
TAP	89	120	7
TAP	89	144	1
TAP	89	168	3
TAP	89	192	1
TAP	89	216	3
TAP	89	240	1
TAP	89	264	3
TAP	89	288	5
TAP	89	312	3
TAP	89	336	5
TAP	89	360	3
BRK	90	0	5
TAP	90	24	3
TAP	90	48	0
TAP	90	72	6
TAP	90	96	1
TAP	90	120	5
BRK	90	144	2
TAP	90	168	3
TAP	90	192	1
TAP	90	216	4
TAP	90	240	2
TAP	90	264	5
TAP	90	288	1
TAP	90	312	0
TAP	90	336	2
TAP	90	360	6
TAP	91	0	4
TAP	91	24	6
TAP	91	48	4
TAP	91	72	3
TAP	91	96	4
TAP	91	120	3
TAP	91	144	4
TAP	91	168	6
BRK	91	192	0
TAP	91	216	2
TAP	91	240	0
TAP	91	264	2
TAP	91	288	0
TAP	91	312	7
BRK	91	336	0
TAP	91	360	6
TAP	92	0	4
TAP	92	24	5
TAP	92	48	2
TAP	92	72	4
TAP	92	96	3
TAP	92	120	7
TAP	92	144	4
TAP	92	168	7
TAP	92	192	0
TAP	92	216	3
TAP	92	240	0
TAP	92	264	2
TAP	92	288	1
TAP	92	312	5
TAP	92	336	4
TAP	92	360	6
BST	93	0	0
SCR	93	0	0	96	192	6
STR	93	192	6
SCR	93	192	6	96	96	1
STR	93	288	1
SCL	93	288	1	96	192	3
TTP	94	0	0	C	1	M1
TAP	94	288	2
TAP	94	288	5
BRK	95	0	1
TAP	95	24	6
TAP	95	48	2
TAP	95	72	5
TAP	95	96	3
TAP	95	120	4
BRK	95	144	0
TAP	95	168	7
TAP	95	192	1
TAP	95	216	6
TAP	95	240	2
TAP	95	264	5
BRK	95	288	0
TAP	95	312	7
TAP	95	336	0
TAP	95	360	7
BRK	96	0	1
TAP	96	16	2
TAP	96	32	3
BRK	96	48	7
TAP	96	64	6
TAP	96	80	5
BRK	96	96	0
TAP	96	112	1
TAP	96	128	2
BRK	96	144	6
TAP	96	160	5
TAP	96	176	4
BRK	96	192	1
TAP	96	204	2
TAP	96	216	3
TAP	96	228	4
TAP	96	240	5
TAP	96	252	6
TAP	96	264	7
TAP	96	276	0
BRK	96	288	1
XTP	96	288	6
TAP	96	300	5
TAP	96	312	4
TAP	96	324	3
TAP	96	336	2
TAP	96	348	1
TAP	96	360	0
TAP	96	372	7
BRK	97	0	2
BRK	97	0	6
TAP	97	8	1
TAP	97	8	5
TAP	97	16	0
TAP	97	16	4
STR	97	24	3
SUR	97	24	3	96	48	7
STR	97	24	7
SUR	97	24	7	96	48	3
BST	97	120	3
SUL	97	120	3	96	1512	1
BST	97	120	7
SUL	97	120	7	96	1512	5
TTP	97	124	0	B	0	M1
TTP	97	124	0	C	1	M1
TTP	97	124	1	B	0	M1
TTP	97	124	2	B	0	M1
TTP	97	124	3	B	0	M1
TTP	97	124	4	B	0	M1
TTP	97	124	5	B	0	M1
TTP	97	124	6	B	0	M1
TTP	97	124	7	B	0	M1

T_REC_TAP	606
T_REC_BRK	34
T_REC_XTP	7
T_REC_HLD	40
T_REC_XHO	0
T_REC_STR	82
T_REC_BST	4
T_REC_XST	2
T_REC_TTP	19
T_REC_THO	0
T_REC_SLD	94
T_REC_ALL	888
T_NUM_TAP	716
T_NUM_BRK	38
T_NUM_HLD	40
T_NUM_SLD	94
T_NUM_ALL	888
T_JUDGE_TAP	754
T_JUDGE_HLD	131
T_JUDGE_SLD	94
T_JUDGE_ALL	979
TTM_EACHPAIRS	86
TTM_SCR_TAP	358000
TTM_SCR_BRK	98800
TTM_SCR_HLD	40000
TTM_SCR_SLD	141000
TTM_SCR_ALL	637800
TTM_SCR_S	615000
TTM_SCR_SS	634000
TTM_RAT_ACV	10059

