VERSION	0.00.00	1.03.00
FES_MODE	0
BPM_DEF	176.000	176.000	176.000	176.000
MET_DEF	4	4
RESOLUTION	384
CLK_DEF	384
COMPATIBLE_CODE	MA2

BPM	0	0	176.000
MET	0	0	4	4

TAP	3	0	1
HLD	3	0	6	288
TAP	3	288	4
HLD	4	0	4	288
TAP	4	288	3
HLD	5	0	3	288
TAP	5	288	1
HLD	6	0	1	288
TAP	6	288	5
TAP	7	0	4
TAP	7	48	4
TAP	7	96	3
TAP	7	144	5
TAP	7	192	4
TAP	7	240	3
TAP	7	288	6
TAP	7	336	4
TAP	8	0	3
TAP	8	48	3
TAP	8	96	5
TAP	8	144	2
TAP	8	192	1
TAP	8	240	4
TAP	8	288	5
TAP	8	336	3
TAP	9	0	6
TAP	9	48	5
TAP	9	96	4
TAP	9	144	4
TAP	9	192	6
TAP	9	240	3
TAP	9	288	2
TAP	9	336	4
TAP	10	0	1
TAP	10	48	1
STR	10	96	6
SUL	10	96	6	96	192	4
TAP	10	144	6
HLD	11	0	0	384
HLD	12	0	1	384
HLD	13	0	2	384
TAP	14	0	3
TAP	14	192	4
TAP	14	224	4
TAP	14	256	3
TAP	14	320	2
TAP	14	320	5
TAP	14	352	2
TAP	14	352	5
TAP	15	0	2
HLD	15	0	5	192
HLD	15	192	6	192
HLD	16	0	7	1008
HLD	16	192	0	816
TAP	18	288	1
TAP	18	288	6
TAP	19	0	2
HLD	19	48	2	48
TAP	19	96	3
TAP	19	144	4
TAP	19	192	3
TAP	19	192	5
HLD	19	240	6	48
TAP	19	288	4
TAP	19	336	4
TAP	20	0	7
TAP	20	48	7
TAP	20	96	0
TAP	20	144	1
TAP	20	144	3
TAP	20	192	4
TAP	20	240	4
TAP	20	288	2
TAP	20	336	1
TAP	21	0	5
HLD	21	48	5	48
TAP	21	96	4
TAP	21	144	3
TAP	21	192	2
TAP	21	192	4
HLD	21	240	1	48
TAP	21	288	3
TAP	21	336	3
TAP	22	0	0
TAP	22	48	0
TAP	22	96	7
TAP	22	144	4
TAP	22	144	6
TAP	22	192	3
TAP	22	240	3
TAP	22	288	5
TAP	22	336	6
TAP	23	0	6
TAP	23	48	0
TAP	23	96	0
TAP	23	144	3
TAP	23	192	3
TAP	23	240	2
TAP	23	288	1
TAP	23	336	7
TAP	24	0	7
TAP	24	48	2
TAP	24	96	5
TAP	24	144	4
TAP	24	192	3
TAP	24	240	3
TAP	24	288	5
TAP	24	336	6
TAP	25	0	4
TAP	25	0	7
TAP	25	48	3
TAP	25	96	3
TAP	25	144	2
TAP	25	144	5
TAP	25	192	4
TAP	25	240	4
TAP	25	288	2
TAP	25	336	1
TAP	26	0	0
TAP	26	0	3
TAP	26	48	4
TAP	26	96	4
TAP	26	144	2
TAP	26	144	5
TAP	26	192	3
TAP	26	240	2
TAP	26	288	1
TAP	26	336	4
TAP	27	0	5
HLD	27	48	5	48
TAP	27	96	4
TAP	27	144	3
TAP	27	192	2
TAP	27	192	4
HLD	27	240	1	48
TAP	27	288	3
TAP	27	336	3
TAP	28	0	0
TAP	28	48	0
TAP	28	96	7
TAP	28	144	4
TAP	28	144	6
TAP	28	192	3
TAP	28	240	3
TAP	28	288	5
TAP	28	336	6
TAP	29	0	2
HLD	29	48	2	48
TAP	29	96	3
TAP	29	144	4
TAP	29	192	3
TAP	29	192	5
HLD	29	240	6	48
TAP	29	288	4
TAP	29	336	4
TAP	30	0	7
TAP	30	48	7
TAP	30	96	0
TAP	30	144	1
TAP	30	144	3
TAP	30	192	4
TAP	30	240	4
TAP	30	288	2
TAP	30	336	1
TAP	31	0	1
TAP	31	48	7
TAP	31	96	7
TAP	31	144	4
TAP	31	192	4
TAP	31	240	5
TAP	31	288	6
TAP	31	336	0
TAP	32	0	0
TAP	32	48	5
TAP	32	96	2
TAP	32	144	3
TAP	32	192	4
TAP	32	240	4
TAP	32	288	2
TAP	32	336	1
TAP	33	0	0
TAP	33	0	3
TAP	33	48	4
TAP	33	96	4
TAP	33	144	2
TAP	33	144	5
TAP	33	192	3
TAP	33	240	3
TAP	33	288	5
TAP	33	336	6
TAP	34	0	4
TAP	34	0	7
TAP	34	48	3
TAP	34	96	3
TAP	34	144	2
TAP	34	144	5
TAP	34	192	2
TAP	34	192	5
TAP	34	240	3
TAP	34	240	4
TAP	34	288	3
TAP	34	288	4
STR	35	0	6
SCL	35	0	6	96	144	2
TAP	35	288	0
HLD	35	336	0	192
TAP	36	144	3
TAP	36	192	3
TAP	36	288	2
TAP	36	288	4
STR	37	0	1
SCR	37	0	1	96	144	5
TAP	37	288	7
HLD	37	336	7	192
TAP	38	144	4
TAP	38	192	4
TAP	38	288	3
TAP	38	288	5
TAP	39	0	1
TAP	39	48	2
TAP	39	144	1
TAP	39	144	3
TAP	39	240	5
TAP	39	336	4
HLD	39	336	6	96
TAP	40	48	5
TAP	40	96	4
HLD	40	192	7	96
HLD	40	288	5	96
HLD	41	0	3	96
HLD	41	96	1	96
HLD	41	192	7	96
STR	41	288	4
SUL	41	288	4	96	192	3
TAP	41	336	4
TAP	42	288	3
TAP	42	288	4
STR	43	0	2
SCL	43	0	2	96	144	6
TAP	43	288	4
HLD	43	336	4	192
TAP	44	144	2
TAP	44	192	2
TAP	44	288	1
TAP	44	288	6
STR	45	0	5
SCR	45	0	5	96	144	1
TAP	45	288	3
HLD	45	336	3	192
TAP	46	144	5
TAP	46	192	5
TAP	46	288	2
TAP	46	288	6
TAP	47	0	6
TAP	47	48	5
TAP	47	144	4
TAP	47	144	6
TAP	47	240	1
TAP	47	288	2
TAP	47	336	3
HLD	48	0	4	144
HLD	48	144	0	144
STR	48	288	2
SCL	48	288	2	96	384	3
TAP	50	192	0
TAP	50	216	7
TAP	50	240	0
BRK	50	288	1
BRK	50	288	6
TAP	51	0	2
TAP	51	0	4
TAP	51	48	5
TAP	51	72	4
TAP	51	96	6
TAP	51	144	0
TAP	51	192	0
TAP	51	240	3
TAP	51	288	5
TAP	51	336	2
TAP	52	0	1
TAP	52	48	7
TAP	52	96	7
TAP	52	144	5
TAP	52	192	4
TAP	52	240	3
TAP	52	288	3
TAP	52	336	4
TAP	53	0	3
TAP	53	0	5
TAP	53	48	2
TAP	53	72	3
TAP	53	96	1
TAP	53	144	7
TAP	53	192	7
TAP	53	240	4
TAP	53	288	2
TAP	53	336	5
TAP	54	0	6
TAP	54	48	0
TAP	54	96	3
TAP	54	144	4
TAP	54	192	6
BRK	54	240	7
BRK	54	288	7
TAP	54	336	2
TAP	54	336	6
TAP	55	0	1
HLD	55	48	0	48
HLD	55	96	3	48
TAP	55	144	0
TAP	55	192	0
TAP	55	240	1
TAP	55	240	5
TAP	55	288	6
HLD	55	336	7	48
HLD	56	0	4	48
TAP	56	48	7
TAP	56	96	5
TAP	56	144	4
TAP	56	192	3
TAP	56	240	2
TAP	56	288	2
TAP	56	336	4
TAP	57	0	3
TAP	57	0	5
TAP	57	48	6
TAP	57	96	7
TAP	57	144	0
TAP	57	192	2
TAP	57	192	4
TAP	57	240	1
TAP	57	288	0
TAP	57	336	7
TAP	58	0	3
TAP	58	0	5
TAP	58	48	6
TAP	58	96	7
TAP	58	144	0
TAP	58	192	2
TAP	58	192	4
TAP	58	240	1
TAP	58	288	0
TAP	58	288	7
TAP	58	336	6
TAP	59	0	3
TAP	59	0	5
TAP	59	48	2
TAP	59	72	3
TAP	59	96	1
TAP	59	144	7
TAP	59	192	7
TAP	59	240	5
TAP	59	288	3
TAP	59	336	5
TAP	59	360	4
TAP	60	0	6
TAP	60	48	0
TAP	60	96	0
TAP	60	144	2
TAP	60	192	4
TAP	60	240	6
TAP	60	288	7
TAP	60	336	3
TAP	61	0	2
TAP	61	0	4
TAP	61	48	5
TAP	61	72	4
TAP	61	96	6
TAP	61	144	0
TAP	61	192	0
TAP	61	240	2
TAP	61	288	4
TAP	61	336	2
TAP	61	360	3
TAP	62	0	1
TAP	62	48	7
TAP	62	96	5
TAP	62	144	3
TAP	62	192	2
BRK	62	240	0
BRK	62	288	0
TAP	62	336	1
TAP	62	336	5
TAP	63	0	6
HLD	63	48	7	48
HLD	63	96	4	48
TAP	63	144	7
TAP	63	192	7
TAP	63	240	2
TAP	63	240	6
TAP	63	288	1
HLD	63	336	0	48
HLD	64	0	3	48
TAP	64	48	0
TAP	64	96	2
TAP	64	144	3
TAP	64	192	4
TAP	64	240	5
TAP	64	288	5
TAP	64	336	3
TAP	65	0	2
TAP	65	0	4
TAP	65	48	1
TAP	65	96	0
TAP	65	144	7
TAP	65	192	3
TAP	65	192	5
TAP	65	240	6
TAP	65	288	7
TAP	65	336	0
TAP	66	0	2
TAP	66	0	4
TAP	66	48	1
TAP	66	96	0
TAP	66	144	7
TAP	66	192	3
TAP	66	192	5
TAP	66	240	6
STR	66	288	0
SCR	66	288	0	96	576	7
TAP	66	288	7
TTP	67	0	0	C	1	M1
HLD	69	0	7	576
STR	71	0	7
SCL	71	0	7	96	576	0
HLD	73	0	0	192
HLD	73	192	1	192
HLD	74	0	2	192
TAP	74	192	4
HLD	75	0	3	96
HLD	75	0	5	96
HLD	75	144	3	96
HLD	75	144	5	96
TAP	75	288	3
TAP	75	288	5
TAP	75	336	2
HLD	76	0	2	96
HLD	76	0	4	96
HLD	76	144	2	96
HLD	76	144	4	96
TAP	76	288	2
TAP	76	288	4
TAP	76	336	5
TAP	77	0	3
TAP	77	0	5
TAP	77	96	6
TAP	77	144	5
TAP	77	240	2
TAP	77	288	1
TAP	78	0	1
TAP	78	0	3
TAP	78	48	4
TAP	78	96	5
TAP	78	144	5
TAP	78	192	2
TAP	78	240	4
HLD	78	288	0	96
BRK	79	0	7
TTP	80	0	0	C	1	M1
TAP	80	288	1
TAP	80	288	6
TAP	81	0	2
TAP	81	48	6
TAP	81	72	5
TAP	81	96	4
TAP	81	144	2
TAP	81	192	6
TAP	81	216	5
TAP	81	240	4
TAP	81	288	2
TAP	81	336	2
TAP	82	0	5
TAP	82	48	1
TAP	82	72	2
TAP	82	96	3
TAP	82	144	5
TAP	82	192	1
TAP	82	216	2
TAP	82	240	3
TAP	82	288	5
TAP	82	336	5
TTP	83	0	1	E	0	M1
TTP	83	32	7	E	0	M1
TTP	83	64	2	E	0	M1
TTP	83	96	6	E	0	M1
TTP	83	128	3	E	0	M1
TTP	83	160	5	E	0	M1
TAP	83	192	3
TAP	83	240	3
TAP	83	288	4
TAP	83	336	3
TAP	84	0	6
TAP	84	48	2
TAP	84	72	3
TAP	84	96	4
TAP	84	144	6
TAP	84	192	2
TAP	84	216	3
TAP	84	240	4
TAP	84	288	6
TAP	84	336	6
TAP	85	0	1
TAP	85	48	5
TAP	85	72	4
TAP	85	96	3
TAP	85	144	1
TAP	85	192	5
TAP	85	216	4
TAP	85	240	3
TAP	85	288	1
TAP	85	336	1
HLD	86	0	2	48
HLD	86	48	6	48
HLD	86	96	2	48
HLD	86	144	6	48
HLD	86	192	2	48
HLD	86	240	6	48
TAP	86	288	2
TAP	86	336	1
TAP	87	0	1
TAP	87	24	2
TAP	87	48	3
TAP	87	96	0
TAP	87	144	6
TAP	87	168	5
TAP	87	192	4
TAP	87	240	7
TAP	87	288	1
TAP	87	312	2
TAP	87	336	3
TAP	88	0	0
TAP	88	48	6
TAP	88	72	5
TAP	88	96	4
TAP	88	144	7
TAP	88	192	7
TAP	88	240	3
TAP	88	264	2
TAP	88	288	1
TAP	88	336	7
TAP	89	0	4
TAP	89	24	5
TAP	89	48	6
TAP	89	96	0
TAP	89	144	3
TAP	89	168	2
TAP	89	192	1
TAP	89	240	7
TAP	89	288	7
TAP	89	336	2
TAP	90	0	2
TAP	90	48	5
TAP	90	72	6
TAP	90	96	7
TAP	90	144	4
TAP	90	192	2
TAP	90	216	1
TAP	90	240	0
TAP	90	288	3
TAP	90	336	5
TAP	90	360	6
TAP	91	0	7
TAP	91	48	4
TAP	91	96	2
TAP	91	120	1
TAP	91	144	0
TAP	91	192	4
TAP	91	240	0
TAP	91	264	7
TAP	91	288	6
TAP	91	336	3
TAP	92	0	7
TAP	92	24	0
TAP	92	48	1
TAP	92	96	4
TAP	92	144	0
TAP	92	168	7
TAP	92	192	6
TAP	92	240	3
BRK	92	288	3
STR	93	0	5
SI_	93	0	5	96	48	2
STR	93	96	1
SCL	93	96	1	96	96	6
HLD	93	192	4	192
STR	94	0	2
SI_	94	0	2	96	48	5
STR	94	96	6
SCR	94	96	6	96	96	1
HLD	94	192	3	192
STR	95	0	5
SI_	95	0	5	96	48	2
STR	95	96	1
SUR	95	96	1	96	96	6
HLD	95	192	4	192
STR	96	0	2
SI_	96	0	2	96	48	5
STR	96	96	6
SUL	96	96	6	96	96	1
HLD	96	192	2	312
BRK	97	120	7

T_REC_TAP	488
T_REC_BRK	9
T_REC_XTP	0
T_REC_HLD	62
T_REC_XHO	0
T_REC_STR	17
T_REC_BST	0
T_REC_XST	0
T_REC_TTP	8
T_REC_THO	0
T_REC_SLD	17
T_REC_ALL	601
T_NUM_TAP	513
T_NUM_BRK	9
T_NUM_HLD	62
T_NUM_SLD	17
T_NUM_ALL	601
T_JUDGE_TAP	522
T_JUDGE_HLD	211
T_JUDGE_SLD	17
T_JUDGE_ALL	750
TTM_EACHPAIRS	60
TTM_SCR_TAP	256500
TTM_SCR_BRK	23400
TTM_SCR_HLD	62000
TTM_SCR_SLD	25500
TTM_SCR_ALL	367400
TTM_SCR_S	355550
TTM_SCR_SS	366500
TTM_RAT_ACV	10024

