VERSION	0.00.00	1.03.00
FES_MODE	0
BPM_DEF	176.000	176.000	176.000	176.000
MET_DEF	4	4
RESOLUTION	384
CLK_DEF	384
COMPATIBLE_CODE	MA2

BPM	0	0	176.000
MET	0	0	4	4

THO	3	0	0	1152	C	1	L1
XTP	7	0	2
XTP	7	96	2
XTP	7	192	2
XTP	7	192	3
TAP	8	0	5
TAP	8	96	5
TAP	8	192	4
TAP	8	192	5
TAP	9	0	2
TAP	9	96	2
TAP	9	192	3
TAP	9	288	3
TAP	10	0	4
TAP	10	96	4
XTP	10	192	3
XTP	10	192	5
HLD	11	0	6	192
HLD	11	192	7	192
HLD	12	0	0	192
TAP	12	192	1
HLD	13	0	2	192
HLD	13	192	3	192
HLD	14	0	4	192
XTP	14	192	5
XTP	14	288	3
XTP	14	288	6
TAP	15	0	2
TAP	15	96	2
TAP	15	192	1
TAP	15	288	1
TAP	16	0	0
TAP	16	96	0
STR	16	192	1
SLR	16	192	1	96	480	7
STR	16	192	6
SLL	16	192	6	96	480	0
HLD	19	0	1	192
TAP	19	192	0
TAP	19	288	0
TAP	20	0	7
TAP	20	96	7
TAP	20	192	0
TAP	20	192	6
HLD	21	0	5	192
TAP	21	192	4
TAP	21	288	4
TAP	22	0	3
TAP	22	96	3
TAP	22	96	4
TAP	22	192	2
TAP	22	192	5
HLD	23	0	6	192
TAP	23	192	7
TAP	23	288	7
TAP	24	0	0
TAP	24	96	0
TAP	24	192	1
TAP	24	192	7
HLD	25	0	2	192
HLD	25	192	4	192
TAP	26	0	3
TAP	26	96	3
TAP	26	96	4
BRK	26	192	2
BRK	26	192	5
TAP	27	0	1
TAP	27	96	1
TAP	27	192	2
TAP	27	288	2
TAP	28	0	2
TAP	28	0	3
TAP	28	96	2
TAP	28	96	3
TAP	28	192	3
TAP	28	192	4
TAP	29	0	5
TAP	29	96	5
TAP	29	192	6
TAP	29	288	6
TAP	30	0	6
TAP	30	0	7
TAP	30	96	6
TAP	30	96	7
TAP	30	192	0
TAP	30	192	7
TAP	31	0	7
TAP	31	96	7
TAP	31	192	6
TAP	31	288	6
TAP	32	0	4
TAP	32	0	5
TAP	32	96	4
TAP	32	96	5
TAP	32	192	3
TAP	32	192	4
TAP	33	0	2
TAP	33	96	2
TAP	33	192	1
TAP	33	288	1
TAP	34	0	0
TAP	34	0	1
TAP	34	96	0
TAP	34	96	7
BRK	34	192	1
BRK	34	192	6
TTP	35	0	0	B	0	L1
TTP	35	0	1	B	0	L1
TTP	36	0	2	B	0	L1
TTP	36	0	3	B	0	L1
TTP	37	0	4	B	0	L1
TTP	37	0	5	B	0	L1
TTP	38	0	6	B	0	L1
TTP	38	0	7	B	0	L1
TTP	39	0	1	E	0	L1
TTP	39	0	7	E	0	L1
TTP	39	192	1	B	0	L1
TTP	39	192	6	B	0	L1
TTP	40	0	2	B	0	L1
TTP	40	0	5	B	0	L1
TTP	40	192	3	E	0	L1
TTP	40	192	5	E	0	L1
THO	41	0	0	384	C	1	L1
XST	43	0	6
SV_	43	0	6	96	144	3
STR	44	0	2
SV_	44	0	2	96	144	7
STR	45	0	6
SV_	45	0	6	96	144	1
TAP	46	0	0
TAP	46	96	0
TAP	46	96	7
TAP	46	192	1
TAP	46	192	6
STR	47	0	6
SI_	47	0	6	96	144	2
STR	47	0	7
SI_	47	0	7	96	144	3
STR	48	0	0
SI_	48	0	0	96	144	4
STR	48	0	1
SI_	48	0	1	96	144	5
TAP	49	0	3
TAP	49	0	4
TAP	49	192	2
TAP	49	192	5
TAP	50	0	1
TAP	50	0	6
TAP	50	96	1
TAP	50	96	6
BRK	50	192	0
BRK	50	192	7
TAP	51	0	1
TAP	51	96	1
TAP	51	192	0
TAP	51	192	1
TAP	51	288	2
TAP	51	288	7
TAP	52	0	6
TAP	52	96	6
TAP	52	192	6
TAP	52	192	7
TAP	52	288	0
TAP	52	288	5
TAP	53	0	4
TAP	53	96	4
TAP	53	192	3
TAP	53	288	3
TAP	54	0	4
TAP	54	96	4
XTP	54	192	3
XTP	54	192	5
TAP	55	0	6
XTP	55	96	6
XTP	55	96	7
TAP	55	192	6
TAP	55	288	0
TAP	55	288	5
TAP	56	0	1
XTP	56	96	0
XTP	56	96	1
TAP	56	192	1
TAP	56	288	2
TAP	56	288	7
TAP	57	0	3
TAP	57	96	3
TAP	57	192	4
TAP	57	288	4
TAP	58	0	3
TAP	58	0	4
TAP	58	96	2
TAP	58	96	5
BRK	58	192	1
BRK	58	192	6
TAP	59	0	5
TAP	59	96	5
TAP	59	192	4
TAP	59	192	5
TAP	59	288	3
TAP	59	288	6
TAP	60	0	2
TAP	60	96	2
TAP	60	192	2
TAP	60	192	3
TAP	60	288	1
TAP	60	288	4
TAP	61	0	0
TAP	61	96	0
TAP	61	192	7
TAP	61	288	7
TAP	62	0	0
TAP	62	96	0
XTP	62	192	1
XTP	62	192	7
TAP	63	0	2
XTP	63	96	2
XTP	63	96	3
TAP	63	192	2
TAP	63	288	1
TAP	63	288	4
TAP	64	0	5
XTP	64	96	4
XTP	64	96	5
TAP	64	192	5
TAP	64	288	3
TAP	64	288	6
TAP	65	0	7
TAP	65	96	7
TAP	65	192	0
TAP	65	288	0
TAP	66	0	0
TAP	66	0	7
TAP	66	96	1
TAP	66	96	6
BRK	66	192	2
BRK	66	192	5
STR	67	0	2
SCL	67	0	2	96	1056	3
HLD	71	0	2	384
HLD	72	0	3	384
XTP	73	0	2
XTP	73	192	2
XTP	73	192	3
XTP	74	0	3
XTP	74	0	4
XTP	74	192	4
XTP	74	192	5
STR	75	0	6
SI_	75	0	6	96	144	3
STR	76	0	2
SCR	76	0	2	96	144	5
STR	77	0	6
SCR	77	0	6	96	144	1
TAP	78	0	2
TAP	78	192	3
STR	79	0	3
SI_	79	0	3	96	144	7
STR	79	0	4
SI_	79	0	4	96	144	0
STR	80	0	0
SI_	80	0	0	96	144	3
STR	80	0	7
SI_	80	0	7	96	144	4
TAP	81	0	5
TAP	81	96	4
TAP	81	96	5
TAP	81	192	6
TAP	81	240	6
TAP	81	288	6
TAP	82	0	6
TAP	82	0	7
TAP	82	96	6
TAP	82	96	7
TAP	82	192	0
TAP	82	192	5
TAP	83	0	1
TAP	83	96	0
TAP	83	96	1
TAP	83	192	2
TAP	83	240	2
TAP	83	288	2
TAP	84	0	3
TAP	84	0	4
TAP	84	96	3
TAP	84	96	4
XTP	84	192	2
XTP	84	192	5
TAP	85	0	2
TAP	85	96	2
TAP	85	96	3
TAP	85	192	1
TAP	85	240	1
TAP	85	288	1
TAP	86	0	0
TAP	86	96	0
TAP	86	96	7
TAP	86	192	6
TAP	86	240	6
TAP	86	288	6
TAP	87	0	5
TAP	87	96	4
TAP	87	96	5
TAP	87	192	3
TAP	87	240	3
TAP	87	288	3
XST	88	0	3
SV_	88	0	3	96	192	0
XTP	88	0	4
TAP	89	0	7
TAP	89	96	0
TAP	89	96	7
TAP	89	192	6
TAP	89	240	6
TAP	89	288	6
TAP	90	0	4
TAP	90	0	5
TAP	90	96	4
TAP	90	96	5
TAP	90	192	3
TAP	90	240	3
TAP	90	288	3
TAP	91	0	2
TAP	91	0	3
TAP	91	96	2
TAP	91	96	3
TAP	91	192	1
TAP	91	240	1
TAP	91	288	1
TAP	92	0	0
TAP	92	0	7
TAP	92	96	0
TAP	92	96	7
TAP	92	192	1
TAP	92	192	6
TAP	92	240	1
TAP	92	240	6
TAP	92	288	1
TAP	92	288	6
XST	93	0	4
SCL	93	0	4	96	144	1
XST	93	0	5
SCR	93	0	5	96	144	0
XST	94	0	2
SCL	94	0	2	96	144	7
XST	94	0	3
SCR	94	0	3	96	144	6
STR	95	0	0
SXL	95	0	0	96	480	3
STR	95	0	7
SXR	95	0	7	96	480	4
XHO	97	120	2	1032
XHO	97	120	5	1032

T_REC_TAP	230
T_REC_BRK	10
T_REC_XTP	31
T_REC_HLD	13
T_REC_XHO	2
T_REC_STR	18
T_REC_BST	0
T_REC_XST	6
T_REC_TTP	16
T_REC_THO	2
T_REC_SLD	24
T_REC_ALL	352
T_NUM_TAP	301
T_NUM_BRK	10
T_NUM_HLD	17
T_NUM_SLD	24
T_NUM_ALL	352
T_JUDGE_TAP	311
T_JUDGE_HLD	136
T_JUDGE_SLD	24
T_JUDGE_ALL	471
TTM_EACHPAIRS	87
TTM_SCR_TAP	150500
TTM_SCR_BRK	26000
TTM_SCR_HLD	17000
TTM_SCR_SLD	36000
TTM_SCR_ALL	229500
TTM_SCR_S	221650
TTM_SCR_SS	228500
TTM_RAT_ACV	10043

