VERSION	0.00.00	1.03.00
FES_MODE	0
BPM_DEF	176.000	176.000	176.000	176.000
MET_DEF	4	4
RESOLUTION	384
CLK_DEF	384
COMPATIBLE_CODE	MA2

BPM	0	0	176.000
MET	0	0	4	4

TAP	3	0	3
TAP	4	0	3
TAP	5	0	4
TAP	6	0	4
HLD	7	0	3	384
HLD	9	0	4	384
XTP	11	0	5
XTP	12	0	6
XTP	13	0	7
XTP	14	0	0
XTP	15	0	0
XTP	15	0	1
XTP	16	0	6
XTP	16	0	7
TAP	17	0	0
BRK	18	0	0
TAP	19	0	1
TAP	19	192	1
TAP	20	0	1
TAP	21	0	2
TAP	21	192	2
TAP	22	0	2
TAP	23	0	3
TAP	23	192	3
TAP	24	0	3
HLD	25	0	3	384
HLD	25	0	4	384
TAP	27	0	4
TAP	27	192	4
TAP	28	0	4
TAP	29	0	5
TAP	29	192	5
TAP	30	0	5
TAP	31	0	6
TAP	31	192	6
TAP	32	0	6
TAP	33	0	7
TAP	33	192	7
BRK	34	0	7
STR	35	0	0
SI_	35	0	0	96	288	3
STR	37	0	7
SI_	37	0	7	96	288	4
STR	39	0	3
SI_	39	0	3	96	288	0
TAP	41	0	7
TAP	42	0	0
TAP	42	0	7
STR	43	0	1
SI_	43	0	1	96	288	4
STR	45	0	6
SI_	45	0	6	96	288	3
TAP	47	0	2
TAP	47	192	2
TAP	48	0	1
TAP	48	192	1
HLD	49	0	0	384
HLD	49	0	7	384
BRK	50	192	0
BRK	50	192	7
TAP	51	0	7
TAP	51	192	7
TAP	52	0	6
TAP	52	96	6
TAP	52	192	6
TAP	53	0	5
TAP	53	192	5
TAP	54	0	4
TAP	54	96	3
TAP	54	192	4
TAP	55	0	3
TAP	55	192	3
TAP	56	0	2
TAP	56	96	2
TAP	56	192	2
TAP	57	0	1
TAP	57	192	1
TAP	58	0	0
TAP	58	0	1
XTP	58	192	0
XTP	58	192	1
TAP	59	0	0
TAP	59	192	0
TAP	60	0	1
TAP	60	96	1
TAP	60	192	1
TAP	61	0	2
TAP	61	192	2
TAP	62	0	3
TAP	62	96	4
TAP	62	192	3
TAP	63	0	5
TAP	63	192	5
TAP	64	0	6
TAP	64	96	6
TAP	64	192	6
TAP	65	0	0
TAP	65	0	7
TAP	65	192	0
TAP	65	192	7
BRK	66	0	1
BRK	66	0	6
TTP	67	0	2	E	0	L1
TTP	68	0	3	E	0	L1
TTP	69	0	4	E	0	L1
TTP	70	0	5	E	0	L1
THO	71	0	0	768	C	0	L1
TTP	75	0	6	E	0	L1
TTP	76	0	4	B	0	L1
TTP	77	0	3	B	0	L1
TTP	78	0	2	E	0	L1
THO	79	0	0	384	C	0	L1
BRK	81	0	7
TAP	81	96	7
TAP	81	192	7
TAP	82	0	6
TAP	82	96	6
TAP	82	192	6
TAP	83	0	4
TAP	83	0	5
TAP	83	192	3
TAP	83	288	3
TAP	84	0	3
TAP	84	192	2
TAP	84	288	2
TAP	85	0	2
TAP	85	192	1
TAP	85	288	1
TAP	86	0	1
XTP	86	192	0
XTP	86	192	7
TAP	87	0	1
TAP	87	96	1
TAP	87	192	1
TAP	88	0	2
TAP	88	96	2
TAP	88	192	2
TAP	89	0	3
TAP	89	96	3
TAP	89	192	3
TAP	89	192	4
HLD	90	0	3	192
HLD	90	0	4	192
TAP	91	0	3
TAP	91	0	4
HLD	91	192	2	192
HLD	91	192	5	192
TAP	92	192	2
TAP	92	192	5
BRK	93	0	2
BRK	93	0	5
TTP	94	0	4	E	0	L1
TTP	95	0	3	E	0	L1
TTP	95	0	5	E	0	L1
THO	96	0	0	504	C	1	L1

T_REC_TAP	100
T_REC_BRK	9
T_REC_XTP	12
T_REC_HLD	10
T_REC_XHO	0
T_REC_STR	5
T_REC_BST	0
T_REC_XST	0
T_REC_TTP	11
T_REC_THO	3
T_REC_SLD	5
T_REC_ALL	155
T_NUM_TAP	128
T_NUM_BRK	9
T_NUM_HLD	13
T_NUM_SLD	5
T_NUM_ALL	155
T_JUDGE_TAP	137
T_JUDGE_HLD	99
T_JUDGE_SLD	5
T_JUDGE_ALL	241
TTM_EACHPAIRS	19
TTM_SCR_TAP	64000
TTM_SCR_BRK	23400
TTM_SCR_HLD	13000
TTM_SCR_SLD	7500
TTM_SCR_ALL	107900
TTM_SCR_S	103800
TTM_SCR_SS	107000
TTM_RAT_ACV	10084

