VERSION	0.00.00	1.03.00
FES_MODE	0
BPM_DEF	170.000	170.000	170.000	170.000
MET_DEF	4	4
RESOLUTION	384
CLK_DEF	384
COMPATIBLE_CODE	MA2

BPM	0	0	170.000
MET	0	0	4	4

HLD	1	0	4	96
STR	1	96	1
SCR	1	96	1	96	72	3
TAP	1	144	3
HLD	1	192	4	96
HLD	2	0	5	96
STR	2	96	1
SCR	2	96	1	96	72	3
TAP	2	144	4
HLD	2	192	5	96
HLD	3	0	6	96
STR	3	96	1
SCR	3	96	1	96	96	4
TAP	3	144	5
STR	3	192	4
SCR	3	192	4	96	96	7
STR	3	288	7
SCR	3	288	7	96	96	2
STR	4	0	2
SCR	4	0	2	96	96	5
TTP	4	192	0	C	0	M1
STR	4	288	7
SI_	4	288	7	96	48	3
TAP	5	144	2
HLD	5	192	2	96
STR	5	288	1
SCL	5	288	1	96	96	6
STR	6	0	6
SCL	6	0	6	96	96	3
STR	6	96	3
SCL	6	96	3	96	96	0
STR	6	192	0
SCL	6	192	0	96	96	5
HLD	7	0	2	96
HLD	7	96	3	96
HLD	7	192	4	144
STR	7	336	5
SCR	7	336	5	96	240	2
TAP	8	0	5
TTP	8	96	2	E	0	M1
TTP	8	192	4	E	0	M1
TTP	8	288	6	E	0	M1
TAP	9	0	3
TAP	9	0	4
TAP	9	96	3
STR	9	96	6
SCL	9	96	6	96	72	4
TAP	9	144	4
TAP	9	192	3
TAP	9	288	3
TAP	10	0	3
TAP	10	0	4
TAP	10	96	3
STR	10	96	6
SCL	10	96	6	96	72	4
TAP	10	144	4
TAP	10	192	3
TAP	10	288	3
TAP	11	0	0
TAP	11	0	1
TAP	11	96	6
STR	11	96	7
SCR	11	96	7	96	96	2
TAP	11	144	4
STR	11	192	2
SCR	11	192	2	96	96	5
STR	11	288	5
SXR	11	288	5	96	192	2
TAP	12	0	2
TTP	12	192	0	B	0	M1
TTP	12	192	7	B	0	M1
TTP	12	288	3	B	0	M1
TTP	12	288	4	B	0	M1
TAP	13	0	0
TAP	13	0	7
STR	13	96	3
SI_	13	96	3	96	48	7
TAP	13	144	4
TAP	13	192	3
STR	13	288	1
SUR	13	288	1	96	96	5
TAP	13	288	5
STR	14	0	5
SUR	14	0	5	96	96	1
STR	14	96	1
SCR	14	96	1	96	96	5
STR	14	192	5
SCR	14	192	5	96	96	1
HLD	15	0	4	144
TAP	15	144	3
HLD	15	192	3	144
STR	15	336	2
SCL	15	336	2	96	240	5
TAP	16	0	2
TTP	16	96	5	B	0	M1
TTP	16	96	5	E	0	M1
TTP	16	192	0	B	0	M1
TTP	16	192	7	B	0	M1
TTP	16	288	2	B	0	M1
TTP	16	288	3	E	0	M1
TAP	17	0	4
STR	17	0	6
SUL	17	0	6	96	144	1
TAP	17	96	4
TAP	17	192	4
TAP	17	288	4
TAP	17	288	6
TAP	17	336	0
TAP	17	336	7
STR	18	0	1
SCL	18	0	1	96	48	6
TAP	18	0	3
TAP	18	96	3
TAP	18	192	3
STR	18	192	6
SCR	18	192	6	96	48	1
TAP	18	288	3
TAP	18	336	4
STR	19	0	2
SI_	19	0	2	96	48	4
TAP	19	0	5
STR	19	96	6
SI_	19	96	6	96	48	0
STR	19	192	1
SI_	19	192	1	96	48	5
STR	19	288	4
SCR	19	288	4	96	192	3
THO	20	0	0	192	C	0	M1
TAP	21	0	0
TTP	21	48	2	E	0	M1
TAP	21	96	0
TTP	21	144	3	E	0	M1
TAP	21	192	7
TTP	21	240	6	E	0	M1
TAP	21	288	7
TTP	21	336	5	E	0	M1
TAP	22	0	1
TTP	22	48	3	E	0	M1
TAP	22	96	1
TTP	22	144	4	E	0	M1
TAP	22	192	6
TTP	22	240	5	E	0	M1
TAP	22	288	6
TTP	22	336	4	E	0	M1
HLD	23	0	0	168
HLD	23	0	7	168
TAP	23	192	0
TAP	23	192	7
TAP	23	240	1
TAP	23	240	6
TAP	23	288	2
TAP	23	288	5
TAP	23	336	3
TAP	23	336	4
XTP	24	0	1
XTP	24	0	6
TAP	24	48	3
TAP	24	72	4
TAP	24	96	1
TAP	24	120	3
TAP	24	144	1
TAP	24	168	3
XTP	24	192	2
TAP	24	216	6
TAP	24	240	4
TAP	24	264	6
TAP	24	288	4
TAP	24	312	5
XTP	24	336	3
XTP	24	360	4
TAP	25	0	2
TAP	25	24	3
TAP	25	48	1
TAP	25	72	4
TAP	25	96	0
TAP	25	120	7
TAP	25	144	1
TAP	25	168	6
XTP	25	192	4
TAP	25	216	5
TAP	25	240	3
TAP	25	264	6
TAP	25	288	2
TAP	25	312	7
TAP	25	336	1
TAP	25	360	0
BST	26	0	1
SV_	26	0	1	96	48	4
XST	26	0	7
SV_	26	0	7	96	48	4
XST	26	96	1
SCR	26	96	1	96	48	4
BST	26	96	7
SCL	26	96	7	96	48	4
BRK	26	192	1
BRK	26	192	7
TAP	26	288	2
TAP	26	288	5
TAP	26	336	4
STR	27	0	0
SI_	27	0	0	96	48	5
TAP	27	0	3
TAP	27	48	1
TAP	27	96	0
STR	27	96	3
SI_	27	96	3	96	48	7
TAP	27	144	4
STR	27	192	0
SI_	27	192	0	96	48	5
TAP	27	192	3
TAP	27	240	1
TAP	27	288	0
STR	27	288	3
SCL	27	288	3	96	96	6
TAP	27	336	4
BRK	28	0	0
XTP	28	0	3
TAP	28	144	0
TAP	28	144	1
TAP	28	192	3
HLD	28	192	6	96
STR	28	288	4
SI_	28	288	4	96	48	0
TAP	28	336	3
TAP	29	0	4
STR	29	0	7
SI_	29	0	7	96	48	2
TAP	29	48	6
STR	29	96	4
SI_	29	96	4	96	48	0
TAP	29	96	7
TAP	29	144	3
TAP	29	192	4
STR	29	192	7
SI_	29	192	7	96	48	2
TAP	29	240	6
STR	29	288	4
SCR	29	288	4	96	96	1
TAP	29	288	7
TAP	29	336	3
XTP	30	0	4
BRK	30	0	7
TAP	30	144	2
TAP	30	144	3
HLD	30	192	1	96
TAP	30	192	4
TAP	30	288	0
TAP	30	336	1
TAP	31	0	2
STR	31	0	7
SCR	31	0	7	96	48	2
TAP	31	96	5
STR	31	96	7
SCL	31	96	7	96	48	4
TAP	31	192	1
STR	31	192	7
SI_	31	192	7	96	48	3
STR	31	288	3
SXL	31	288	3	96	144	6
SXR	31	288	3	96	144	0
STR	32	192	7
SF_	32	192	7	96	48	3
STR	33	0	1
SI_	33	0	1	96	48	4
TAP	33	0	5
TAP	33	48	0
STR	33	96	6
SI_	33	96	6	96	48	2
TAP	33	144	7
TAP	33	168	7
STR	33	192	0
SI_	33	192	0	96	48	5
TAP	33	240	1
BRK	33	288	0
BRK	33	288	4
HLD	34	0	6	144
TAP	34	144	4
STR	34	192	4
SI_	34	192	4	96	48	7
TAP	34	288	5
HLD	35	0	6	72
HLD	35	72	5	72
TAP	35	144	4
STR	35	192	4
SI_	35	192	4	96	48	2
STR	35	288	6
SI_	35	288	6	96	48	2
HLD	36	0	1	144
TAP	36	144	3
STR	36	192	3
SI_	36	192	3	96	48	0
TAP	36	288	2
HLD	37	0	1	72
HLD	37	72	2	72
TAP	37	144	3
STR	37	192	3
SI_	37	192	3	96	48	5
STR	37	288	1
SI_	37	288	1	96	48	5
XHO	38	0	7	576
TTP	38	192	6	E	0	M1
TTP	38	224	5	B	0	M1
TTP	38	256	4	B	0	M1
TTP	38	288	3	B	0	M1
TTP	38	320	2	B	0	M1
TTP	38	352	2	E	0	M1
XHO	39	0	0	192
STR	39	288	1
SCL	39	288	1	96	96	6
TAP	39	288	6
TAP	40	96	5
TAP	40	144	4
TAP	40	192	4
TAP	40	192	6
TAP	40	288	2
TAP	40	336	3
HLD	41	0	1	96
TAP	41	0	3
HLD	41	96	6	96
TAP	41	192	4
TAP	41	216	6
TAP	41	240	3
TAP	41	264	5
TAP	41	288	2
TAP	41	312	4
TAP	41	336	1
TAP	41	360	3
BST	42	0	0
SI_	42	0	0	96	48	3
TAP	42	48	5
STR	42	96	0
SI_	42	96	0	96	48	5
TAP	42	144	6
STR	42	192	0
SCR	42	192	0	96	48	3
TAP	42	240	7
TAP	42	264	7
STR	42	288	0
SI_	42	288	0	96	48	4
TAP	42	336	6
STR	43	0	0
SI_	43	0	0	96	48	2
XST	43	0	6
SI_	43	0	6	96	48	2
STR	43	96	0
SI_	43	96	0	96	48	5
XTP	43	96	6
STR	43	192	0
SCR	43	192	0	96	48	3
XST	43	192	4
SCR	43	192	4	96	48	7
XTP	43	288	0
XTP	43	288	4
XTP	44	0	2
XST	44	0	7
SI_	44	0	7	96	48	4
TAP	44	48	2
STR	44	96	7
SI_	44	96	7	96	48	2
TAP	44	144	1
STR	44	192	7
SCL	44	192	7	96	48	4
TAP	44	240	0
TAP	44	264	0
STR	44	288	7
SI_	44	288	7	96	48	3
TAP	44	336	1
XST	45	0	1
SI_	45	0	1	96	48	5
STR	45	0	7
SI_	45	0	7	96	48	5
XTP	45	96	1
STR	45	96	7
SI_	45	96	7	96	48	2
XST	45	192	3
SCL	45	192	3	96	48	0
STR	45	192	7
SCL	45	192	7	96	48	4
XST	45	288	3
SUR	45	288	3	96	144	1
XST	45	288	7
SUR	45	288	7	96	144	5
TAP	46	192	4
TAP	46	216	0
TAP	46	240	3
TAP	46	264	7
TAP	46	288	2
TAP	46	312	6
TAP	46	336	1
TAP	46	360	5
TAP	47	0	0
XHO	47	0	4	192
HLD	47	192	0	32
HLD	47	224	1	32
HLD	47	256	2	32
HLD	47	288	3	32
HLD	47	320	4	32
HLD	47	352	5	32
STR	48	0	6
SXL	48	0	6	96	240	1
TAP	49	0	3
TAP	49	24	4
TAP	49	48	2
TAP	49	72	5
TAP	49	96	1
TAP	49	120	6
TAP	49	144	0
TAP	49	168	7
TTP	49	192	1	E	0	M1
TTP	49	208	2	E	0	M1
TTP	49	224	3	E	0	M1
TTP	49	240	7	E	0	M1
TTP	49	256	6	E	0	M1
TTP	49	272	5	E	0	M1
TTP	49	288	0	B	0	M1
TTP	49	300	1	B	0	M1
TTP	49	312	2	B	0	M1
TTP	49	324	3	B	0	M1
TTP	49	336	7	B	0	M1
TTP	49	348	6	B	0	M1
TTP	49	360	5	B	0	M1
TTP	49	372	4	B	0	M1
TTP	50	0	0	C	1	M1
TAP	51	0	4
TAP	51	48	3
TAP	51	96	2
TAP	51	96	4
TAP	51	192	3
TAP	51	192	5
TAP	51	288	4
TAP	51	288	6
TAP	52	0	7
HLD	52	48	7	96
TAP	52	144	6
HLD	52	192	6	96
TAP	52	288	5
HLD	52	336	5	96
HLD	53	48	4	96
TAP	53	144	5
TAP	53	168	4
TAP	53	192	5
TAP	53	288	2
TAP	53	288	4
TAP	54	0	0
HLD	54	48	0	96
TAP	54	144	1
HLD	54	192	1	96
TAP	54	288	2
HLD	54	336	2	96
TAP	55	48	3
HLD	55	96	3	96
STR	55	192	4
SI_	55	192	4	96	48	0
HLD	56	0	5	96
TAP	56	48	7
HLD	56	96	4	96
TAP	56	144	6
HLD	56	192	3	96
TAP	56	240	1
TAP	56	264	1
HLD	56	288	2	96
TAP	56	336	0
TAP	57	0	3
TAP	57	48	4
TAP	57	48	5
TAP	57	96	6
TAP	57	96	7
TAP	57	144	0
TAP	57	144	1
TAP	57	192	3
TAP	57	192	4
TTP	57	288	0	C	0	M1
XTP	58	0	0
STR	58	0	6
SCL	58	0	6	96	48	3
TAP	58	144	1
TAP	58	168	1
TAP	58	192	2
TAP	58	288	3
TAP	58	288	5
TAP	58	336	2
TAP	58	336	6
STR	59	0	1
SCR	59	0	1	96	48	4
XTP	59	0	7
TAP	59	144	6
TAP	59	168	6
TAP	59	192	5
TAP	59	288	2
TAP	59	288	4
TAP	59	336	1
TAP	59	336	5
XTP	60	0	0
STR	60	0	6
SUL	60	0	6	96	48	1
TAP	60	144	0
TAP	60	168	0
TAP	60	192	7
TAP	60	288	2
TAP	60	304	3
TAP	60	320	4
TAP	60	336	5
XHO	61	0	5	96
TAP	61	48	3
HLD	61	96	4	96
TAP	61	144	2
HLD	61	192	3	96
TAP	61	240	1
TAP	61	288	2
TAP	61	312	4
TAP	61	336	1
TAP	61	360	5
STR	62	0	0
SI_	62	0	0	96	48	4
TAP	62	96	0
STR	62	96	6
SI_	62	96	6	96	48	3
TAP	62	192	6
STR	62	192	7
SI_	62	192	7	96	48	2
STR	62	288	4
SCL	62	288	4	96	144	5
TAP	62	288	7
TAP	63	0	0
TAP	63	144	1
TAP	63	168	2
TAP	63	192	3
TAP	63	288	3
STR	63	288	4
SUL	63	288	4	96	144	3
TAP	64	0	0
TAP	64	96	1
TAP	64	144	1
TAP	64	192	2
TAP	64	240	2
TAP	64	288	3
TAP	64	336	3
TAP	65	0	4
TAP	65	48	4
TAP	65	96	5
TAP	65	144	5
TAP	65	192	3
TAP	65	192	6
TAP	65	240	2
TAP	65	264	3
TAP	65	288	2
TAP	65	336	1
TAP	65	336	4
STR	66	0	3
SUR	66	0	3	96	144	4
TAP	66	96	4
TAP	66	144	5
TAP	66	192	6
TAP	66	240	7
TAP	66	288	0
TAP	66	336	1
TAP	67	0	2
TAP	67	0	3
TAP	67	48	4
TAP	67	48	5
TAP	67	96	3
TAP	67	120	4
TAP	67	144	2
TAP	67	168	5
TAP	67	192	3
TAP	67	216	4
TAP	67	240	1
TAP	67	264	6
TAP	67	288	3
TAP	67	312	4
TAP	67	336	0
TAP	67	360	7
BST	68	0	0
SCL	68	0	0	96	36	5
XHO	68	0	6	192
XTP	68	144	4
XTP	68	156	3
XTP	68	168	2
XTP	68	180	1
XST	68	192	0
SF_	68	192	0	96	48	4
TTP	68	288	0	C	1	M1
XHO	69	0	1	192
BST	69	0	7
SCR	69	0	7	96	36	2
XTP	69	144	3
XTP	69	156	4
XTP	69	168	5
XTP	69	180	6
XST	69	192	7
SF_	69	192	7	96	48	3
TTP	69	288	0	C	1	M1
TAP	70	0	0
HLD	70	0	6	96
STR	70	96	7
SI_	70	96	7	96	48	4
TAP	70	144	6
STR	70	192	0
SI_	70	192	0	96	48	3
TAP	70	192	7
TAP	70	288	0
STR	70	288	1
SCR	70	288	1	96	72	6
TAP	71	0	1
HLD	71	0	7	96
TAP	71	96	0
TAP	71	144	1
STR	71	144	6
SI_	71	144	6	96	48	2
TAP	71	240	6
TAP	71	240	7
STR	71	288	1
SI_	71	288	1	96	48	5
XTP	72	0	0
XTP	72	0	1
STR	72	96	4
SI_	72	96	4	96	48	7
TAP	72	96	6
TAP	72	144	3
TAP	72	144	5
STR	72	192	2
SI_	72	192	2	96	48	5
TAP	72	192	4
TAP	72	288	2
STR	72	288	6
SI_	72	288	6	96	48	1
STR	73	0	0
SI_	73	0	0	96	48	3
TAP	73	0	6
TAP	73	96	0
STR	73	96	7
SUR	73	96	7	96	144	0
TTP	73	192	0	C	1	M1
STR	74	0	3
SCL	74	0	3	96	48	0
STR	74	0	7
SCL	74	0	7	96	48	4
STR	74	96	3
SUR	74	96	3	96	144	4
TAP	74	336	6
STR	75	0	6
SCR	75	0	6	96	72	1
STR	75	96	4
SCR	75	96	4	96	144	3
TTP	75	192	4	E	0	M1
TTP	75	208	5	E	0	M1
TTP	75	224	6	E	0	M1
TTP	75	240	7	E	0	M1
TTP	75	256	0	E	0	M1
TTP	75	272	1	E	0	M1
TTP	75	288	2	E	0	M1
TTP	75	304	3	E	0	M1
TTP	75	320	4	E	0	M1
BRK	76	0	1
BRK	76	0	6
STR	76	96	1
SCR	76	96	1	96	48	3
STR	76	96	7
SI_	76	96	7	96	48	3
TAP	76	144	0
STR	76	192	1
SI_	76	192	1	96	48	5
STR	76	192	7
SCL	76	192	7	96	48	5
TAP	76	288	1
TAP	76	288	7
TAP	77	0	3
TAP	77	0	4
STR	77	96	0
SI_	77	96	0	96	48	4
STR	77	96	6
SCL	77	96	6	96	48	4
TAP	77	144	7
STR	77	192	0
SCR	77	192	0	96	48	2
STR	77	192	6
SI_	77	192	6	96	48	2
TAP	77	288	0
TAP	77	288	6
TAP	78	0	1
TAP	78	0	3
STR	78	96	4
SI_	78	96	4	96	48	7
TAP	78	96	6
TAP	78	144	5
STR	78	192	3
SI_	78	192	3	96	48	0
TAP	78	192	4
STR	78	288	2
SCL	78	288	2	96	96	5
TAP	78	288	3
TAP	79	0	2
HLD	79	0	4	144
TAP	79	144	3
TTP	79	192	0	B	0	M1
TTP	79	192	0	C	1	M1
TTP	79	192	1	B	0	M1
TTP	79	192	2	E	0	M1
TTP	79	192	6	B	0	M1
TTP	79	192	6	E	0	M1
TTP	79	192	7	B	0	M1
BRK	80	0	0
STR	80	0	7
SI_	80	0	7	96	48	2
STR	80	96	4
SI_	80	96	4	96	48	0
TAP	80	96	7
TAP	80	144	3
TAP	80	192	4
STR	80	192	7
SI_	80	192	7	96	48	2
TAP	80	240	6
STR	80	288	4
SI_	80	288	4	96	48	0
TAP	80	288	7
TAP	80	336	3
TAP	81	0	4
XST	81	0	7
SI_	81	0	7	96	48	2
TAP	81	48	6
XST	81	96	4
SCR	81	96	4	96	96	1
TAP	81	96	7
TAP	81	144	3
TAP	81	192	4
BRK	81	192	7
XST	82	0	0
SI_	82	0	0	96	48	5
TAP	82	0	7
TAP	82	96	0
STR	82	96	3
SI_	82	96	3	96	48	7
TAP	82	144	4
XST	82	192	0
SI_	82	192	0	96	48	5
TAP	82	192	3
TAP	82	240	1
TAP	82	288	0
STR	82	288	3
SCL	82	288	3	96	144	4
TAP	82	336	4
BRK	83	0	0
TAP	83	0	3
TAP	83	192	0
TAP	83	216	4
TAP	83	240	1
TAP	83	264	5
TAP	83	288	2
TAP	83	312	6
TAP	83	336	3
TAP	83	360	7
TAP	84	0	2
TAP	84	32	0
TAP	84	64	0
XTP	84	96	2
TAP	84	128	7
TAP	84	160	7
TAP	84	192	2
TAP	84	224	6
TAP	84	256	6
XST	84	288	2
SCL	84	288	2	96	64	5
TAP	84	320	5
TAP	84	352	5
TTP	85	0	0	C	1	M1

T_REC_TAP	349
T_REC_BRK	11
T_REC_XTP	27
T_REC_HLD	46
T_REC_XHO	6
T_REC_STR	109
T_REC_BST	5
T_REC_XST	16
T_REC_TTP	64
T_REC_THO	1
T_REC_SLD	131
T_REC_ALL	765
T_NUM_TAP	565
T_NUM_BRK	16
T_NUM_HLD	53
T_NUM_SLD	131
T_NUM_ALL	765
T_JUDGE_TAP	581
T_JUDGE_HLD	130
T_JUDGE_SLD	131
T_JUDGE_ALL	842
TTM_EACHPAIRS	120
TTM_SCR_TAP	282500
TTM_SCR_BRK	41600
TTM_SCR_HLD	53000
TTM_SCR_SLD	196500
TTM_SCR_ALL	573600
TTM_SCR_S	554850
TTM_SCR_SS	572000
TTM_RAT_ACV	10027

