VERSION	0.00.00	1.03.00
FES_MODE	0
BPM_DEF	170.000	170.000	170.000	170.000
MET_DEF	4	4
RESOLUTION	384
CLK_DEF	384
COMPATIBLE_CODE	MA2

BPM	0	0	170.000
MET	0	0	4	4

STR	1	0	2
SCR	1	0	2	96	96	4
STR	2	0	2
SCR	2	0	2	96	96	4
HLD	3	0	5	192
HLD	3	192	4	192
TAP	4	0	3
TAP	4	192	2
HLD	5	0	2	192
HLD	5	192	3	192
TAP	6	0	4
TAP	6	96	4
TAP	6	192	3
TAP	6	192	5
TAP	7	0	4
HLD	7	0	5	384
HLD	7	192	3	192
TAP	8	192	2
TAP	8	192	4
STR	9	0	5
SCL	9	0	5	96	96	3
TAP	9	192	2
TAP	9	288	2
STR	10	0	5
SCL	10	0	5	96	96	3
TAP	10	192	2
TAP	10	288	2
HLD	11	0	2	96
HLD	11	0	3	96
HLD	11	192	4	96
HLD	11	192	5	96
TAP	12	0	3
STR	12	0	6
SCL	12	0	6	96	96	3
TAP	13	0	2
TAP	13	96	2
TAP	13	192	3
TAP	13	288	3
TAP	14	0	2
TAP	14	0	4
TAP	14	96	3
TAP	14	96	4
TAP	14	192	3
TAP	14	192	5
HLD	15	0	4	96
HLD	15	0	5	96
HLD	15	192	2	96
HLD	15	192	3	96
TAP	16	0	4
TAP	16	96	3
TAP	16	192	2
TAP	16	192	5
HLD	17	0	2	384
TAP	17	0	4
TAP	17	192	3
TAP	17	288	3
HLD	18	0	5	384
TAP	18	192	4
TAP	18	288	4
HLD	19	0	1	288
TAP	19	192	3
STR	19	288	3
SCL	19	288	3	96	192	0
SCR	19	288	3	96	192	6
HLD	21	0	6	192
HLD	21	192	4	192
HLD	22	0	3	192
HLD	22	192	1	192
STR	23	0	0
SCL	23	0	0	96	288	2
STR	24	0	7
SCR	24	0	7	96	288	5
THO	25	0	0	192	C	1	M1
BRK	26	0	6
BRK	26	0	7
TAP	26	96	0
TAP	26	96	1
TAP	26	192	2
TAP	26	192	3
TAP	26	288	4
TAP	26	288	5
TAP	27	0	3
STR	27	0	6
SCL	27	0	6	96	48	4
TAP	27	96	3
STR	27	192	0
SCR	27	192	0	96	48	2
TAP	27	192	3
TAP	27	288	3
XTP	28	0	3
XTP	28	0	6
TAP	28	96	4
TAP	28	96	5
TAP	28	192	2
TAP	28	192	3
TAP	28	288	1
TAP	28	288	4
STR	29	0	0
SI_	29	0	0	96	48	4
TAP	29	0	5
TAP	29	96	6
TAP	29	192	2
STR	29	192	7
SI_	29	192	7	96	48	3
TAP	29	288	1
BRK	30	0	1
BRK	30	0	5
HLD	30	192	1	96
TAP	30	192	4
TAP	30	288	3
TAP	30	336	3
TAP	31	0	2
TAP	31	96	3
HLD	31	96	6	96
TAP	31	192	4
TAP	31	240	4
TAP	31	288	5
TTP	32	0	3	B	0	M1
TTP	32	96	1	B	0	M1
TTP	32	96	2	E	0	M1
TTP	32	192	4	B	0	M1
TTP	32	288	6	B	0	M1
TTP	32	288	6	E	0	M1
THO	33	0	0	192	C	0	M1
BRK	33	192	7
TAP	34	0	0
TAP	34	0	1
STR	34	96	6
SCL	34	96	6	96	120	3
STR	34	96	7
SUL	34	96	7	96	120	2
TAP	35	0	1
TAP	35	0	7
STR	35	96	2
SUR	35	96	2	96	120	7
STR	35	96	6
SCL	35	96	6	96	120	3
TAP	36	0	0
TAP	36	0	1
STR	36	96	2
SCL	36	96	2	96	120	7
STR	36	96	3
SUL	36	96	3	96	120	6
TAP	37	0	4
TAP	37	0	5
TAP	37	96	2
TAP	37	96	3
TAP	37	192	0
TAP	37	192	1
TAP	37	288	2
TAP	37	288	7
HLD	38	0	1	96
TAP	38	0	6
TAP	38	96	3
TAP	38	192	2
HLD	38	192	5	96
TAP	38	288	4
TAP	39	0	2
TAP	39	96	1
TAP	39	96	3
TAP	39	192	5
TAP	39	288	4
STR	39	288	6
SCR	39	288	6	96	192	1
TAP	40	192	2
STR	40	288	3
SF_	40	288	3	96	96	7
XTP	41	192	1
XTP	41	192	5
TAP	42	0	4
HLD	42	0	6	96
TAP	42	96	7
HLD	42	192	1	96
TAP	42	192	3
TAP	42	288	0
XST	43	0	6
SI_	43	0	6	96	48	4
XST	43	0	7
SI_	43	0	7	96	48	3
XST	43	192	3
SI_	43	192	3	96	48	1
XST	43	192	4
SI_	43	192	4	96	48	0
XTP	44	0	0
XTP	44	0	1
TAP	44	96	2
TAP	44	96	7
TAP	44	192	3
TAP	44	192	6
TAP	44	288	4
TAP	44	288	5
XST	45	0	2
SI_	45	0	2	96	48	0
XST	45	0	3
SI_	45	0	3	96	48	7
XST	45	192	0
SI_	45	192	0	96	48	4
XST	45	192	7
SI_	45	192	7	96	48	5
XTP	46	0	3
XTP	46	0	6
TAP	46	192	0
TAP	46	216	7
TAP	46	240	0
TAP	46	264	7
TAP	46	288	0
TAP	46	312	7
TAP	46	336	0
TAP	46	360	7
HLD	47	0	1	192
TTP	47	192	0	C	1	M1
BST	48	0	0
SUL	48	0	0	96	384	7
BST	48	0	7
SCL	48	0	7	96	384	0
XTP	49	192	1
XTP	49	192	6
TAP	50	0	5
TAP	50	48	4
TAP	50	48	5
TAP	50	144	3
TAP	50	192	3
TAP	50	192	4
TAP	50	288	6
TAP	50	336	4
TAP	50	336	6
TAP	51	48	2
TAP	51	96	2
TAP	51	96	4
XTP	51	192	1
XTP	51	288	1
TAP	52	0	2
TAP	52	48	2
TAP	52	48	3
TAP	52	144	4
TAP	52	192	3
TAP	52	192	4
TAP	52	288	1
TAP	52	336	1
TAP	52	336	3
TAP	53	48	5
TAP	53	96	3
TAP	53	96	5
XTP	53	192	4
XTP	53	192	6
XTP	53	288	4
XTP	53	288	6
TAP	54	0	5
TAP	54	48	4
TAP	54	48	5
TAP	54	144	3
TAP	54	192	2
TAP	54	192	4
TAP	54	288	6
TAP	54	336	4
TAP	54	336	6
TAP	55	48	3
TAP	55	96	2
TAP	55	96	4
XTP	55	192	1
XTP	55	192	5
XTP	55	288	2
XTP	55	288	6
TAP	56	0	5
TAP	56	96	3
TAP	56	96	4
TAP	56	192	2
TAP	56	288	1
TAP	56	288	3
TAP	57	0	2
TAP	57	96	3
TAP	57	96	5
BRK	57	192	2
BRK	57	192	6
HLD	58	0	2	192
TAP	58	96	3
TAP	58	144	3
TAP	58	192	3
TAP	58	288	1
TAP	58	288	4
HLD	59	0	5	192
TAP	59	96	4
TAP	59	144	4
TAP	59	192	4
TAP	59	288	3
TAP	59	288	6
HLD	60	0	1	192
TAP	60	96	0
TAP	60	144	0
TAP	60	192	0
STR	60	288	2
SCL	60	288	2	96	192	5
TAP	60	288	7
XTP	61	288	3
XTP	61	288	4
HLD	62	0	2	96
HLD	62	96	3	96
HLD	62	192	4	96
STR	62	288	5
SCR	62	288	5	96	288	3
STR	64	0	2
SCL	64	0	2	96	288	4
TAP	65	192	2
TAP	65	192	5
STR	66	0	1
SCR	66	0	1	96	288	7
STR	66	0	6
SCL	66	0	6	96	288	0
BRK	67	192	1
BRK	67	192	6
XST	68	0	3
SCL	68	0	3	96	48	0
XST	68	0	7
SCL	68	0	7	96	48	4
XST	68	192	0
SCR	68	192	0	96	48	3
XST	68	192	4
SCR	68	192	4	96	48	7
XST	69	0	3
SCL	69	0	3	96	48	0
XST	69	0	7
SCL	69	0	7	96	48	4
XST	69	192	0
SCR	69	192	0	96	48	3
XST	69	192	4
SCR	69	192	4	96	48	7
XTP	70	0	3
XTP	70	0	7
TAP	70	96	5
TAP	70	144	5
TAP	70	192	4
TAP	70	192	6
TAP	70	288	2
TAP	70	336	2
TAP	71	0	1
TAP	71	0	3
TAP	71	96	3
TAP	71	96	4
TAP	71	192	4
TAP	71	192	6
TAP	71	288	3
TAP	71	288	4
XST	72	0	2
SI_	72	0	2	96	48	0
XST	72	0	4
SI_	72	0	4	96	48	6
XST	72	192	0
SI_	72	192	0	96	48	3
XST	72	192	6
SI_	72	192	6	96	48	3
XST	73	0	3
SF_	73	0	3	96	48	7
BRK	73	192	1
BRK	73	192	5
HLD	74	0	6	96
TAP	74	0	7
TAP	74	96	4
HLD	74	192	1	96
TAP	74	192	3
TAP	74	288	0
STR	75	0	2
SI_	75	0	2	96	48	7
STR	75	0	6
SI_	75	0	6	96	48	3
BRK	75	192	0
BRK	75	192	4
XST	76	0	6
SI_	76	0	6	96	48	4
XST	76	0	7
SI_	76	0	7	96	48	3
XST	76	192	3
SI_	76	192	3	96	48	1
XST	76	192	4
SI_	76	192	4	96	48	0
XST	77	0	0
SI_	77	0	0	96	48	6
XST	77	0	1
SI_	77	0	1	96	48	5
XST	77	192	5
SI_	77	192	5	96	48	3
XST	77	192	6
SI_	77	192	6	96	48	2
XTP	78	0	2
XTP	78	0	3
TAP	78	96	1
TAP	78	96	4
TAP	78	144	1
TAP	78	192	0
TAP	78	192	1
TAP	78	288	6
TAP	78	288	7
STR	79	0	4
SF_	79	0	4	96	48	0
TAP	79	0	5
BRK	79	192	2
BRK	79	192	6
XST	80	0	0
SI_	80	0	0	96	48	4
XST	80	0	1
SI_	80	0	1	96	48	3
XST	80	192	3
SI_	80	192	3	96	48	7
XST	80	192	4
SI_	80	192	4	96	48	6
XST	81	0	6
SI_	81	0	6	96	48	3
XST	81	0	7
SI_	81	0	7	96	48	2
BRK	81	192	1
BRK	81	192	4
TAP	82	0	0
TAP	82	0	7
TAP	82	96	0
TAP	82	96	7
TAP	82	192	6
TAP	82	192	7
TAP	82	288	5
STR	82	288	6
SXL	82	288	6	96	288	2
STR	84	0	0
SCR	84	0	0	96	96	3
STR	84	192	5
SCR	84	192	5	96	96	0
BST	85	0	2
SXL	85	0	2	96	288	6

T_REC_TAP	198
T_REC_BRK	17
T_REC_XTP	26
T_REC_HLD	36
T_REC_XHO	0
T_REC_STR	31
T_REC_BST	3
T_REC_XST	35
T_REC_TTP	7
T_REC_THO	2
T_REC_SLD	70
T_REC_ALL	425
T_NUM_TAP	297
T_NUM_BRK	20
T_NUM_HLD	38
T_NUM_SLD	70
T_NUM_ALL	425
T_JUDGE_TAP	317
T_JUDGE_HLD	128
T_JUDGE_SLD	70
T_JUDGE_ALL	515
TTM_EACHPAIRS	118
TTM_SCR_TAP	148500
TTM_SCR_BRK	52000
TTM_SCR_HLD	38000
TTM_SCR_SLD	105000
TTM_SCR_ALL	343500
TTM_SCR_S	331300
TTM_SCR_SS	341500
TTM_RAT_ACV	10058

