VERSION	0.00.00	1.03.00
FES_MODE	0
BPM_DEF	170.000	170.000	170.000	170.000
MET_DEF	4	4
RESOLUTION	384
CLK_DEF	384
COMPATIBLE_CODE	MA2

BPM	0	0	170.000
MET	0	0	4	4

HLD	1	0	2	192
TAP	1	192	3
HLD	2	0	5	192
TAP	2	192	4
HLD	3	0	2	192
TAP	3	192	3
TAP	4	0	5
TAP	4	96	5
TAP	4	192	4
TAP	4	192	6
HLD	5	0	6	192
TAP	5	192	7
HLD	6	0	1	192
TAP	6	192	0
HLD	7	0	6	192
TAP	7	192	7
TAP	8	0	0
TAP	8	0	7
TAP	8	96	0
TAP	8	96	7
XTP	8	192	1
XTP	8	192	6
TAP	9	0	2
TAP	9	96	2
TAP	9	192	2
TAP	9	192	3
TAP	10	0	5
TAP	10	96	5
TAP	10	192	4
TAP	10	192	5
TAP	11	0	2
TAP	11	96	2
TAP	11	192	3
TAP	11	288	3
TAP	12	0	4
TAP	12	96	4
TAP	12	192	3
TAP	12	192	5
TAP	13	0	6
TAP	13	96	6
TAP	13	192	6
TAP	13	192	7
TAP	14	0	1
TAP	14	96	1
TAP	14	192	0
TAP	14	192	1
TAP	15	0	7
TAP	15	96	7
TAP	15	192	0
TAP	15	288	0
TAP	16	0	0
TAP	16	0	7
TAP	16	96	0
TAP	16	96	7
XTP	16	192	1
XTP	16	192	6
STR	17	0	2
SI_	17	0	2	96	144	7
STR	18	0	6
SI_	18	0	6	96	144	2
STR	19	0	1
SCR	19	0	1	96	144	4
TAP	20	0	5
TAP	20	96	4
TAP	20	192	4
TAP	20	192	5
STR	21	0	5
SI_	21	0	5	96	144	0
STR	22	0	1
SI_	22	0	1	96	144	5
TAP	23	0	6
TAP	23	96	6
TAP	23	192	7
TAP	23	288	7
TAP	24	0	0
TAP	24	0	7
TAP	24	96	0
TAP	24	96	7
TAP	24	192	1
TAP	24	192	6
TAP	24	288	1
TAP	24	288	6
TAP	25	0	2
TAP	25	0	5
TAP	25	96	1
TAP	25	96	6
BRK	25	192	0
BRK	25	192	7
TAP	26	0	1
TAP	26	96	0
TAP	26	96	1
TAP	26	192	0
TAP	26	192	7
TAP	26	288	6
TAP	26	336	6
TAP	27	0	6
TAP	27	96	6
TAP	27	96	7
TAP	27	192	0
TAP	27	192	5
TAP	28	0	5
TAP	28	96	4
TAP	28	96	5
TAP	28	192	3
TAP	28	192	4
TAP	28	288	2
TAP	28	336	2
TAP	29	0	2
TAP	29	96	3
TAP	29	96	4
TAP	29	192	2
TAP	29	192	5
TAP	30	0	0
TAP	30	96	1
HLD	30	192	2	192
TAP	31	0	3
TAP	31	96	4
HLD	31	192	5	192
TAP	32	0	4
TAP	32	96	3
TAP	32	192	2
TAP	32	288	1
TAP	33	0	0
TAP	33	0	7
TAP	33	96	0
TAP	33	96	7
BRK	33	192	1
BRK	33	192	6
STR	34	0	2
SCL	34	0	2	96	144	7
STR	35	0	6
SUL	35	0	6	96	144	2
STR	36	0	0
SUR	36	0	0	96	144	5
TAP	37	0	6
TAP	37	96	6
TAP	37	96	7
TAP	37	192	0
TAP	37	192	5
TAP	37	288	1
TAP	37	288	4
XST	38	0	2
SCL	38	0	2	96	144	7
XST	38	0	3
SCR	38	0	3	96	144	6
XST	39	0	6
SCL	39	0	6	96	144	3
XST	39	0	7
SCR	39	0	7	96	144	2
TAP	40	0	2
TAP	40	96	2
TAP	40	192	1
TAP	40	288	1
TAP	41	0	0
TAP	41	0	7
TAP	41	96	0
TAP	41	96	7
BRK	41	192	1
BRK	41	192	6
TAP	42	0	7
TAP	42	96	7
TAP	42	192	6
TAP	42	288	5
TAP	42	336	5
TAP	43	0	5
TAP	43	96	4
TAP	43	96	5
TAP	43	192	3
TAP	43	192	6
TAP	44	0	2
TAP	44	96	2
TAP	44	192	1
TAP	44	288	0
TAP	44	336	0
TAP	45	0	0
TAP	45	96	0
TAP	45	96	7
TAP	45	192	1
TAP	45	192	6
STR	46	0	2
SUL	46	0	2	96	144	5
STR	47	0	6
SCL	47	0	6	96	144	3
TAP	48	0	2
TAP	48	96	2
TAP	48	192	5
TAP	48	288	5
TAP	49	0	3
TAP	49	0	4
TAP	49	96	2
TAP	49	96	5
BRK	49	192	1
BRK	49	192	6
TTP	50	0	0	B	0	L1
TTP	50	0	1	B	0	L1
TTP	51	0	2	B	0	L1
TTP	51	0	3	B	0	L1
TTP	52	0	4	B	0	L1
TTP	52	0	5	B	0	L1
TTP	53	0	6	B	0	L1
TTP	53	0	7	B	0	L1
TTP	54	0	0	B	0	L1
TTP	54	192	1	B	0	L1
TTP	55	0	2	B	0	L1
TTP	55	192	3	B	0	L1
TTP	56	0	4	B	0	L1
TTP	56	192	5	B	0	L1
TTP	57	0	0	C	1	L1
XHO	58	0	6	96
TAP	58	96	7
TAP	58	192	7
HLD	59	0	1	96
TAP	59	96	0
TAP	59	192	0
TAP	60	0	6
TAP	60	96	6
TAP	60	192	7
TAP	60	288	7
TAP	61	0	0
TAP	61	96	0
TAP	61	192	1
TAP	61	192	7
HLD	62	0	2	96
TAP	62	96	3
TAP	62	192	3
HLD	63	0	5	96
TAP	63	96	4
TAP	63	192	4
TAP	64	0	2
TAP	64	96	2
TAP	64	192	3
TAP	64	288	3
TAP	65	0	4
TAP	65	96	4
TAP	65	192	5
TAP	65	288	5
TAP	66	0	6
TAP	66	96	6
TAP	66	192	7
TAP	66	288	7
XTP	67	0	0
XTP	67	0	7
XTP	67	96	0
XTP	67	96	7
BRK	67	192	1
BRK	67	192	6
TAP	68	0	5
TAP	68	96	5
TAP	68	192	4
TAP	68	192	5
TAP	68	288	3
TAP	68	288	6
TAP	69	0	2
TAP	69	96	2
TAP	69	192	2
TAP	69	192	3
TAP	69	288	1
TAP	69	288	4
TAP	70	0	5
TAP	70	96	6
TAP	70	144	6
TAP	70	192	6
TAP	70	288	6
TAP	70	288	7
TAP	71	0	0
TAP	71	0	7
TAP	71	96	0
TAP	71	96	7
XTP	71	192	1
XTP	71	192	6
TAP	72	0	3
TAP	72	96	2
TAP	72	144	2
TAP	72	192	2
TAP	72	288	2
TAP	72	288	3
TAP	73	0	1
TAP	73	96	0
TAP	73	192	1
TAP	73	192	7
TAP	74	0	6
TAP	74	96	6
TAP	74	192	6
TAP	74	192	7
TAP	74	288	6
TAP	74	288	7
TAP	75	0	5
TAP	75	96	3
TAP	75	96	4
XTP	75	192	2
XTP	75	192	5
HLD	76	0	1	192
TAP	76	192	0
TAP	76	288	7
HLD	77	0	6	192
TAP	77	192	7
TAP	77	288	0
HLD	78	0	1	192
TAP	78	192	0
TAP	78	288	7
TAP	79	0	0
TAP	79	96	0
TAP	79	192	1
TAP	79	192	7
TAP	80	0	6
TAP	80	96	6
TAP	80	192	5
TAP	80	288	5
TAP	81	0	4
TAP	81	96	4
TAP	81	192	3
TAP	81	288	3
TAP	82	0	2
TAP	82	96	2
TAP	82	192	1
TAP	82	288	1
TAP	83	0	0
TAP	83	96	0
TAP	83	96	7
BRK	83	192	1
BRK	83	192	6
STR	84	0	0
SCR	84	0	0	96	144	3
STR	84	0	7
SCL	84	0	7	96	144	4
TTP	85	0	0	C	1	L1

T_REC_TAP	239
T_REC_BRK	12
T_REC_XTP	12
T_REC_HLD	14
T_REC_XHO	1
T_REC_STR	12
T_REC_BST	0
T_REC_XST	4
T_REC_TTP	16
T_REC_THO	0
T_REC_SLD	16
T_REC_ALL	326
T_NUM_TAP	283
T_NUM_BRK	12
T_NUM_HLD	15
T_NUM_SLD	16
T_NUM_ALL	326
T_JUDGE_TAP	295
T_JUDGE_HLD	52
T_JUDGE_SLD	16
T_JUDGE_ALL	363
TTM_EACHPAIRS	68
TTM_SCR_TAP	141500
TTM_SCR_BRK	31200
TTM_SCR_HLD	15000
TTM_SCR_SLD	24000
TTM_SCR_ALL	211700
TTM_SCR_S	204200
TTM_SCR_SS	210500
TTM_RAT_ACV	10057

