VERSION	0.00.00	1.03.00
FES_MODE	0
BPM_DEF	170.000	170.000	170.000	170.000
MET_DEF	4	4
RESOLUTION	384
CLK_DEF	384
COMPATIBLE_CODE	MA2

BPM	0	0	170.000
MET	0	0	4	4

TAP	1	0	4
TAP	2	0	4
TAP	3	0	5
TAP	4	0	5
TAP	5	0	6
TAP	6	0	6
TAP	7	0	7
XTP	8	0	7
STR	9	0	0
SI_	9	0	0	96	288	3
STR	11	0	4
SI_	11	0	4	96	288	7
TAP	13	0	0
TAP	14	0	0
TAP	15	0	1
TAP	16	0	2
TAP	17	0	3
TAP	17	192	3
TAP	18	0	3
TAP	19	0	4
TAP	19	192	4
TAP	20	0	4
HLD	21	0	4	384
HLD	21	0	5	384
HLD	23	0	2	384
HLD	23	0	3	384
TAP	25	0	1
BRK	25	192	0
BRK	25	192	7
TAP	26	0	1
TAP	26	192	1
TAP	27	0	2
TAP	27	96	2
TAP	27	192	2
TAP	28	0	3
TAP	28	192	3
HLD	29	0	3	192
HLD	29	0	4	192
TAP	30	0	5
TAP	30	192	5
TAP	31	0	6
TAP	31	192	6
TAP	32	0	7
TAP	32	192	7
BRK	33	0	0
BRK	33	0	7
HLD	34	0	6	192
HLD	35	0	5	192
HLD	36	0	4	192
HLD	37	0	3	192
HLD	37	0	4	192
TAP	38	0	2
TAP	38	192	2
TAP	39	0	1
TAP	39	192	1
TAP	40	0	0
TAP	40	192	0
BRK	41	0	0
BRK	41	0	7
TAP	42	0	1
TAP	42	96	1
TAP	42	192	1
TAP	43	0	0
TAP	43	0	1
TAP	43	192	0
TAP	43	192	1
TAP	44	0	2
TAP	44	96	2
TAP	44	192	2
TAP	45	0	2
TAP	45	0	3
TAP	45	192	2
TAP	45	192	3
TAP	46	0	4
TAP	46	192	4
TAP	47	0	3
TAP	47	192	3
TAP	48	0	3
TAP	48	0	4
BRK	49	0	2
BRK	49	0	5
TTP	50	0	6	E	0	L1
TTP	51	0	5	E	0	L1
TTP	52	0	4	E	0	L1
TTP	53	0	3	E	0	L1
TTP	54	0	2	E	0	L1
TTP	55	0	1	E	0	L1
THO	56	0	0	384	C	0	L1
STR	58	0	0
SI_	58	0	0	96	288	4
STR	60	0	7
SI_	60	0	7	96	288	3
TAP	62	0	2
TAP	62	192	2
TAP	63	0	2
TAP	63	0	3
TAP	64	0	1
TAP	64	192	1
TAP	65	0	0
TAP	65	0	1
TAP	66	0	7
TAP	66	192	7
BRK	67	0	0
BRK	67	0	7
TAP	68	0	7
TAP	68	96	7
TAP	68	192	7
TAP	69	0	6
TAP	69	96	6
TAP	69	192	6
TAP	70	0	4
TAP	70	0	5
TAP	70	192	4
TAP	70	192	5
TAP	71	0	3
TAP	71	96	4
TAP	71	192	3
TAP	72	0	2
TAP	72	96	2
TAP	72	192	2
TAP	73	0	1
TAP	73	96	1
XTP	73	192	1
TAP	74	0	0
TAP	74	0	1
TAP	74	192	0
TAP	74	192	1
TAP	75	0	7
TAP	75	96	0
BRK	75	192	7
TAP	76	0	1
TAP	76	192	0
TAP	76	192	1
TAP	77	0	2
TAP	77	192	2
TAP	77	192	3
TAP	78	0	4
TAP	78	192	3
TAP	78	192	4
TAP	79	0	3
TAP	79	0	4
XTP	79	192	2
XTP	79	192	5
TAP	80	0	6
TAP	80	96	6
TAP	80	192	6
TAP	81	0	6
TAP	81	0	7
TAP	81	192	6
TAP	81	192	7
TAP	82	0	0
TAP	82	96	0
TAP	82	192	0
TAP	83	0	0
TAP	83	0	1
TAP	83	192	0
TAP	83	192	1
STR	84	0	0
SI_	84	0	0	96	288	3
STR	84	0	7
SI_	84	0	7	96	288	4

T_REC_TAP	116
T_REC_BRK	11
T_REC_XTP	4
T_REC_HLD	11
T_REC_XHO	0
T_REC_STR	6
T_REC_BST	0
T_REC_XST	0
T_REC_TTP	6
T_REC_THO	1
T_REC_SLD	6
T_REC_ALL	161
T_NUM_TAP	132
T_NUM_BRK	11
T_NUM_HLD	12
T_NUM_SLD	6
T_NUM_ALL	161
T_JUDGE_TAP	143
T_JUDGE_HLD	68
T_JUDGE_SLD	6
T_JUDGE_ALL	217
TTM_EACHPAIRS	30
TTM_SCR_TAP	66000
TTM_SCR_BRK	28600
TTM_SCR_HLD	12000
TTM_SCR_SLD	9000
TTM_SCR_ALL	115600
TTM_SCR_S	111100
TTM_SCR_SS	114500
TTM_RAT_ACV	10096

