VERSION	0.00.00	1.03.00
FES_MODE	0
BPM_DEF	212.000	212.000	212.000	212.000
MET_DEF	4	4
RESOLUTION	384
CLK_DEF	480
COMPATIBLE_CODE	MA2

BPM	0	0	212.000
MET	0	0	4	5
MET	13	288	4	2
MET	14	96	4	5
MET	18	0	4	3
MET	18	288	4	5
MET	22	192	4	6
MET	24	0	4	5
MET	36	192	4	6
MET	39	192	4	5
MET	40	288	4	3
MET	41	192	4	5
MET	45	96	4	2
MET	45	288	4	6
MET	68	96	4	3
MET	69	0	4	5
MET	72	288	4	2
MET	73	96	4	5
MET	79	192	4	6
MET	82	192	4	2
MET	83	0	4	6
MET	105	192	4	3
MET	106	96	4	5

TAP	2	192	3
TAP	2	240	3
TAP	2	288	3
TAP	2	336	4
TAP	3	0	4
TAP	3	48	4
TAP	3	96	2
TAP	3	120	3
TAP	3	144	2
TAP	3	168	3
TAP	3	192	2
TAP	3	240	4
TAP	3	288	5
TAP	3	336	5
TAP	4	0	5
TAP	4	48	3
TAP	4	96	3
TAP	4	144	3
TAP	4	192	5
TAP	4	216	4
TAP	4	240	5
TAP	4	264	4
TAP	4	288	5
TAP	4	336	3
TAP	5	0	2
TAP	5	48	2
TAP	5	96	2
TAP	5	144	4
TAP	5	192	4
TAP	5	240	4
TAP	5	288	2
TAP	5	312	3
TAP	5	336	2
TAP	5	360	3
STR	6	0	2
SI_	6	0	2	96	96	5
TAP	6	96	1
TAP	6	144	1
TAP	6	240	2
TAP	6	336	3
STR	7	48	5
SCR	7	48	5	96	192	2
TAP	7	144	3
TAP	7	192	3
TAP	7	288	4
TAP	7	336	4
TAP	8	48	3
TAP	8	96	3
STR	8	192	1
SI_	8	192	1	96	96	6
TAP	8	192	4
TAP	8	288	5
TAP	8	336	5
TAP	9	0	5
TAP	9	48	4
TAP	9	144	3
STR	9	240	2
SCL	9	240	2	96	192	5
TAP	9	336	3
TAP	10	0	3
TAP	10	96	4
TAP	10	144	4
TAP	10	240	3
TAP	10	288	3
STR	11	0	2
SI_	11	0	2	96	96	5
TAP	11	0	4
TAP	11	96	1
TAP	11	144	1
TAP	11	240	2
TAP	11	336	3
STR	12	48	5
SCR	12	48	5	96	192	2
TAP	12	144	3
TAP	12	192	3
TAP	12	288	4
TAP	12	336	4
TAP	13	48	3
TAP	13	96	3
STR	13	192	1
SSR	13	192	1	96	96	5
TAP	13	192	4
TAP	14	96	3
HLD	14	96	6	192
TAP	14	288	4
TAP	14	336	5
HLD	15	0	2	96
TAP	15	96	3
HLD	15	192	1	192
TAP	15	192	4
TAP	16	0	3
TAP	16	48	2
HLD	16	96	5	96
TAP	16	192	4
TAP	16	288	3
HLD	16	288	6	192
TAP	17	96	0
TAP	17	144	7
TTP	17	192	1	E	0	M1
TTP	17	192	4	B	0	M1
TTP	17	256	3	B	0	M1
TTP	17	256	7	E	0	M1
TTP	17	320	2	E	0	M1
TTP	17	320	6	E	0	M1
TTP	18	0	0	B	0	M1
TTP	18	0	0	C	1	M1
TTP	18	0	0	E	0	M1
TTP	18	0	4	B	0	M1
TTP	18	0	4	E	0	M1
XTP	18	288	3
XTP	18	288	4
TTP	18	300	4	E	0	M1
TTP	18	312	0	C	1	M1
TTP	18	324	0	E	0	M1
XTP	19	96	0
XTP	19	96	7
TTP	19	192	2	B	0	M1
TTP	19	192	2	E	0	M1
TTP	19	192	5	B	0	M1
TTP	19	192	6	E	0	M1
XTP	20	0	3
XTP	20	0	4
TTP	20	6	4	E	0	M1
TTP	20	18	2	B	0	M1
TTP	20	18	5	B	0	M1
TTP	20	24	0	C	1	M1
TTP	20	30	1	B	0	M1
TTP	20	30	6	B	0	M1
TTP	20	36	0	E	0	M1
XTP	20	192	0
XTP	20	192	7
TTP	20	288	1	B	0	M1
TTP	20	288	2	B	0	M1
TTP	20	288	2	E	0	M1
TTP	20	288	5	B	0	M1
TTP	20	288	6	B	0	M1
TTP	20	288	6	E	0	M1
TAP	21	0	3
STR	21	0	4
SUR	21	0	4	96	672	7
BST	21	96	3
SI_	21	96	3	96	264	0
XTP	21	96	4
TAP	23	192	4
TAP	23	216	2
TAP	23	240	4
TAP	23	264	2
TAP	23	288	5
TAP	23	312	1
TAP	23	336	5
TAP	23	360	1
STR	24	0	6
SCL	24	0	6	96	288	2
TTP	24	96	4	B	0	M1
TTP	24	96	4	E	0	M1
TTP	24	288	5	B	0	M1
TTP	25	0	0	C	0	M1
STR	25	96	1
SCR	25	96	1	96	288	5
TTP	25	192	3	B	0	M1
TTP	25	192	4	E	0	M1
TTP	26	0	2	B	0	M1
TTP	26	96	0	C	0	M1
STR	26	192	6
SCL	26	192	6	96	288	2
TTP	26	288	5	B	0	M1
TTP	26	288	6	E	0	M1
TTP	27	96	4	E	0	M1
TTP	27	192	0	C	0	M1
STR	27	288	1
SCR	27	288	1	96	288	5
TTP	28	0	2	B	0	M1
TTP	28	0	2	E	0	M1
TTP	28	192	4	E	0	M1
TTP	28	288	0	C	0	M1
TAP	29	0	6
TAP	29	0	7
TAP	29	48	0
TAP	29	48	7
TAP	29	96	0
TAP	29	96	1
TAP	29	144	2
TAP	29	144	3
TAP	29	192	3
TAP	29	192	4
TAP	29	240	4
TAP	29	240	5
TAP	29	288	6
TAP	29	288	7
TAP	29	336	0
TAP	29	336	5
TAP	30	0	1
TAP	30	0	4
TAP	30	48	2
TAP	30	48	3
STR	30	96	1
SCR	30	96	1	96	288	5
TTP	30	192	3	B	0	M1
TTP	30	192	4	E	0	M1
TTP	31	0	2	E	0	M1
TTP	31	96	0	C	0	M1
STR	31	192	6
SCL	31	192	6	96	288	2
TTP	31	288	4	B	0	M1
TTP	31	288	4	E	0	M1
TTP	32	96	6	E	0	M1
TTP	32	192	0	C	0	M1
STR	32	288	1
SCR	32	288	1	96	288	5
TTP	33	0	3	B	0	M1
TTP	33	0	4	E	0	M1
TTP	33	192	3	E	0	M1
TTP	33	288	0	C	0	M1
STR	34	0	6
SCL	34	0	6	96	288	2
TTP	34	96	4	B	0	M1
TTP	34	96	4	E	0	M1
TTP	34	288	5	E	0	M1
TTP	35	0	0	C	0	M1
TAP	35	96	0
TAP	35	96	1
TAP	35	144	0
TAP	35	144	7
TAP	35	192	6
TAP	35	192	7
TAP	35	240	4
TAP	35	240	5
TAP	35	288	3
TAP	35	288	4
TAP	35	336	2
TAP	35	336	3
TAP	36	0	0
TAP	36	0	1
TAP	36	48	2
TAP	36	48	7
TAP	36	96	3
TAP	36	96	6
TAP	36	144	4
TAP	36	144	5
TAP	36	192	6
HLD	36	240	6	192
TTP	36	336	3	B	0	M1
TTP	36	336	4	B	0	M1
TTP	36	336	4	E	0	M1
TAP	37	48	0
HLD	37	96	0	288
TTP	37	192	1	B	0	M1
TTP	37	192	2	E	0	M1
TTP	37	288	3	B	0	M1
TTP	37	288	3	E	0	M1
HLD	38	0	7	240
TTP	38	96	6	B	0	M1
TTP	38	96	7	E	0	M1
TTP	38	144	5	B	0	M1
TTP	38	144	6	E	0	M1
TAP	38	240	1
HLD	38	288	1	192
TTP	39	0	3	B	0	M1
TTP	39	0	4	B	0	M1
TTP	39	0	4	E	0	M1
TTP	39	96	0	C	0	M1
TAP	39	192	0
TAP	39	192	7
TAP	39	240	0
TAP	39	240	7
TAP	39	336	3
TAP	39	336	5
TAP	40	48	1
TAP	40	48	4
TTP	40	96	3	E	0	M1
TAP	40	96	6
TAP	40	160	0
TTP	40	160	5	E	0	M1
TTP	40	224	4	E	0	M1
TAP	40	224	7
TTP	40	288	0	C	1	M1
TAP	40	288	1
BST	41	192	3
SCL	41	192	3	96	768	4
BST	41	192	4
SCR	41	192	4	96	768	3
TTP	41	198	4	E	0	M1
TTP	41	210	2	B	0	M1
TTP	41	210	5	B	0	M1
TTP	41	216	0	C	1	M1
TTP	41	216	2	E	0	M1
TTP	41	216	6	E	0	M1
TTP	41	222	1	B	0	M1
TTP	41	222	6	B	0	M1
TTP	41	228	0	B	0	M1
TTP	41	228	7	B	0	M1
TTP	41	234	0	E	0	M1
TAP	44	0	2
TAP	44	48	2
TAP	44	96	4
TAP	44	144	4
TAP	44	192	2
TAP	44	216	3
TAP	44	240	1
TAP	44	264	3
TAP	44	288	0
TAP	44	336	0
TAP	45	0	4
TAP	45	48	4
TAP	45	96	2
TAP	45	120	6
TAP	45	144	2
TAP	45	168	6
TAP	45	192	1
TAP	45	216	5
TAP	45	240	1
TAP	45	264	5
STR	45	288	0
SCR	45	288	0	96	48	3
TAP	45	288	4
STR	46	0	0
SI_	46	0	0	96	48	4
TAP	46	96	0
TAP	46	192	2
TAP	46	192	6
TAP	46	216	1
TAP	46	216	5
TAP	46	240	0
TAP	46	240	4
TAP	46	264	3
TAP	46	264	7
STR	46	288	2
SI_	46	288	2	96	48	5
STR	46	288	6
SI_	46	288	6	96	48	1
TAP	47	0	2
STR	47	0	6
SCR	47	0	6	96	288	5
HLD	47	96	2	288
TAP	48	288	3
STR	48	288	7
SCL	48	288	7	96	48	4
STR	49	0	7
SI_	49	0	7	96	48	3
TAP	49	96	7
TAP	49	192	1
TAP	49	192	5
TAP	49	216	2
TAP	49	216	6
TAP	49	240	3
TAP	49	240	7
TAP	49	264	0
TAP	49	264	4
STR	49	288	1
SI_	49	288	1	96	48	6
STR	49	288	5
SI_	49	288	5	96	48	2
STR	50	0	1
SCL	50	0	1	96	288	2
TAP	50	0	5
HLD	50	96	5	288
TAP	51	288	2
STR	51	288	6
SI_	51	288	6	96	96	2
TAP	52	0	2
TAP	52	48	1
STR	52	96	0
SLR	52	96	0	96	96	4
STR	52	192	4
SI_	52	192	4	96	48	1
STR	52	288	7
SI_	52	288	7	96	48	3
TAP	53	0	0
STR	53	96	1
SI_	53	96	1	96	96	5
TAP	53	192	5
TAP	53	240	6
STR	53	288	7
SLL	53	288	7	96	96	3
STR	54	0	3
SI_	54	0	3	96	48	6
STR	54	96	0
SI_	54	96	0	96	48	4
STR	54	192	7
SCL	54	192	7	96	288	0
HLD	54	288	3	384
HLD	55	288	6	96
TAP	56	0	1
TAP	56	96	0
TAP	56	120	7
TAP	56	144	0
TAP	56	168	7
TAP	56	192	0
TAP	56	216	7
TAP	56	240	0
TAP	56	264	7
TAP	56	288	0
TAP	56	312	7
TAP	56	336	0
TAP	56	360	7
TAP	57	0	0
TAP	57	24	7
TAP	57	48	0
TAP	57	72	7
TAP	57	96	0
TAP	57	120	7
TAP	57	144	0
TAP	57	168	7
TAP	57	192	1
TAP	57	192	6
STR	57	288	7
SCL	57	288	7	96	48	4
TAP	57	336	1
STR	58	0	7
SI_	58	0	7	96	48	3
TAP	58	96	7
TAP	58	192	1
TAP	58	192	5
TAP	58	216	2
TAP	58	216	6
TAP	58	240	3
TAP	58	240	7
TAP	58	264	0
TAP	58	264	4
STR	58	288	1
SI_	58	288	1	96	48	6
STR	58	288	5
SI_	58	288	5	96	48	2
STR	59	0	1
SCL	59	0	1	96	96	3
TAP	59	0	5
TAP	59	96	1
TAP	59	96	5
STR	59	192	0
SI_	59	192	0	96	48	4
TAP	59	216	7
TAP	59	240	6
TAP	59	264	5
TAP	59	288	0
TAP	59	288	4
TAP	60	0	6
TAP	60	24	7
TAP	60	48	0
TAP	60	72	1
TAP	60	96	2
TAP	60	120	3
TAP	60	144	4
TAP	60	168	5
TAP	60	192	2
HLD	60	192	6	96
STR	60	288	0
SCR	60	288	0	96	48	3
TAP	60	336	5
STR	61	0	0
SI_	61	0	0	96	48	4
TAP	61	96	0
TAP	61	192	2
TAP	61	192	6
TAP	61	216	1
TAP	61	216	5
TAP	61	240	0
TAP	61	240	4
TAP	61	264	3
TAP	61	264	7
STR	61	288	2
SI_	61	288	2	96	48	5
STR	61	288	6
SI_	61	288	6	96	48	1
TAP	62	0	2
STR	62	0	6
SCR	62	0	6	96	96	4
TAP	62	96	2
TAP	62	96	6
STR	62	192	7
SI_	62	192	7	96	48	3
TAP	62	216	0
TAP	62	240	1
TAP	62	264	2
TAP	62	288	3
TAP	62	288	7
TAP	63	0	1
TAP	63	24	0
TAP	63	48	7
TAP	63	72	6
TAP	63	96	5
TAP	63	120	4
TAP	63	144	3
TAP	63	168	2
TAP	63	192	1
TAP	63	192	5
TAP	63	288	0
TAP	63	288	7
TAP	63	336	0
TAP	63	336	7
HLD	64	48	2	96
HLD	64	48	6	96
STR	64	192	1
SI_	64	192	1	96	48	4
STR	64	192	5
SI_	64	192	5	96	48	0
TAP	64	288	1
TAP	64	288	5
TAP	65	96	2
TAP	65	96	6
TAP	65	160	4
TAP	65	160	5
TAP	65	224	2
TAP	65	224	3
TAP	65	288	4
TAP	65	288	6
TAP	65	352	1
TAP	65	352	3
TAP	66	32	3
TAP	66	32	4
TAP	66	96	1
TAP	66	96	6
STR	66	192	3
SI_	66	192	3	96	48	0
STR	66	192	4
SI_	66	192	4	96	48	7
TAP	66	288	3
TAP	66	288	4
TTP	66	292	4	E	0	M1
TTP	66	312	0	C	1	M1
TTP	66	336	0	E	0	M1
TAP	67	48	1
TAP	67	48	6
TAP	67	144	7
TAP	67	192	1
TAP	67	192	5
STR	67	288	2
SI_	67	288	2	96	32	7
STR	67	288	6
SI_	67	288	6	96	48	3
TAP	68	0	2
TAP	68	0	6
TAP	68	96	1
TAP	68	96	5
TAP	68	112	2
TAP	68	112	6
TAP	68	128	3
TAP	68	128	7
TAP	68	144	0
TAP	68	144	4
TAP	68	240	2
TAP	68	240	6
TAP	68	256	1
TAP	68	256	5
TAP	68	272	0
TAP	68	272	4
STR	68	288	3
SXL	68	288	3	96	240	2
STR	68	288	7
SXL	68	288	7	96	240	6
TAP	69	0	3
TAP	69	0	7
TAP	70	96	2
TAP	70	144	2
TAP	70	192	2
TAP	70	216	3
TAP	70	240	2
TAP	70	288	2
TAP	70	336	2
TAP	71	0	2
TAP	71	24	3
TAP	71	48	2
TAP	71	72	3
TAP	71	96	2
TAP	71	120	3
TAP	71	144	2
TAP	71	192	2
TAP	71	240	2
TAP	71	288	2
TAP	71	312	3
TAP	71	336	2
TAP	72	0	2
TAP	72	48	2
TAP	72	96	2
TAP	72	120	3
TAP	72	144	2
TAP	72	168	3
TAP	72	192	2
TAP	72	216	3
TAP	72	240	2
TAP	72	288	1
TAP	72	312	3
TAP	72	336	2
TAP	72	360	4
TAP	73	0	3
TAP	73	24	5
TAP	73	48	4
TAP	73	72	6
TAP	73	96	4
TAP	73	144	4
TAP	73	192	4
TAP	73	216	5
TAP	73	240	4
TAP	73	288	4
TAP	73	336	4
TAP	74	0	4
TAP	74	24	5
TAP	74	48	4
TAP	74	72	5
TAP	74	96	4
TAP	74	120	5
TAP	74	144	4
TAP	74	192	4
TAP	74	240	4
TAP	74	288	4
TAP	74	312	5
TAP	74	336	4
TAP	75	0	4
TAP	75	48	4
TAP	75	96	4
TAP	75	120	5
TAP	75	144	4
TAP	75	168	5
TAP	75	192	4
TAP	75	216	5
TAP	75	240	4
TAP	75	288	6
TAP	75	336	6
TAP	76	0	4
TAP	76	48	4
TAP	76	96	2
TAP	76	144	2
HLD	76	192	0	96
TAP	76	288	4
TAP	77	0	1
TAP	77	0	3
TAP	77	32	2
TAP	77	64	3
TAP	77	96	2
TAP	77	96	4
TAP	77	128	3
TAP	77	160	4
TAP	77	192	3
TAP	77	192	5
TAP	77	288	4
TAP	77	288	6
TAP	77	320	5
TAP	77	352	4
TAP	78	0	3
TAP	78	0	5
TAP	78	32	4
TAP	78	64	3
TAP	78	96	2
TAP	78	96	4
TAP	78	128	3
TAP	78	160	2
TAP	78	192	1
TAP	78	192	5
TAP	78	224	4
TAP	78	256	3
TAP	78	288	2
TAP	78	288	6
TAP	79	0	6
TAP	79	32	5
TAP	79	64	4
TAP	79	96	6
TAP	79	128	5
TAP	79	160	4
TAP	79	192	1
TAP	79	192	3
TAP	79	224	2
TAP	79	256	3
TAP	79	288	2
TAP	79	288	4
TAP	79	320	3
TAP	79	352	4
TAP	80	0	3
TAP	80	0	5
TAP	80	32	4
TAP	80	64	5
TAP	80	96	4
TAP	80	96	6
TAP	80	128	5
TAP	80	160	6
TAP	80	192	5
TAP	80	192	7
TAP	80	224	6
TAP	80	256	7
TAP	80	288	0
TAP	80	288	6
TAP	80	320	7
TAP	80	352	0
HLD	81	0	1	96
TAP	81	0	5
HLD	81	96	7	96
HLD	81	192	3	96
HLD	81	288	1	192
HLD	82	0	5	96
TAP	82	192	1
TAP	82	192	5
TAP	82	208	0
TAP	82	208	4
TAP	82	224	3
TAP	82	224	7
TAP	82	240	2
TAP	82	240	6
TAP	82	256	1
TAP	82	256	5
TAP	82	272	0
TAP	82	272	4
TAP	82	288	3
TAP	82	288	7
TAP	82	304	6
TAP	82	320	5
TAP	82	336	4
TAP	82	352	3
TAP	82	368	2
BRK	83	0	1
BRK	83	0	5
TAP	83	288	3
TAP	83	288	4
TAP	84	48	2
TAP	84	48	5
STR	84	192	0
SI_	84	192	0	96	384	3
STR	84	192	7
SI_	84	192	7	96	384	4
TAP	86	0	3
TAP	86	0	4
TAP	86	48	3
TAP	86	48	4
TAP	86	144	2
TAP	86	144	5
TAP	87	48	1
TAP	87	48	6
TAP	87	144	0
TAP	87	144	7
STR	87	192	0
SI_	87	192	0	96	384	3
STR	87	192	7
SI_	87	192	7	96	384	4
STR	89	0	5
SCL	89	0	5	96	336	7
TAP	89	336	3
TAP	90	48	3
TAP	90	144	2
STR	90	192	2
SCR	90	192	2	96	336	0
TAP	91	144	4
TAP	91	240	5
TAP	91	336	1
TAP	91	336	6
STR	92	0	1
SLR	92	0	1	96	192	0
STR	92	0	6
SLL	92	0	6	96	192	7
TAP	93	0	0
TAP	93	0	7
TAP	93	96	1
TAP	93	96	6
TAP	93	192	0
TAP	93	216	7
TAP	93	240	0
TAP	93	264	7
TAP	93	288	0
TAP	93	312	7
TAP	93	336	0
TAP	93	360	7
TAP	94	0	0
TAP	94	24	7
TAP	94	48	0
TAP	94	72	7
TAP	94	96	0
TAP	94	120	7
TAP	94	144	0
TAP	94	168	7
TAP	94	192	0
TAP	94	216	7
TAP	94	240	0
TAP	94	264	7
TAP	94	288	1
TAP	94	288	6
STR	95	0	0
SI_	95	0	0	96	48	4
TAP	95	48	6
STR	95	96	0
SCR	95	96	0	96	48	3
TAP	95	192	0
TAP	95	288	1
TAP	95	288	5
TAP	95	312	2
TAP	95	312	6
TAP	95	336	3
TAP	95	336	7
TAP	95	360	0
TAP	95	360	4
STR	96	0	1
SI_	96	0	1	96	48	6
STR	96	0	5
SI_	96	0	5	96	48	2
STR	96	96	1
SCL	96	96	1	96	96	3
TAP	96	96	5
TAP	96	192	1
TAP	96	192	5
STR	96	288	0
SI_	96	288	0	96	48	4
TAP	96	312	7
TAP	96	336	6
TAP	96	360	5
STR	97	0	0
SCL	97	0	0	96	48	5
TAP	97	0	4
TAP	97	96	0
TAP	97	96	3
TAP	97	120	2
TAP	97	144	1
TAP	97	168	0
TAP	97	192	4
TAP	97	192	7
TAP	97	288	1
TAP	97	288	5
HLD	98	0	0	96
HLD	98	0	7	96
TAP	98	144	2
TAP	98	144	5
TAP	98	192	3
TAP	98	192	4
BRK	98	240	0
BRK	98	240	7
STR	98	336	1
SI_	98	336	1	96	48	6
STR	98	336	5
SI_	98	336	5	96	48	2
TAP	99	48	1
TAP	99	48	5
TAP	99	144	3
TAP	99	144	7
TAP	99	192	1
TAP	99	192	5
TAP	99	288	2
TAP	99	288	7
TAP	99	312	6
TAP	99	336	5
TAP	99	360	4
STR	100	0	7
SI_	100	0	7	96	48	3
TAP	100	24	0
TAP	100	48	1
TAP	100	72	2
TAP	100	96	3
STR	100	96	7
SCR	100	96	7	96	48	2
TAP	100	192	4
TAP	100	192	7
TAP	100	216	5
TAP	100	240	6
TAP	100	264	7
TAP	100	288	0
TAP	100	288	3
TAP	101	0	0
TAP	101	0	7
TAP	101	96	1
TAP	101	96	3
TAP	101	144	2
TAP	101	192	4
TAP	101	192	6
TAP	101	240	5
TAP	101	288	6
TAP	101	288	7
TAP	101	336	0
TAP	101	336	7
TAP	102	0	0
HLD	102	0	1	96
TAP	102	96	2
TAP	102	144	2
TAP	102	192	1
TAP	102	192	3
TAP	102	256	4
TAP	102	256	5
TAP	102	320	2
TAP	102	320	3
TAP	103	0	4
TAP	103	0	6
TAP	103	64	1
TAP	103	64	3
TAP	103	128	3
TAP	103	128	4
TAP	103	192	1
TAP	103	192	6
STR	103	288	3
SI_	103	288	3	96	48	0
STR	103	288	4
SI_	103	288	4	96	48	7
TAP	104	0	3
TAP	104	0	4
TTP	104	4	4	E	0	M1
TTP	104	24	0	C	1	M1
TTP	104	48	0	E	0	M1
TAP	104	144	1
TAP	104	144	6
TAP	104	240	0
TAP	104	288	2
TAP	104	288	6
STR	105	0	1
SI_	105	0	1	96	48	4
STR	105	0	5
SI_	105	0	5	96	32	0
TAP	105	96	1
TAP	105	96	5
TAP	105	192	2
TAP	105	192	6
TAP	105	208	1
TAP	105	208	5
TAP	105	224	0
TAP	105	224	4
TAP	105	240	3
TAP	105	240	7
TAP	105	336	1
TAP	105	336	5
TAP	105	352	2
TAP	105	352	6
TAP	105	368	3
TAP	105	368	7
STR	106	0	0
SXR	106	0	0	96	240	1
STR	106	0	4
SXR	106	0	4	96	240	5
TAP	106	96	0
TAP	106	96	4
STR	107	192	0
SI_	107	192	0	96	48	3
TAP	107	240	7
TAP	107	288	6
STR	107	336	5
SI_	107	336	5	96	48	0
STR	108	0	4
SI_	108	0	4	96	48	1
TAP	108	48	4
STR	108	96	4
SI_	108	96	4	96	48	7
STR	108	288	6
SI_	108	288	6	96	48	3
TAP	108	336	7
TAP	109	0	0
STR	109	48	1
SCR	109	48	1	96	48	4
STR	109	96	4
SUR	109	96	4	96	144	5
TAP	109	144	5
HLD	109	192	6	192
TAP	110	0	0
STR	110	48	7
SCR	110	48	7	96	48	2
TAP	110	96	6
TAP	110	144	5
STR	110	192	4
SCR	110	192	4	96	48	7
TAP	110	240	3
STR	110	288	1
SV_	110	288	1	96	48	0
TAP	110	312	2
TAP	110	336	3
STR	111	0	6
SV_	111	0	6	96	48	7
TAP	111	24	5
TAP	111	48	4
TAP	111	96	2
STR	111	144	3
SI_	111	144	3	96	48	0
TAP	111	192	4
TAP	111	240	5
STR	111	288	6
SI_	111	288	6	96	48	3
TAP	111	336	7
STR	112	0	2
SV_	112	0	2	96	48	3
TAP	112	24	1
TAP	112	48	0
STR	112	96	5
SV_	112	96	5	96	48	4
TAP	112	120	6
TAP	112	144	7
TAP	112	192	1
STR	112	240	0
SCR	112	240	0	96	48	3
TAP	112	288	7
TAP	112	336	6
TAP	113	0	5
TAP	113	48	4
HLD	113	96	0	96
HLD	113	96	7	96
TAP	113	288	4
TAP	113	288	6
TAP	113	336	1
TAP	113	336	3
TAP	114	48	2
TAP	114	48	5
TAP	114	96	1
TAP	114	96	6
TAP	114	144	0
TAP	114	144	7
BRK	114	192	0
BRK	114	192	7
TAP	114	200	1
TAP	114	200	6
TAP	114	208	2
TAP	114	208	5
TAP	114	216	3
TAP	114	216	4

T_REC_TAP	659
T_REC_BRK	6
T_REC_XTP	9
T_REC_HLD	28
T_REC_XHO	0
T_REC_STR	96
T_REC_BST	3
T_REC_XST	0
T_REC_TTP	99
T_REC_THO	0
T_REC_SLD	99
T_REC_ALL	999
T_NUM_TAP	863
T_NUM_BRK	9
T_NUM_HLD	28
T_NUM_SLD	99
T_NUM_ALL	999
T_JUDGE_TAP	872
T_JUDGE_HLD	91
T_JUDGE_SLD	99
T_JUDGE_ALL	1062
TTM_EACHPAIRS	196
TTM_SCR_TAP	431500
TTM_SCR_BRK	23400
TTM_SCR_HLD	28000
TTM_SCR_SLD	148500
TTM_SCR_ALL	631400
TTM_SCR_S	611600
TTM_SCR_SS	630500
TTM_RAT_ACV	10014

