VERSION	0.00.00	1.03.00
FES_MODE	0
BPM_DEF	212.000	212.000	212.000	212.000
MET_DEF	4	4
RESOLUTION	384
CLK_DEF	480
COMPATIBLE_CODE	MA2

BPM	0	0	212.000
MET	0	0	4	5
MET	13	288	4	2
MET	14	96	4	5
MET	18	0	4	3
MET	18	288	4	5
MET	22	192	4	6
MET	24	0	4	5
MET	36	192	4	6
MET	39	192	4	5
MET	40	288	4	3
MET	41	192	4	5
MET	45	96	4	2
MET	45	288	4	6
MET	68	96	4	3
MET	69	0	4	5
MET	72	288	4	2
MET	73	96	4	5
MET	79	192	4	6
MET	82	192	4	2
MET	83	0	4	6
MET	105	192	4	3
MET	106	96	4	5

XTP	6	96	2
XTP	6	96	4
TAP	6	192	3
TAP	6	288	4
TAP	7	0	5
TAP	7	48	5
TAP	7	96	4
TAP	7	192	6
TAP	7	240	6
HLD	7	288	4	288
TAP	8	0	6
TAP	8	96	5
TAP	8	192	6
XTP	8	288	3
XTP	8	288	5
TAP	9	0	4
TAP	9	96	3
TAP	9	192	2
TAP	9	240	2
TAP	9	288	3
TAP	10	0	1
TAP	10	48	1
HLD	10	96	3	288
TAP	10	192	2
TAP	10	288	1
TAP	11	0	0
XTP	11	96	1
XTP	11	96	4
TAP	11	192	2
TAP	11	288	5
TAP	12	0	6
TAP	12	48	6
TAP	12	96	4
TAP	12	192	5
TAP	12	240	5
HLD	12	288	3	288
TAP	13	0	4
TAP	13	96	5
STR	13	192	6
SCL	13	192	6	96	96	3
HLD	14	96	2	192
TAP	14	192	3
TAP	14	288	3
XTP	15	0	2
XTP	15	0	3
XTP	15	96	3
XTP	15	96	4
HLD	15	192	5	192
TAP	15	288	4
TAP	16	0	4
XTP	16	96	4
XTP	16	96	5
XTP	16	192	3
XTP	16	192	4
HLD	16	288	2	192
TAP	17	0	3
TAP	17	96	3
XTP	17	192	1
XTP	17	256	0
XTP	17	320	7
XTP	18	0	1
XTP	18	0	6
HLD	18	288	6	192
TAP	19	0	5
TAP	19	96	4
TAP	19	192	3
TAP	19	192	5
TAP	19	288	2
TAP	19	288	4
HLD	20	0	1	192
TAP	20	96	2
TAP	20	192	3
TAP	20	288	3
TAP	20	288	4
TAP	21	0	2
TAP	21	0	5
TAP	21	96	1
TAP	21	96	6
TAP	21	192	5
TAP	21	240	4
TAP	21	336	2
TAP	22	0	3
STR	22	96	3
SCL	22	96	3	96	288	4
TAP	22	96	4
TTP	22	192	0	C	1	M1
TAP	24	0	3
TAP	24	0	4
TAP	24	96	5
HLD	24	192	6	96
TAP	24	288	4
TAP	25	0	4
XTP	25	96	5
XTP	25	144	5
XTP	25	192	3
TAP	25	288	3
TAP	25	288	4
XTP	26	0	2
XTP	26	48	2
XTP	26	96	3
TAP	26	192	3
TAP	26	192	4
TAP	26	288	2
HLD	27	0	1	96
TAP	27	96	3
TAP	27	192	3
XTP	27	288	2
XTP	27	336	2
XTP	28	0	4
TAP	28	96	3
TAP	28	96	4
XTP	28	192	5
XTP	28	240	5
XTP	28	288	4
TTP	29	0	4	E	0	M1
TTP	29	96	6	E	0	M1
TTP	29	192	0	E	0	M1
TTP	29	288	2	E	0	M1
TTP	30	0	0	C	0	M1
TAP	30	96	4
TAP	30	96	5
TAP	30	192	6
HLD	30	288	7	96
TAP	31	0	5
TAP	31	96	4
XTP	31	192	5
XTP	31	240	5
XTP	31	288	3
TAP	32	0	2
TAP	32	0	4
XTP	32	96	1
XTP	32	144	1
XTP	32	192	3
TAP	32	288	2
TAP	32	288	3
TAP	33	0	1
HLD	33	96	0	96
TAP	33	192	2
TAP	33	288	3
XTP	34	0	1
XTP	34	48	1
XTP	34	96	3
TAP	34	192	2
TAP	34	192	4
XTP	34	288	6
XTP	34	336	6
XTP	35	0	4
TTP	35	96	0	E	0	M1
TTP	35	192	2	E	0	M1
TTP	35	288	4	E	0	M1
TTP	36	0	6	E	0	M1
TTP	36	96	0	C	0	M1
HLD	36	192	7	576
TAP	36	288	5
TAP	37	0	5
TAP	37	96	4
TAP	37	192	3
TAP	37	288	2
HLD	38	0	1	576
TAP	38	96	3
TAP	38	192	3
TAP	38	288	2
TAP	39	0	0
TAP	39	96	7
TAP	39	192	6
TAP	39	288	5
TAP	40	0	3
TAP	40	0	4
TAP	40	96	1
TAP	40	160	0
TAP	40	224	7
STR	40	288	6
SV_	40	288	6	96	96	3
BST	41	192	2
SCL	41	192	2	96	192	5
TAP	42	288	4
TAP	42	336	4
TAP	43	0	3
TAP	43	48	3
TAP	43	96	5
TAP	43	144	5
TAP	43	192	4
TAP	43	192	6
TAP	43	288	2
TAP	43	288	5
TAP	44	0	3
TAP	44	48	3
TAP	44	96	4
TAP	44	144	4
TAP	44	192	2
TAP	44	240	2
TAP	44	288	1
TAP	44	288	3
TAP	45	0	4
TAP	45	0	6
BRK	45	96	2
BRK	45	96	5
TAP	45	288	6
TAP	45	336	7
TAP	46	0	5
TAP	46	48	1
TAP	46	96	0
TAP	46	144	2
HLD	46	192	6	96
HLD	46	288	4	96
HLD	47	0	2	96
STR	47	96	0
SV_	47	96	0	96	48	2
STR	47	192	4
SV_	47	192	4	96	48	6
STR	48	0	0
SCR	48	0	0	96	48	3
STR	48	96	4
SCR	48	96	4	96	48	7
TAP	48	288	1
TAP	48	336	0
TAP	49	0	2
TAP	49	48	6
TAP	49	96	7
TAP	49	144	5
HLD	49	192	1	96
HLD	49	288	3	96
HLD	50	0	5	96
STR	50	96	7
SV_	50	96	7	96	48	5
STR	50	192	3
SV_	50	192	3	96	48	1
STR	51	0	7
SCL	51	0	7	96	48	4
STR	51	96	3
SCL	51	96	3	96	48	0
TAP	51	288	7
TAP	52	0	5
TAP	52	48	4
TAP	52	48	6
TAP	52	144	2
STR	52	192	1
SCL	52	192	1	96	96	6
STR	52	192	3
SUL	52	192	3	96	96	6
TAP	53	96	5
TAP	53	96	6
TAP	53	192	1
TAP	53	240	0
TAP	53	240	2
TAP	53	336	5
STR	54	0	4
SCL	54	0	4	96	96	1
STR	54	0	6
SUL	54	0	6	96	96	0
TAP	54	288	1
TAP	54	336	1
TAP	55	0	0
TAP	55	48	2
TAP	55	144	2
TAP	55	144	3
TAP	55	192	2
TAP	55	192	3
TAP	55	288	1
TAP	55	288	4
TAP	56	0	0
TAP	56	0	5
TAP	56	96	6
TAP	56	144	6
TAP	56	192	7
TAP	56	240	5
TAP	56	336	4
TAP	56	336	5
TAP	57	0	4
TAP	57	0	5
TAP	57	96	3
TAP	57	96	6
BRK	57	192	0
BRK	57	192	7
TAP	57	288	5
TAP	57	336	4
TAP	58	0	7
TAP	58	48	2
TAP	58	96	3
TAP	58	144	0
HLD	58	192	5	96
HLD	58	288	3	96
HLD	59	0	1	96
STR	59	96	7
SCR	59	96	7	96	48	2
STR	59	192	6
SCL	59	192	6	96	48	3
STR	60	0	1
SCR	60	0	1	96	48	4
STR	60	96	0
SCL	60	96	0	96	48	5
TAP	60	288	2
TAP	60	336	3
TAP	61	0	0
TAP	61	48	5
TAP	61	96	4
TAP	61	144	7
HLD	61	192	2	96
HLD	61	288	4	96
HLD	62	0	6	96
STR	62	96	0
SCL	62	96	0	96	48	5
STR	62	192	1
SCR	62	192	1	96	48	4
STR	63	0	6
SCL	63	0	6	96	48	3
STR	63	96	7
SCR	63	96	7	96	48	2
TAP	63	288	5
TAP	64	0	2
TAP	64	48	1
TAP	64	48	3
TAP	64	144	6
STR	64	192	5
SV_	64	192	5	96	96	2
STR	64	192	7
SV_	64	192	7	96	96	2
XTP	65	96	0
XTP	65	96	4
XTP	65	160	1
XTP	65	224	2
XTP	65	288	3
XTP	65	288	7
XTP	65	352	6
XTP	66	32	5
XTP	66	96	1
XTP	66	96	4
TAP	66	192	2
TAP	66	192	5
TAP	66	288	3
TAP	66	336	3
TAP	67	0	5
TAP	67	48	5
TAP	67	96	2
TAP	67	144	2
TAP	67	192	6
TAP	67	240	6
TAP	67	288	1
TAP	67	336	1
TAP	68	0	0
TAP	68	0	7
TAP	68	96	0
TAP	68	120	7
TAP	68	144	0
TAP	68	168	7
TAP	68	192	0
TAP	68	216	7
TAP	68	240	0
TAP	68	264	7
STR	68	288	0
SCR	68	288	0	96	288	7
TTP	69	0	0	C	1	M1
TAP	70	96	2
TAP	70	144	3
TAP	70	192	2
TAP	70	240	3
TAP	70	288	2
TAP	71	0	2
TAP	71	0	3
TAP	71	96	1
TAP	71	96	4
TAP	71	192	5
TAP	71	240	4
TAP	71	288	5
TAP	71	336	4
TAP	72	0	5
TAP	72	96	4
TAP	72	96	5
TAP	72	192	3
TAP	72	192	6
TTP	72	288	3	B	0	M1
TTP	72	288	3	E	0	M1
TTP	73	0	7	B	0	M1
TTP	73	0	7	E	0	M1
TAP	73	96	1
TAP	73	144	0
TAP	73	192	1
TAP	73	240	0
TAP	73	288	1
TAP	74	0	0
TAP	74	0	1
TAP	74	96	2
TAP	74	96	7
TAP	74	192	6
TAP	74	240	7
TAP	74	288	6
TAP	74	336	7
TAP	75	0	6
TAP	75	96	6
TAP	75	96	7
TAP	75	192	0
TAP	75	192	5
TAP	75	288	1
TAP	75	336	1
TAP	76	0	0
TAP	76	48	2
TAP	76	96	6
TAP	76	144	6
TAP	76	192	7
TAP	76	240	5
TAP	76	288	1
TTP	77	0	7	B	0	M1
TTP	77	0	7	E	0	M1
TTP	77	192	3	E	0	M1
TTP	77	288	0	B	0	M1
TTP	77	288	1	E	0	M1
TTP	78	96	3	B	0	M1
TTP	78	96	3	E	0	M1
TTP	78	288	5	E	0	M1
TTP	79	0	7	B	0	M1
TTP	79	0	7	E	0	M1
TTP	79	192	3	E	0	M1
TTP	79	288	1	B	0	M1
TTP	79	288	2	E	0	M1
TTP	80	0	5	E	0	M1
TTP	80	96	6	B	0	M1
TTP	80	96	6	E	0	M1
TTP	80	192	4	E	0	M1
TTP	80	288	0	C	0	M1
TTP	81	0	6	E	0	M1
TTP	81	96	5	E	0	M1
TTP	81	192	4	E	0	M1
TTP	81	288	3	E	0	M1
TTP	82	0	2	E	0	M1
TTP	82	96	0	C	1	M1
XHO	83	0	3	96
XHO	83	0	5	96
XHO	83	144	3	96
XHO	83	144	5	96
XTP	83	288	3
XTP	83	288	5
HLD	84	192	2	96
HLD	84	192	4	96
HLD	84	336	2	96
HLD	84	336	4	96
TAP	85	96	2
TAP	85	96	4
HLD	86	0	4	96
HLD	86	0	6	96
HLD	86	144	3	96
HLD	86	144	5	96
TAP	86	288	2
TAP	86	288	4
TAP	87	192	1
TAP	87	240	1
TAP	87	288	3
TAP	87	336	3
TAP	88	0	2
TAP	88	48	2
STR	88	96	4
SUL	88	96	4	96	96	0
SUR	88	96	4	96	96	0
HLD	89	0	6	384
TTP	89	288	6	B	0	M1
TTP	90	0	5	E	0	M1
HLD	90	192	1	384
TTP	91	96	1	B	0	M1
TTP	91	192	3	E	0	M1
TAP	92	0	5
TAP	92	48	5
TAP	92	96	4
TAP	92	144	6
TAP	92	240	6
TAP	92	288	7
TAP	93	0	0
TAP	93	0	7
TAP	93	96	1
TAP	93	96	6
TAP	93	192	1
TAP	93	240	1
TAP	93	288	0
TAP	93	336	2
TAP	94	48	2
TAP	94	96	3
TAP	94	192	3
TAP	94	192	4
BRK	94	288	1
BRK	94	288	6
TAP	95	0	5
TAP	95	48	4
TAP	95	96	7
TAP	95	144	2
TAP	95	192	3
TAP	95	240	0
HLD	95	288	6	96
HLD	96	0	4	96
HLD	96	96	2	96
STR	96	192	1
SCL	96	192	1	96	96	6
STR	96	288	6
SCL	96	288	6	96	96	3
XTP	97	96	7
TAP	97	192	0
TAP	97	192	6
TAP	97	288	2
TAP	97	288	4
TAP	98	0	1
TAP	98	48	0
TAP	98	96	3
TAP	98	144	6
TAP	98	192	7
TAP	98	240	4
XTP	98	336	3
XTP	98	336	6
XTP	99	48	1
XTP	99	48	4
XTP	99	144	3
XTP	99	144	6
XTP	99	192	3
XST	99	192	6
SCR	99	192	6	96	96	1
STR	99	288	1
SCR	99	288	1	96	96	4
XTP	100	96	0
TAP	100	192	1
TAP	100	192	7
TAP	100	288	3
TAP	100	288	5
TAP	101	0	6
TAP	101	96	2
TAP	101	96	4
TAP	101	144	2
TAP	101	144	4
TAP	101	240	0
TAP	101	240	6
STR	101	288	0
SV_	101	288	0	96	96	3
STR	101	288	6
SV_	101	288	6	96	96	3
TAP	102	192	1
TAP	102	192	4
TAP	102	256	2
TAP	102	320	3
TAP	103	0	4
TAP	103	0	7
TAP	103	64	6
TAP	103	128	5
TAP	103	192	0
TAP	103	192	4
TAP	103	288	2
TAP	103	288	6
TAP	104	0	3
TAP	104	48	3
TAP	104	96	5
TAP	104	144	5
TAP	104	192	2
TAP	104	240	2
TAP	104	288	6
TAP	104	336	6
TAP	105	0	1
TAP	105	48	1
TAP	105	96	0
TAP	105	96	7
TAP	105	192	0
TAP	105	216	7
TAP	105	240	0
TAP	105	264	7
TAP	105	288	0
TAP	105	312	7
TAP	105	336	0
TAP	105	360	7
STR	106	0	0
SCL	106	0	0	96	288	1
TTP	106	96	0	C	1	M1
TAP	107	192	4
TAP	107	240	1
TAP	107	288	4
TAP	107	336	3
TAP	108	0	6
TAP	108	48	3
TAP	108	96	5
TAP	108	120	4
TAP	108	144	5
TAP	108	192	3
TAP	108	192	6
TAP	108	288	3
TAP	108	336	6
TAP	109	0	3
TAP	109	48	4
TAP	109	96	1
TAP	109	144	4
TAP	109	192	2
TAP	109	216	3
TAP	109	240	2
TAP	109	288	1
TAP	109	288	4
TAP	110	0	0
TAP	110	0	7
TAP	110	96	5
TAP	110	144	4
TAP	110	144	6
TAP	110	240	2
TAP	110	288	1
STR	110	288	3
SI_	110	288	3	96	48	7
TAP	111	0	0
TAP	111	96	1
TAP	111	96	6
TAP	111	192	2
TAP	111	240	1
TAP	111	240	3
TAP	111	336	5
STR	112	0	4
SI_	112	0	4	96	48	0
TAP	112	0	6
TAP	112	96	7
TAP	112	192	1
TAP	112	192	6
TAP	112	288	4
TAP	112	288	5
TAP	112	336	3
TAP	112	336	6
TAP	113	48	2
TAP	113	48	3
TAP	113	96	1
STR	113	96	4
SI_	113	96	4	96	48	7
TAP	113	192	0
TAP	113	288	3
TAP	113	288	6
TAP	113	336	3
TAP	113	336	6
TAP	114	48	1
TAP	114	48	4
TAP	114	96	1
TAP	114	96	4
BRK	114	192	0
BRK	114	192	7

T_REC_TAP	391
T_REC_BRK	8
T_REC_XTP	64
T_REC_HLD	39
T_REC_XHO	4
T_REC_STR	36
T_REC_BST	1
T_REC_XST	1
T_REC_TTP	45
T_REC_THO	0
T_REC_SLD	39
T_REC_ALL	628
T_NUM_TAP	537
T_NUM_BRK	9
T_NUM_HLD	43
T_NUM_SLD	39
T_NUM_ALL	628
T_JUDGE_TAP	546
T_JUDGE_HLD	140
T_JUDGE_SLD	39
T_JUDGE_ALL	725
TTM_EACHPAIRS	104
TTM_SCR_TAP	268500
TTM_SCR_BRK	23400
TTM_SCR_HLD	43000
TTM_SCR_SLD	58500
TTM_SCR_ALL	393400
TTM_SCR_S	380750
TTM_SCR_SS	392500
TTM_RAT_ACV	10022

