VERSION	0.00.00	1.03.00
FES_MODE	0
BPM_DEF	212.000	212.000	212.000	212.000
MET_DEF	4	4
RESOLUTION	384
CLK_DEF	480
COMPATIBLE_CODE	MA2

BPM	0	0	212.000
MET	0	0	4	5
MET	13	288	4	2
MET	14	96	4	5
MET	18	0	4	3
MET	18	288	4	5
MET	22	192	4	6
MET	24	0	4	5
MET	36	192	4	6
MET	39	192	4	5
MET	40	288	4	3
MET	41	192	4	5
MET	45	96	4	2
MET	45	288	4	6
MET	68	96	4	3
MET	69	0	4	5
MET	72	288	4	2
MET	73	96	4	5
MET	79	192	4	6
MET	82	192	4	2
MET	83	0	4	6
MET	105	192	4	3
MET	106	96	4	5

TAP	6	96	2
TAP	6	192	2
TAP	6	288	3
TAP	7	0	3
TAP	7	96	4
STR	7	192	4
SCR	7	192	4	96	192	7
TAP	8	288	1
TAP	9	0	1
TAP	9	96	0
TAP	9	192	0
TAP	9	288	7
STR	10	0	7
SCL	10	0	7	96	192	4
TAP	11	96	2
TAP	11	192	2
TAP	11	288	1
TAP	12	0	1
TAP	12	96	0
TAP	12	96	7
STR	12	192	0
SXL	12	192	0	96	384	3
STR	12	192	7
SXR	12	192	7	96	384	4
TAP	14	96	5
TAP	14	192	5
TAP	14	288	4
TAP	15	0	4
TAP	15	0	5
TAP	15	192	2
TAP	15	288	2
TAP	16	0	3
TAP	16	96	2
TAP	16	96	3
TAP	16	288	5
TAP	17	0	5
TAP	17	96	4
XTP	17	192	4
XTP	17	192	5
XTP	17	288	3
XTP	17	288	6
XTP	18	0	2
XTP	18	0	7
TAP	18	288	6
TAP	19	0	6
TAP	19	96	7
TAP	19	192	0
TAP	19	192	5
TAP	20	0	1
TAP	20	96	1
TAP	20	192	0
TAP	20	288	2
TAP	20	288	7
TAP	21	0	3
TAP	21	0	6
STR	21	96	4
SI_	21	96	4	96	192	0
STR	21	96	5
SI_	21	96	5	96	192	1
STR	22	192	0
SCL	22	192	0	96	192	5
STR	22	192	1
SCR	22	192	1	96	192	4
TAP	24	0	5
TAP	24	96	5
TAP	24	192	4
TAP	24	288	4
STR	25	0	3
SSR	25	0	3	96	336	7
TAP	25	0	5
TAP	26	192	6
TAP	26	288	6
TAP	27	0	7
TAP	27	96	7
STR	27	192	0
SSL	27	192	0	96	336	4
TAP	27	192	6
XTP	29	0	5
XTP	29	96	5
XTP	29	192	4
XTP	29	192	5
XTP	29	288	3
XTP	29	288	4
XTP	30	0	2
XTP	30	0	5
TAP	30	96	1
TAP	30	192	1
TAP	30	288	0
TAP	31	0	0
TAP	31	96	1
STR	31	96	7
SSR	31	96	7	96	336	3
TAP	32	288	2
TAP	33	0	2
TAP	33	96	3
TAP	33	192	3
TAP	33	288	2
STR	33	288	4
SSL	33	288	4	96	336	0
XTP	35	96	1
XTP	35	192	1
XTP	35	288	0
XTP	35	288	1
XTP	36	0	0
XTP	36	0	7
XTP	36	96	1
XTP	36	96	6
XST	36	192	7
SCL	36	192	7	96	144	4
TAP	37	96	3
TAP	37	192	2
TAP	37	288	1
STR	38	0	0
SCR	38	0	0	96	144	3
TAP	38	288	4
TAP	39	0	5
TAP	39	96	6
STR	39	192	7
SCL	39	192	7	96	144	4
STR	40	96	2
SUL	40	96	2	96	192	6
TTP	41	192	0	C	1	L1
TTP	41	192	2	B	0	L1
TTP	41	192	5	B	0	L1
TTP	42	288	1	E	0	L1
TTP	42	288	7	E	0	L1
TTP	44	0	1	B	0	L1
TTP	44	0	6	B	0	L1
TAP	45	96	1
TAP	45	192	0
TAP	45	288	6
TAP	45	288	7
TAP	46	0	5
TAP	46	48	5
TAP	46	96	5
TAP	46	192	4
TAP	46	192	5
TAP	46	288	4
TAP	46	288	5
TAP	47	0	3
TAP	47	0	6
STR	47	96	3
SCL	47	96	3	96	144	0
TAP	47	96	6
TAP	48	0	6
TAP	48	96	6
TAP	48	96	7
TAP	48	192	0
TAP	48	192	5
TAP	48	288	1
TAP	48	288	4
TAP	49	0	2
TAP	49	48	2
TAP	49	96	2
TAP	49	192	2
TAP	49	192	3
TAP	49	288	2
TAP	49	288	3
TAP	50	0	1
TAP	50	0	4
TAP	50	96	1
STR	50	96	4
SCR	50	96	4	96	144	7
TAP	51	0	1
TAP	51	96	0
TAP	51	192	2
TAP	51	192	7
HLD	51	288	6	192
TAP	52	96	7
TAP	52	192	6
TAP	52	192	7
TAP	52	288	0
TAP	52	288	5
HLD	53	96	1	192
TAP	53	288	0
TAP	54	0	0
TAP	54	0	1
TAP	54	96	0
TAP	54	96	7
TAP	54	192	1
TAP	54	192	6
BST	54	288	1
SI_	54	288	1	96	144	4
BST	54	288	6
SI_	54	288	6	96	144	3
TAP	55	288	2
TAP	55	288	5
TAP	56	0	1
TAP	56	0	6
BST	56	96	0
SXL	56	96	0	96	336	3
BST	56	96	7
SXR	56	96	7	96	336	4
TAP	57	288	2
TAP	58	0	1
TAP	58	48	1
TAP	58	96	1
TAP	58	192	0
TAP	58	192	1
TAP	58	288	2
TAP	58	288	7
TAP	59	0	3
TAP	59	0	6
TAP	59	96	4
STR	59	96	5
SCR	59	96	5	96	144	0
TAP	60	0	1
TAP	60	96	2
TAP	60	96	7
TAP	60	192	3
TAP	60	192	6
TAP	60	288	5
TAP	61	0	6
TAP	61	48	6
TAP	61	96	6
TAP	61	192	6
TAP	61	192	7
TAP	61	288	0
TAP	61	288	5
TAP	62	0	1
TAP	62	0	4
STR	62	96	2
SCL	62	96	2	96	144	7
TAP	62	96	3
TAP	63	0	6
TAP	63	96	0
TAP	63	96	7
TAP	63	192	1
TAP	63	192	6
HLD	63	288	2	192
TAP	64	96	3
TAP	64	192	2
TAP	64	192	3
TAP	64	288	1
TAP	64	288	4
XTP	65	96	2
XTP	65	96	5
XTP	65	288	1
XTP	65	288	6
XTP	66	96	0
XTP	66	96	7
TAP	66	288	1
TAP	67	0	2
TAP	67	96	3
TAP	67	192	4
TAP	67	288	5
TAP	68	0	6
XTP	68	96	0
XTP	68	96	7
XTP	68	192	0
XTP	68	240	7
XTP	68	288	0
BST	69	0	1
SV_	69	0	1	96	192	4
BST	69	0	6
SV_	69	0	6	96	192	3
TAP	70	96	5
TAP	70	192	5
TAP	70	288	4
TAP	70	288	5
TAP	71	0	4
TAP	71	0	5
TAP	71	192	2
TAP	71	288	2
TAP	72	0	2
TAP	72	0	3
TAP	72	96	2
TAP	72	96	3
TAP	72	288	1
TAP	72	288	6
XTP	73	0	0
XTP	73	0	7
TAP	73	96	6
TAP	73	192	7
TAP	73	288	6
TAP	73	288	7
TAP	74	0	0
TAP	74	0	5
TAP	74	192	1
TAP	74	288	0
TAP	75	0	0
TAP	75	0	1
TAP	75	96	2
TAP	75	96	7
TAP	75	288	6
TAP	76	0	7
TAP	76	96	0
TAP	76	96	7
BRK	76	192	1
BRK	76	192	6
TTP	77	0	2	B	0	L1
TTP	77	0	3	B	0	L1
TTP	78	96	4	B	0	L1
TTP	78	96	5	B	0	L1
TTP	79	192	1	E	0	L1
TTP	79	192	7	E	0	L1
TTP	80	0	1	B	0	L1
TTP	80	0	6	B	0	L1
TTP	80	192	2	B	0	L1
TTP	80	192	5	B	0	L1
THO	81	0	0	384	C	1	L1
XHO	83	0	6	288
HLD	83	288	7	288
HLD	84	192	0	288
TAP	85	96	1
HLD	86	0	2	288
HLD	86	288	3	288
HLD	87	192	4	288
TAP	88	96	5
HLD	89	0	6	288
TAP	89	288	7
TAP	90	0	6
TAP	90	0	7
HLD	90	192	1	288
TAP	91	96	0
TAP	91	192	0
TAP	91	192	1
TAP	91	288	0
TAP	91	288	7
STR	92	0	1
SI_	92	0	1	96	144	4
STR	92	0	6
SI_	92	0	6	96	144	3
TAP	93	0	2
TAP	93	0	5
TAP	93	96	1
TAP	93	96	6
STR	93	192	0
SXL	93	192	0	96	336	3
STR	93	192	7
SXR	93	192	7	96	336	4
TAP	95	0	5
TAP	95	96	6
TAP	95	144	6
TAP	95	192	6
TAP	95	288	6
TAP	95	288	7
TAP	96	0	0
TAP	96	0	5
TAP	96	96	1
TAP	96	96	4
STR	96	192	2
SCL	96	192	2	96	144	7
TAP	96	192	3
TAP	97	96	6
TAP	97	192	6
TAP	97	192	7
TAP	97	288	0
TAP	97	288	5
TAP	98	0	1
TAP	98	0	4
TAP	98	96	3
TAP	98	192	2
XTP	98	336	0
XTP	98	336	1
XTP	99	48	0
XTP	99	48	1
XTP	99	192	0
XST	99	192	7
SUL	99	192	7	96	144	3
XST	100	96	1
SCR	100	96	1	96	144	4
HLD	101	0	5	192
TAP	101	192	4
TAP	101	288	4
TAP	101	288	5
TAP	102	0	3
TAP	102	0	6
XTP	102	192	2
XTP	102	192	5
XTP	103	0	1
XTP	103	0	6
XTP	103	192	0
XTP	103	192	7
TAP	104	0	6
TAP	104	96	5
TAP	104	192	4
TAP	104	288	3
TAP	105	0	2
TAP	105	96	1
TAP	105	192	0
TAP	105	192	7
TAP	105	288	7
TAP	105	336	0
TAP	106	0	7
BST	106	96	1
SI_	106	96	1	96	192	5
BST	106	96	6
SI_	106	96	6	96	192	2
STR	107	192	0
SUR	107	192	0	96	192	4
STR	108	288	6
SUL	108	288	6	96	192	2
TAP	110	0	1
TAP	110	96	0
XTP	110	192	0
XTP	110	192	1
TAP	110	240	0
TAP	110	240	1
TAP	110	288	0
TAP	110	288	1
TAP	111	96	6
TAP	111	192	7
XTP	111	288	6
XTP	111	288	7
TAP	111	336	6
TAP	111	336	7
TAP	112	0	6
TAP	112	0	7
TAP	112	192	5
TAP	112	288	4
XTP	113	0	4
XTP	113	0	5
TAP	113	48	4
TAP	113	48	5
TAP	113	96	4
TAP	113	96	5
TAP	113	288	3
TAP	113	288	4
TAP	114	0	2
TAP	114	0	5
TAP	114	96	1
TAP	114	96	6
BRK	114	192	0
BRK	114	192	7

T_REC_TAP	265
T_REC_BRK	4
T_REC_XTP	52
T_REC_HLD	11
T_REC_XHO	1
T_REC_STR	26
T_REC_BST	8
T_REC_XST	3
T_REC_TTP	17
T_REC_THO	1
T_REC_SLD	37
T_REC_ALL	425
T_NUM_TAP	363
T_NUM_BRK	12
T_NUM_HLD	13
T_NUM_SLD	37
T_NUM_ALL	425
T_JUDGE_TAP	375
T_JUDGE_HLD	72
T_JUDGE_SLD	37
T_JUDGE_ALL	484
TTM_EACHPAIRS	112
TTM_SCR_TAP	181500
TTM_SCR_BRK	31200
TTM_SCR_HLD	13000
TTM_SCR_SLD	55500
TTM_SCR_ALL	281200
TTM_SCR_S	271600
TTM_SCR_SS	280000
TTM_RAT_ACV	10042

