VERSION	0.00.00	1.03.00
FES_MODE	0
BPM_DEF	212.000	212.000	212.000	212.000
MET_DEF	4	4
RESOLUTION	384
CLK_DEF	480
COMPATIBLE_CODE	MA2

BPM	0	0	212.000
MET	0	0	4	5
MET	13	288	4	2
MET	14	96	4	5
MET	18	0	4	3
MET	18	288	4	5
MET	22	192	4	6
MET	24	0	4	5
MET	36	192	4	6
MET	39	192	4	5
MET	40	288	4	3
MET	41	192	4	5
MET	45	96	4	2
MET	45	288	4	6
MET	68	96	4	3
MET	69	0	4	5
MET	72	288	4	2
MET	73	96	4	5
MET	79	192	4	6
MET	82	192	4	2
MET	83	0	4	6
MET	105	192	4	3
MET	106	96	4	5

XHO	6	96	3	480
XHO	8	288	4	480
XHO	11	96	3	480
XHO	11	96	4	480
XTP	13	288	3
XST	14	96	3
SI_	14	96	3	96	384	0
XTP	16	96	7
HLD	16	288	0	288
HLD	16	288	7	288
XST	18	288	7
SI_	18	288	7	96	384	4
XHO	21	96	3	480
TTP	24	0	5	E	0	L1
TTP	25	96	4	E	0	L1
TTP	26	192	3	E	0	L1
TTP	27	288	2	B	0	L1
TTP	27	288	5	B	0	L1
TTP	29	0	0	C	0	L1
TTP	30	96	1	E	0	L1
TTP	31	192	0	E	0	L1
TTP	32	288	7	E	0	L1
TTP	34	0	1	B	0	L1
TTP	34	0	6	B	0	L1
TTP	35	96	0	C	1	L1
TAP	36	192	0
TAP	37	0	0
TAP	37	192	0
TAP	38	0	7
TAP	38	192	7
TAP	39	0	7
STR	39	192	0
SI_	39	192	0	96	384	3
STR	39	192	7
SI_	39	192	7	96	384	4
XTP	41	192	2
XTP	41	192	5
HLD	44	0	0	480
HLD	44	0	7	480
TAP	45	288	7
TAP	46	0	7
TAP	46	192	6
TAP	46	288	6
TAP	47	96	5
TAP	47	192	5
TAP	48	0	4
TAP	48	96	4
TAP	48	288	3
TAP	49	0	3
TAP	49	192	2
TAP	49	288	2
TAP	50	96	1
TAP	50	192	1
TAP	51	0	0
TAP	51	96	0
HLD	51	288	7	288
HLD	53	96	0	288
XTP	54	288	7
XTP	55	0	7
XTP	55	96	7
XTP	55	192	7
XTP	56	96	0
XTP	56	192	0
XTP	56	288	0
XTP	57	0	0
TAP	57	288	1
TAP	58	0	1
TAP	58	192	2
TAP	58	288	2
TAP	59	96	3
TAP	59	192	3
TAP	60	0	4
TAP	60	96	4
TAP	60	288	5
TAP	61	0	5
TAP	61	192	6
TAP	61	288	6
TAP	62	96	7
TAP	62	192	7
XTP	63	0	0
XTP	63	0	7
STR	63	288	0
SI_	63	288	0	96	480	3
STR	66	288	4
SI_	66	288	4	96	480	7
BRK	69	0	0
HLD	71	192	0	288
HLD	71	192	7	288
HLD	73	96	6	288
HLD	74	192	5	288
HLD	75	288	4	288
XTP	77	0	3
TAP	77	192	2
TAP	77	288	2
XTP	78	96	1
TAP	78	288	0
TAP	79	0	0
XTP	79	192	7
TAP	80	0	7
TAP	80	192	0
HLD	81	0	0	576
HLD	81	0	7	576
BRK	83	0	0
BRK	83	0	7
THO	84	192	0	576	C	0	L1
TTP	87	192	0	C	1	L1
TTP	89	0	4	B	0	L1
TTP	89	0	5	B	0	L1
TTP	89	0	5	E	0	L1
TTP	90	192	2	B	0	L1
TTP	90	192	3	B	0	L1
TTP	90	192	3	E	0	L1
THO	92	0	0	576	C	1	L1
XTP	95	0	0
TAP	95	96	0
TAP	95	192	0
TAP	95	288	0
TAP	96	192	7
TAP	96	288	7
TAP	97	0	7
TAP	97	96	7
XTP	98	0	0
XTP	98	192	0
XTP	98	192	7
XHO	98	288	0	288
XHO	98	288	7	288
TAP	100	96	0
TAP	100	96	7
TAP	101	0	1
TAP	101	192	0
TAP	101	192	1
TAP	101	288	0
TAP	101	288	1
XTP	102	192	2
XTP	103	0	2
XTP	103	0	3
XTP	103	96	2
XTP	103	96	3
TAP	104	0	4
TAP	104	96	4
TAP	104	192	4
TAP	104	288	4
TAP	105	192	3
TAP	105	288	3
TAP	106	0	3
BRK	106	96	3
BRK	106	96	4
TAP	107	192	5
TAP	107	288	5
TAP	108	0	5
TAP	108	96	4
TAP	108	96	5
TAP	108	288	6
TAP	109	0	6
TAP	109	96	6
TAP	109	192	6
TAP	109	192	7
TAP	110	0	0
TAP	110	96	0
TAP	110	192	0
TAP	110	288	0
TAP	110	288	1
TAP	111	96	2
TAP	111	192	2
TAP	111	288	2
TAP	112	0	2
TAP	112	0	3
TAP	112	192	4
TAP	112	288	4
TAP	113	0	4
TAP	113	96	3
TAP	113	96	4
TAP	113	288	2
TAP	113	288	5
TAP	114	0	2
TAP	114	0	5
TAP	114	96	2
TAP	114	96	5
BRK	114	192	2
BRK	114	192	5

T_REC_TAP	94
T_REC_BRK	7
T_REC_XTP	26
T_REC_HLD	13
T_REC_XHO	7
T_REC_STR	4
T_REC_BST	0
T_REC_XST	2
T_REC_TTP	19
T_REC_THO	2
T_REC_SLD	6
T_REC_ALL	180
T_NUM_TAP	145
T_NUM_BRK	7
T_NUM_HLD	22
T_NUM_SLD	6
T_NUM_ALL	180
T_JUDGE_TAP	152
T_JUDGE_HLD	184
T_JUDGE_SLD	6
T_JUDGE_ALL	342
TTM_EACHPAIRS	26
TTM_SCR_TAP	72500
TTM_SCR_BRK	18200
TTM_SCR_HLD	22000
TTM_SCR_SLD	9000
TTM_SCR_ALL	121700
TTM_SCR_S	117400
TTM_SCR_SS	121000
TTM_RAT_ACV	10057

