VERSION	0.00.00	1.03.00
FES_MODE	0
BPM_DEF	192.000	192.000	192.000	192.000
MET_DEF	4	4
RESOLUTION	384
CLK_DEF	384
COMPATIBLE_CODE	MA2

BPM	0	0	192.000
MET	0	0	4	4

STR	2	0	2
SCR	2	0	2	96	960	1
HLD	2	0	4	192
HLD	3	0	3	192
HLD	4	0	2	192
TAP	5	0	2
TAP	5	48	2
TAP	5	144	1
TAP	5	144	3
HLD	5	240	2	96
HLD	5	240	4	96
TAP	6	0	3
TAP	6	0	5
TAP	6	48	3
TAP	6	48	5
TAP	6	144	1
TAP	6	144	3
TAP	6	240	4
TAP	6	240	6
HLD	6	336	0	96
TAP	6	336	4
TAP	7	48	7
TAP	7	96	0
TAP	7	192	1
TAP	7	192	6
TAP	7	288	3
STR	7	288	4
SI_	7	288	4	96	288	0
TAP	7	336	3
HLD	7	336	4	240
TAP	8	336	1
TAP	8	336	7
TAP	9	48	6
STR	9	48	7
SF_	9	48	7	96	48	3
TAP	9	144	7
TTP	9	146	7	B	0	M1
TTP	9	156	0	C	1	M1
TTP	9	180	3	B	0	M1
TAP	10	0	1
TAP	10	0	4
TAP	10	48	2
TAP	10	96	3
TAP	10	144	4
TAP	10	144	6
TAP	10	192	5
TAP	10	240	4
TAP	10	288	2
TAP	10	336	1
HLD	10	336	3	96
TAP	11	48	0
TAP	11	96	1
TAP	11	144	2
TAP	11	192	6
STR	11	240	5
SCR	11	240	5	96	192	3
TAP	11	288	2
HLD	11	336	1	144
XTP	12	192	1
XTP	12	240	1
STR	12	336	0
SI_	12	336	0	96	48	5
TAP	13	48	0
STR	13	48	6
SI_	13	48	6	96	48	2
STR	13	144	4
SI_	13	144	4	96	48	0
TAP	13	144	6
TAP	13	240	4
TAP	13	240	7
TAP	14	0	1
TAP	14	0	7
TAP	14	48	2
TAP	14	96	3
TAP	14	144	2
TAP	14	144	4
TAP	14	192	1
TAP	14	240	0
TAP	14	288	5
HLD	14	336	4	96
TAP	14	336	6
TAP	15	48	7
TAP	15	96	6
TAP	15	144	0
TAP	15	192	1
STR	15	240	6
SCL	15	240	6	96	144	0
TAP	15	288	0
HLD	15	336	2	96
TAP	16	96	3
TAP	16	144	2
TAP	16	192	5
TAP	16	240	6
TAP	16	288	1
TAP	16	336	0
HLD	17	0	5	96
TAP	17	0	7
TAP	17	96	1
TAP	17	144	0
TAP	17	144	2
TAP	17	240	0
TAP	17	240	7
BRK	17	288	1
BRK	17	288	6
TAP	18	0	5
TAP	18	96	4
TAP	18	96	6
TAP	18	192	2
TAP	18	240	2
TAP	18	288	1
TAP	18	288	3
TAP	19	0	5
TTP	19	96	4	B	0	M1
TTP	19	96	6	B	0	M1
TAP	19	192	2
TAP	19	240	2
TTP	19	288	1	B	0	M1
TTP	19	288	3	B	0	M1
TAP	20	0	5
TAP	20	96	4
TAP	20	96	6
TAP	20	192	2
TAP	20	240	2
TAP	20	288	1
TAP	20	288	3
STR	21	0	7
SI_	21	0	7	96	96	3
STR	21	96	3
SCL	21	96	3	96	192	5
TAP	21	192	0
HLD	21	240	0	96
STR	22	0	0
SI_	22	0	0	96	48	4
TAP	22	192	5
TAP	22	240	5
TTP	22	288	4	B	0	M1
TAP	22	288	6
TAP	23	0	2
TAP	23	96	1
TTP	23	96	3	B	0	M1
TAP	23	192	5
TAP	23	240	5
TTP	23	288	4	B	0	M1
TAP	23	288	6
TAP	24	0	1
TAP	24	0	3
TAP	24	48	2
TAP	24	72	2
TAP	24	96	2
TAP	24	144	1
TAP	24	144	3
TAP	24	192	5
TAP	24	240	4
TAP	24	288	3
HLD	24	336	2	96
TTP	25	48	6	E	0	M1
TTP	25	72	5	B	0	M1
TTP	25	96	4	B	0	M1
TTP	25	144	0	C	0	M1
BRK	25	240	1
BRK	25	240	6
STR	26	0	0
SI_	26	0	0	96	48	4
TAP	26	96	6
STR	26	192	5
SI_	26	192	5	96	48	7
TAP	26	240	5
TAP	26	288	3
STR	27	0	2
SI_	27	0	2	96	48	0
TAP	27	96	7
STR	27	192	5
SI_	27	192	5	96	48	3
TAP	27	240	5
TAP	27	288	2
STR	28	0	0
SI_	28	0	0	96	48	6
TAP	28	96	5
STR	28	192	3
SI_	28	192	3	96	48	5
TAP	28	240	3
TAP	28	288	1
STR	29	0	0
SI_	29	0	0	96	48	4
TAP	29	96	6
STR	29	144	6
SCL	29	144	6	96	144	1
TAP	29	240	2
STR	30	0	0
SI_	30	0	0	96	48	4
TAP	30	96	7
TAP	30	144	6
HLD	30	192	5	96
TAP	30	288	1
TAP	30	336	2
HLD	31	0	3	96
TAP	31	96	6
TAP	31	144	4
TAP	31	144	5
TAP	31	240	1
TAP	31	288	2
STR	31	288	3
SCL	31	288	3	96	288	4
HLD	32	0	0	192
STR	32	288	0
SSL	32	288	0	96	240	4
TAP	34	0	3
TAP	34	0	4
XTP	34	96	1
XTP	34	96	6
TAP	34	192	5
TAP	34	224	4
TAP	34	256	5
TAP	34	288	2
TAP	34	320	3
TAP	34	352	2
TAP	35	0	6
TAP	35	32	5
TAP	35	64	6
TAP	35	96	1
TAP	35	128	2
TAP	35	160	1
TAP	35	192	7
TAP	35	256	0
TAP	35	256	6
TAP	35	320	1
TAP	35	320	5
HLD	36	0	3	64
HLD	36	0	4	64
TAP	36	96	2
TAP	36	96	5
TAP	36	192	2
TAP	36	224	2
TAP	36	256	3
TAP	36	288	5
TAP	36	320	5
TAP	36	352	4
TAP	37	0	1
TAP	37	32	1
TAP	37	64	3
TAP	37	96	6
TAP	37	128	6
TAP	37	160	4
TAP	37	192	0
TAP	37	256	1
TAP	37	256	7
TAP	37	320	2
TAP	37	320	6
STR	38	0	3
SUR	38	0	3	96	384	4
HLD	38	0	5	384
XTP	39	192	2
XTP	39	192	5
TAP	40	0	1
HLD	40	0	3	32
TAP	40	64	2
HLD	40	64	4	32
TAP	40	128	3
HLD	40	128	5	32
TAP	40	192	5
HLD	40	192	6	32
TAP	40	256	3
HLD	40	256	4	32
TAP	40	320	1
HLD	40	320	2	32
TAP	41	0	0
HLD	41	0	3	32
TAP	41	64	2
HLD	41	64	5	32
TAP	41	128	4
HLD	41	128	7	32
TAP	41	192	3
HLD	41	192	6	32
TAP	41	256	1
HLD	41	256	4	32
TAP	41	320	0
HLD	41	320	7	32
HLD	42	0	1	96
HLD	42	0	6	96
HLD	42	144	3	96
HLD	42	144	4	96
TAP	42	288	0
TAP	42	288	7
BRK	43	0	1
BRK	43	0	6
TAP	43	192	6
TAP	43	216	7
TAP	43	240	0
TAP	43	264	1
TAP	43	288	0
TAP	43	300	7
TAP	43	312	6
TAP	43	324	5
TAP	43	336	4
TAP	43	348	3
TAP	43	360	2
TAP	43	372	1
STR	44	0	0
SI_	44	0	0	96	48	4
STR	44	96	6
SI_	44	96	6	96	48	2
TAP	44	144	6
STR	44	192	3
SI_	44	192	3	96	48	0
TAP	44	240	3
STR	44	288	5
SI_	44	288	5	96	48	1
TAP	44	336	5
TAP	45	0	7
STR	45	48	7
SCR	45	48	7	96	48	2
STR	45	144	3
SI_	45	144	3	96	48	7
TAP	45	144	7
STR	45	240	1
SI_	45	240	1	96	48	5
TAP	45	240	3
BRK	45	336	0
BRK	45	336	1
TAP	46	48	7
TAP	46	96	7
TAP	46	144	0
TAP	46	144	6
TAP	46	192	5
TAP	46	240	3
TAP	46	240	4
TAP	46	288	2
TAP	46	336	1
TAP	46	336	7
TAP	47	0	1
TAP	47	0	7
TTP	47	48	2	B	0	M1
TTP	47	48	2	E	0	M1
TTP	47	96	6	B	0	M1
TTP	47	96	6	E	0	M1
TTP	47	144	4	B	0	M1
TTP	47	144	4	E	0	M1
TTP	47	192	0	C	1	M1
BRK	47	264	0
BRK	47	336	1
BRK	47	336	7
BRK	48	0	2
HLD	48	0	6	480
TTP	48	192	6	E	0	M1
TTP	48	288	7	E	0	M1
TTP	49	0	0	E	0	M1
TTP	49	96	1	E	0	M1
TTP	49	192	2	E	0	M1
STR	49	288	5
SCR	49	288	5	96	288	2
TTP	50	0	7	E	0	M1
TTP	50	96	0	E	0	M1
TTP	50	192	1	E	0	M1
TTP	50	288	2	E	0	M1
TAP	51	0	3
TAP	51	72	1
TAP	51	72	5
TAP	51	144	0
TAP	51	144	7
BRK	51	192	1
BRK	51	192	6
TAP	52	0	0
STR	52	0	7
SI_	52	0	7	96	48	3
STR	52	96	1
SI_	52	96	1	96	48	5
TAP	52	144	1
STR	52	192	4
SI_	52	192	4	96	48	7
TAP	52	240	4
STR	52	288	2
SI_	52	288	2	96	48	6
TAP	52	336	2
TAP	53	0	0
STR	53	48	0
SCL	53	48	0	96	48	5
TAP	53	144	0
STR	53	144	4
SI_	53	144	4	96	48	0
TAP	53	240	4
STR	53	240	6
SI_	53	240	6	96	48	2
BRK	53	336	6
BRK	53	336	7
TAP	54	48	0
TAP	54	96	0
TAP	54	144	1
TAP	54	144	7
TAP	54	192	2
TAP	54	240	3
TAP	54	240	4
TAP	54	288	5
TAP	54	336	0
TAP	54	336	6
TAP	55	0	0
STR	55	0	6
SI_	55	0	6	96	48	3
STR	55	96	3
SLR	55	96	3	96	96	0
TAP	55	96	6
STR	55	144	1
SI_	55	144	1	96	48	5
BRK	55	240	1
TAP	55	336	7
TAP	56	0	2
TAP	56	0	6
TAP	56	48	1
TAP	56	96	0
TAP	56	96	4
STR	56	192	2
SI_	56	192	2	96	48	7
STR	56	192	3
SI_	56	192	3	96	48	7
TAP	56	288	2
TAP	56	288	3
STR	57	0	4
SI_	57	0	4	96	48	0
STR	57	0	5
SI_	57	0	5	96	48	0
TAP	57	96	4
TAP	57	96	5
STR	57	192	3
SI_	57	192	3	96	48	0
STR	57	192	4
SI_	57	192	4	96	48	7
TAP	57	240	2
TAP	57	240	5
TAP	57	288	3
TAP	57	288	4
TAP	58	0	1
TAP	58	0	6
HLD	58	48	1	192
HLD	58	48	6	192
XTP	58	288	0
XTP	58	288	7
TAP	59	0	3
TAP	59	24	4
TAP	59	48	3
TAP	59	96	2
TAP	59	96	5
STR	59	144	1
SI_	59	144	1	96	48	4
STR	59	144	6
SI_	59	144	6	96	48	3
BRK	59	240	1
BRK	59	240	6
HLD	60	0	0	48
TAP	60	48	4
TAP	60	96	4
HLD	60	144	1	48
TAP	60	192	5
TAP	60	240	5
HLD	60	288	2	48
TAP	60	336	6
TAP	61	0	6
HLD	61	48	3	48
STR	61	96	7
SCL	61	96	7	96	96	3
TAP	61	144	7
STR	61	192	3
SCL	61	192	3	96	96	7
STR	61	288	7
SCL	61	288	7	96	96	3
STR	62	0	3
SCL	62	0	3	96	96	7
TAP	62	96	7
TAP	62	192	3
TAP	62	240	4
TAP	62	288	5
TAP	62	336	4
HLD	62	336	6	96
HLD	63	48	0	96
TAP	63	144	2
TAP	63	192	1
TAP	63	192	3
TAP	63	240	2
STR	63	240	4
SCR	63	240	4	96	192	3
TAP	63	288	3
TAP	63	288	5
TAP	63	336	4
HLD	63	336	6	144
TAP	64	192	7
TAP	64	224	7
TAP	64	256	7
TAP	64	288	5
TAP	64	320	5
TAP	64	352	5
TAP	65	0	3
TAP	65	32	3
TAP	65	64	3
TAP	65	96	1
TAP	65	128	1
HLD	65	160	1	80
TAP	65	240	3
TAP	65	264	4
TAP	65	288	5
TAP	65	312	6
TAP	65	336	7
TAP	65	360	0
TAP	66	0	2
TAP	66	24	3
TAP	66	48	2
TAP	66	72	3
TAP	66	96	1
TAP	66	120	4
TAP	66	144	1
TAP	66	168	4
TAP	66	192	0
TAP	66	216	5
TAP	66	240	0
TAP	66	264	5
TAP	66	288	7
TAP	66	312	6
TAP	66	336	7
TAP	66	360	6
TAP	67	0	0
TAP	67	0	5
TAP	67	72	3
TAP	67	72	7
BRK	67	144	1
BRK	67	144	6
XTP	68	0	4
TAP	68	48	4
HLD	68	96	3	384
TAP	68	96	5
XTP	68	192	6
TAP	68	240	6
XTP	68	336	2
TAP	69	0	2
XTP	69	96	5
TAP	69	144	5
TAP	69	240	2
TAP	69	288	2
TAP	69	288	3
XTP	70	0	1
HLD	70	0	4	384
TAP	70	96	5
XTP	70	144	5
TAP	70	240	2
XTP	70	288	2
TAP	71	0	6
TAP	71	48	6
TAP	71	144	5
TAP	71	192	4
TAP	71	240	3
XTP	71	288	2
TAP	71	336	3
XTP	72	0	2
XTP	72	0	5
TAP	72	96	5
TAP	72	144	5
TAP	72	192	4
XTP	72	192	6
TAP	72	288	2
TAP	72	336	1
TAP	72	336	3
TAP	73	48	5
TAP	73	96	4
XTP	73	96	6
TAP	73	192	2
TAP	73	240	1
STR	73	240	3
SLR	73	240	3	96	240	7
THO	73	336	0	384	C	1	M1
HLD	74	336	7	96
TAP	75	48	0
TAP	75	96	7
TAP	75	192	1
TAP	75	192	6
TAP	75	288	2
TAP	75	288	5
TAP	76	0	3
TAP	76	48	3
TAP	76	96	3
TAP	76	96	4
XTP	76	192	2
STR	76	192	4
SI_	76	192	4	96	72	6
TAP	76	288	1
STR	76	336	1
SI_	76	336	1	96	72	3
TAP	77	48	7
TAP	77	96	7
TAP	77	192	4
XST	77	192	6
SI_	77	192	6	96	72	1
TAP	77	288	3
TAP	78	0	2
TAP	78	48	2
TAP	78	96	2
TAP	78	96	4
XST	78	192	1
SI_	78	192	1	96	72	3
TAP	78	192	3
TAP	78	288	4
STR	78	336	4
SI_	78	336	4	96	72	6
TAP	79	48	1
TAP	79	96	1
TAP	79	192	2
XST	79	192	7
SI_	79	192	7	96	72	3
TAP	79	288	3
TAP	80	0	2
TAP	80	48	2
TAP	80	96	2
TAP	80	96	4
XST	80	192	3
SI_	80	192	3	96	72	1
TAP	80	192	5
TAP	80	288	6
STR	80	336	6
SI_	80	336	6	96	72	4
TAP	81	48	0
TAP	81	96	0
XST	81	192	1
SI_	81	192	1	96	72	5
TAP	81	192	3
TAP	81	288	6
TAP	82	0	7
TAP	82	48	0
TAP	82	96	6
TAP	82	144	1
TAP	82	192	5
STR	82	240	2
SCL	82	240	2	96	144	5
HLD	82	336	4	144
STR	83	192	3
SI_	83	192	3	96	48	0
STR	83	192	4
SI_	83	192	4	96	48	7
XTP	83	288	3
XTP	83	288	4
TAP	84	0	1
STR	84	0	6
SCL	84	0	6	96	96	3
STR	84	96	3
SCL	84	96	3	96	96	0
STR	84	192	0
SCL	84	192	0	96	96	5
TAP	84	288	5
STR	85	0	1
SCR	85	0	1	96	96	4
STR	85	96	4
SCR	85	96	4	96	96	7
STR	85	192	7
SCR	85	192	7	96	96	2
TAP	85	288	2
STR	86	0	6
SCL	86	0	6	96	96	2
STR	86	96	2
SCL	86	96	2	96	96	6
STR	86	192	6
SCL	86	192	6	96	96	2
STR	86	288	2
SCL	86	288	2	96	96	6
STR	87	0	6
SSL	87	0	6	96	96	2
XST	87	192	0
SI_	87	192	0	96	48	4
TAP	87	288	4
STR	88	0	6
SCL	88	0	6	96	96	3
STR	88	96	3
SXL	88	96	3	96	96	1
STR	88	192	1
SCL	88	192	1	96	96	5
TAP	88	288	7
STR	89	0	1
SCR	89	0	1	96	96	4
STR	89	96	4
SXR	89	96	4	96	96	5
TAP	89	192	7
TAP	89	288	7
TAP	90	0	3
TAP	90	0	6
TAP	90	48	5
TAP	90	72	4
TAP	90	96	5
TAP	90	144	1
TAP	90	144	4
TAP	90	192	2
TAP	90	216	3
TAP	90	240	2
TAP	90	288	3
TAP	90	288	7
TAP	90	336	5
TAP	90	360	4
TAP	91	0	5
TAP	91	48	0
TAP	91	48	4
TAP	91	96	2
TAP	91	120	3
TAP	91	144	2
TAP	91	192	7
TAP	91	216	0
TAP	91	240	7
TAP	91	264	0
BRK	91	288	1
BRK	91	288	6
TAP	92	0	5
TAP	92	48	5
HLD	92	96	5	96
TAP	92	144	3
TAP	92	192	3
HLD	92	240	3	96
TAP	92	288	4
TAP	92	336	4
HLD	93	0	4	96
TAP	93	48	2
TAP	93	96	2
TAP	93	144	2
TAP	93	192	6
TAP	93	224	4
TAP	93	256	5
TAP	93	288	1
TAP	93	320	3
TAP	93	352	2
TTP	94	0	0	C	1	M1
HLD	98	192	5	192
HLD	99	0	4	192
HLD	99	192	3	192
HLD	100	0	2	288
HLD	100	192	5	96
TAP	101	0	1
TAP	101	0	3
TAP	101	72	4
TAP	101	72	6
TAP	101	144	0
TAP	101	144	7
STR	101	192	0
SI_	101	192	0	96	48	3
STR	101	192	7
SI_	101	192	7	96	48	4
TTP	102	0	0	C	1	M1
TTP	102	0	2	B	0	M1
TTP	102	0	2	E	0	M1
TTP	102	0	5	B	0	M1
TTP	102	0	6	E	0	M1
TAP	102	144	7
STR	102	192	0
SCR	102	192	0	96	144	6
TAP	102	192	6
TAP	102	240	5
TAP	102	288	0
TAP	102	288	6
TAP	102	336	7
TAP	103	0	0
STR	103	48	0
SV_	103	48	0	96	48	3
TAP	103	144	0
TAP	103	144	2
STR	103	240	1
SI_	103	240	1	96	48	5
TAP	103	288	3
BRK	103	336	1
TAP	104	48	6
TAP	104	96	0
TAP	104	144	1
TAP	104	144	7
TAP	104	192	3
TAP	104	240	2
TAP	104	240	4
TAP	104	288	7
TAP	104	336	0
TAP	104	336	6
BRK	105	0	2
BRK	105	0	3
BRK	105	64	4
BRK	105	64	5
BRK	105	128	0
BRK	105	128	7
BRK	105	192	4
BRK	105	192	6
BRK	105	256	1
BRK	105	256	3
BRK	105	320	0
BRK	105	320	7
BRK	106	0	2
BST	106	0	5
SCR	106	0	5	96	480	2
TTP	106	192	3	E	0	M1
TTP	106	288	1	E	0	M1
TTP	107	0	0	C	0	M1
TTP	107	96	7	E	0	M1
TTP	107	192	5	E	0	M1
STR	107	288	6
SF_	107	288	6	96	48	2
TAP	108	0	6
TAP	108	96	0
TAP	108	96	4
TAP	108	144	0
TAP	108	192	1
TAP	108	192	5
TAP	108	240	1
TAP	108	288	2
TAP	108	288	6
TAP	108	336	2
TAP	109	0	3
TAP	109	0	7
TAP	109	72	1
TAP	109	72	3
TAP	109	144	4
TAP	109	144	6
BRK	109	192	1
BRK	109	192	5
STR	110	0	0
SI_	110	0	0	96	48	4
TAP	110	0	7
TAP	110	96	0
TAP	110	96	5
TAP	110	144	6
TAP	110	192	3
STR	110	192	7
SCL	110	192	7	96	144	1
TAP	110	240	2
TAP	110	288	1
TAP	110	288	7
TAP	110	336	0
TAP	111	0	7
STR	111	48	7
SV_	111	48	7	96	48	4
TAP	111	144	5
TAP	111	144	7
STR	111	240	6
SI_	111	240	6	96	48	2
TAP	111	288	4
BRK	111	336	6
TAP	112	48	0
XHO	112	96	0	48
TAP	112	96	4
TAP	112	144	3
XHO	112	192	0	48
TAP	112	192	5
TAP	112	240	4
XST	112	288	0
SI_	112	288	0	96	48	3
TAP	112	288	6
TAP	112	336	5
XTP	113	0	0
TAP	113	0	7
TAP	113	96	5
TAP	113	144	4
TAP	113	144	6
TAP	113	240	1
TAP	113	240	5
XST	113	336	0
SLR	113	336	0	96	168	7
TAP	113	336	1
XHO	114	0	0	192
TAP	114	0	7
TAP	114	288	2
STR	114	288	6
SI_	114	288	6	96	48	3
STR	115	0	1
SI_	115	0	1	96	48	5
TAP	115	0	6
TAP	115	96	1
STR	115	96	4
SV_	115	96	4	96	48	7
STR	115	192	3
SI_	115	192	3	96	48	0
TAP	115	192	4
TAP	115	288	3
TAP	115	288	6
BRK	116	0	1
BRK	116	0	5
TAP	116	48	3
TAP	116	96	4
BRK	116	144	2
BRK	116	144	6
STR	116	192	4
SUL	116	192	4	96	48	7
SV_	116	192	4	96	48	7
TAP	116	240	3
BST	116	288	4
SCR	116	288	4	96	288	3
TTP	117	96	0	C	1	M1
STR	118	0	1
SI_	118	0	1	96	48	4
TAP	118	48	0
TAP	118	96	1
STR	118	144	6
SI_	118	144	6	96	48	3
STR	118	192	7
SI_	118	192	7	96	48	2
STR	118	240	6
SCR	118	240	6	96	48	1
TAP	118	288	7
TAP	118	336	6
STR	119	48	4
SI_	119	48	4	96	48	0
STR	119	96	5
SCR	119	96	5	96	192	3
TAP	119	144	4
TAP	119	192	5
STR	119	288	3
SCR	119	288	3	96	96	7
STR	120	0	7
SLR	120	0	7	96	96	3
TAP	120	96	3
TAP	120	192	0
STR	120	240	0
SI_	120	240	0	96	48	4
STR	120	336	0
SCR	120	336	0	96	48	3
TAP	120	336	1
STR	121	48	0
SCL	121	48	0	96	48	5
TAP	121	48	7
STR	121	144	0
SLR	121	144	0	96	72	6
TAP	121	144	1
TAP	121	240	7
STR	121	288	7
SI_	121	288	7	96	48	2
SI_	121	288	7	96	48	4
TAP	122	0	7
STR	122	96	1
SI_	122	96	1	96	48	5
TAP	122	144	5
TAP	122	192	1
STR	122	240	7
SCR	122	240	7	96	96	5
TAP	122	288	3
TAP	122	336	7
TAP	123	48	7
STR	123	96	6
SI_	123	96	6	96	48	2
TAP	123	144	2
TAP	123	192	6
STR	123	240	0
SCL	123	240	0	96	96	2
TAP	123	288	4
TAP	123	336	0
TAP	124	48	0
STR	124	96	1
SI_	124	96	1	96	48	5
TAP	124	144	5
TAP	124	192	1
TAP	124	240	6
TAP	124	288	0
STR	124	288	4
SV_	124	288	4	96	48	1
TAP	124	336	2
XTP	125	0	4
TAP	125	0	6
TAP	125	96	7
TAP	125	144	0
TAP	125	144	6
TAP	125	240	2
TAP	125	240	3
TAP	125	288	0
STR	125	288	5
SCR	125	288	5	96	72	3
BRK	126	0	4
TTP	126	1	6	E	0	M1
TTP	126	12	7	E	0	M1
TTP	126	24	0	E	0	M1
TTP	126	36	1	E	0	M1
TTP	126	48	2	E	0	M1
TTP	126	60	3	E	0	M1

T_REC_TAP	534
T_REC_BRK	45
T_REC_XTP	25
T_REC_HLD	59
T_REC_XHO	3
T_REC_STR	113
T_REC_BST	2
T_REC_XST	8
T_REC_TTP	48
T_REC_THO	1
T_REC_SLD	125
T_REC_ALL	963
T_NUM_TAP	728
T_NUM_BRK	47
T_NUM_HLD	63
T_NUM_SLD	125
T_NUM_ALL	963
T_JUDGE_TAP	775
T_JUDGE_HLD	170
T_JUDGE_SLD	125
T_JUDGE_ALL	1070
TTM_EACHPAIRS	184
TTM_SCR_TAP	364000
TTM_SCR_BRK	122200
TTM_SCR_HLD	63000
TTM_SCR_SLD	187500
TTM_SCR_ALL	736700
TTM_SCR_S	710050
TTM_SCR_SS	732000
TTM_RAT_ACV	10064

