VERSION	0.00.00	1.03.00
FES_MODE	0
BPM_DEF	192.000	192.000	192.000	192.000
MET_DEF	4	4
RESOLUTION	384
CLK_DEF	384
COMPATIBLE_CODE	MA2

BPM	0	0	192.000
MET	0	0	4	4

BRK	2	0	0
TAP	2	192	6
HLD	3	0	6	384
HLD	4	0	4	384
TAP	5	0	3
STR	5	192	3
SI_	5	192	3	96	96	0
XTP	6	144	0
XTP	6	144	4
XTP	6	240	3
XTP	6	240	6
XHO	6	336	1	96
XHO	6	336	4	96
TAP	7	96	1
TAP	7	96	4
STR	7	192	7
SCL	7	192	7	96	240	0
XTP	8	336	0
XTP	8	336	7
XTP	9	48	3
XTP	9	48	4
BRK	9	144	1
BRK	9	144	6
HLD	10	0	5	96
TAP	10	96	4
TAP	10	144	4
TAP	10	240	0
TAP	10	240	7
TAP	10	336	3
TAP	10	336	6
HLD	11	48	2	96
TAP	11	48	4
TAP	11	144	3
TAP	11	192	3
TAP	11	288	1
TAP	11	288	4
HLD	12	0	2	96
TAP	12	96	3
TAP	12	144	3
TAP	12	240	0
TAP	12	240	7
TAP	12	336	1
TAP	12	336	4
TAP	13	48	4
TAP	13	48	6
HLD	13	144	7	96
TAP	13	240	0
TAP	13	288	0
HLD	14	0	2	96
TAP	14	96	3
TAP	14	144	3
TAP	14	240	4
TAP	14	240	5
TAP	14	336	3
TAP	14	336	6
HLD	15	48	2	96
TAP	15	48	4
TAP	15	144	3
TAP	15	192	3
TAP	15	288	0
HLD	16	0	5	96
TAP	16	96	4
TAP	16	144	4
TAP	16	240	0
STR	16	240	7
SCL	16	240	7	96	240	0
TAP	18	0	5
TAP	18	96	4
TAP	18	96	6
TAP	18	192	2
TAP	18	240	2
TAP	18	288	3
HLD	19	0	5	96
HLD	19	96	7	96
HLD	19	192	0	96
TAP	19	288	2
TAP	20	0	1
TAP	20	0	3
TAP	20	96	4
TAP	20	192	3
TAP	20	192	5
TAP	20	288	6
TAP	21	0	0
TAP	21	0	7
TAP	21	96	1
TAP	21	192	2
HLD	21	192	4	96
TAP	21	288	3
TAP	22	0	2
TAP	22	96	1
TAP	22	96	3
TAP	22	192	5
TAP	22	240	5
TAP	22	288	4
HLD	23	0	2	96
HLD	23	96	0	96
HLD	23	192	7	96
TAP	23	288	5
HLD	24	0	4	96
HLD	24	0	6	96
TAP	24	144	4
TAP	24	144	6
TAP	24	240	3
TAP	24	240	4
HLD	24	336	1	192
HLD	24	336	3	192
XTP	25	240	0
XTP	25	288	0
TAP	26	0	2
TAP	26	96	1
TAP	26	96	3
TAP	26	192	5
TAP	26	240	5
TAP	26	288	4
HLD	27	0	2	96
HLD	27	96	0	96
HLD	27	192	7	96
TAP	27	288	5
TAP	28	0	4
TAP	28	0	6
TAP	28	96	3
TAP	28	192	2
TAP	28	192	4
TAP	28	288	1
TAP	29	0	0
TAP	29	0	7
TAP	29	96	6
HLD	29	192	3	96
TAP	29	192	5
TAP	29	288	4
TAP	30	0	5
TAP	30	96	4
TAP	30	96	6
TAP	30	192	2
TAP	30	240	2
TAP	30	288	3
HLD	31	0	5	96
HLD	31	96	7	96
HLD	31	192	0	96
STR	31	288	2
SXR	31	288	2	96	288	4
TAP	33	0	7
TAP	33	48	7
TAP	33	96	0
XTP	33	192	1
XTP	33	192	5
HLD	34	0	6	160
TAP	34	160	4
HLD	34	192	4	160
TAP	34	352	3
HLD	35	0	3	160
TAP	35	160	2
TAP	35	192	2
TAP	35	288	0
TAP	35	288	4
HLD	36	0	1	160
TAP	36	160	3
HLD	36	192	3	160
TAP	36	352	4
HLD	37	0	4	160
TAP	37	160	5
TAP	37	192	5
TAP	37	288	3
TAP	37	288	6
BRK	38	0	0
TTP	38	192	1	E	0	M1
TTP	38	192	7	E	0	M1
TTP	39	0	3	E	0	M1
TTP	39	0	5	E	0	M1
TTP	39	192	0	C	0	M1
XTP	40	0	0
XTP	40	0	7
TAP	40	64	0
TAP	40	64	7
TAP	40	128	6
XTP	40	192	4
XTP	40	192	5
TAP	40	256	4
TAP	40	256	5
TAP	40	320	3
XTP	41	0	2
XTP	41	0	4
TAP	41	64	2
TAP	41	64	4
TAP	41	128	1
XTP	41	192	0
XTP	41	192	7
TAP	41	256	0
TAP	41	256	7
TAP	41	320	6
STR	42	0	5
SI_	42	0	5	96	48	0
STR	42	144	1
SI_	42	144	1	96	48	4
TAP	42	288	6
XTP	43	0	1
XTP	43	0	5
XTP	43	144	0
XTP	43	144	7
XTP	43	192	0
XTP	43	192	7
TTP	43	288	0	C	1	M1
TTP	43	288	2	B	0	M1
TTP	43	288	5	B	0	M1
TAP	44	144	0
TAP	44	192	0
TAP	44	240	6
TAP	44	288	4
TAP	44	288	6
TAP	45	0	3
TAP	45	0	5
TAP	45	48	3
TAP	45	48	5
TAP	45	144	2
TAP	45	144	3
STR	45	240	0
SUR	45	240	0	96	96	5
STR	45	240	1
SCR	45	240	1	96	96	4
TAP	46	144	6
HLD	46	192	6	96
TAP	46	288	4
TAP	46	336	4
TAP	47	0	3
TAP	47	0	5
TAP	47	96	0
TAP	47	96	7
XTP	47	192	1
XTP	47	192	3
XTP	47	264	3
XTP	47	264	4
XTP	47	336	4
XTP	47	336	6
BRK	48	0	7
STR	48	192	0
SCR	48	192	0	96	96	3
STR	49	0	7
SCL	49	0	7	96	96	4
STR	49	192	0
SCR	49	192	0	96	96	3
HLD	50	0	7	144
TAP	50	144	5
HLD	50	192	5	144
TAP	50	336	3
HLD	51	0	3	144
TAP	51	144	2
TAP	51	192	2
TAP	51	192	3
TAP	51	288	1
TAP	51	288	4
TAP	52	0	0
TAP	52	96	7
TAP	52	144	7
TAP	52	192	1
TAP	52	240	1
TAP	52	288	1
TAP	52	288	3
TAP	53	0	2
TAP	53	0	4
TAP	53	48	2
TAP	53	48	4
TAP	53	144	3
TAP	53	144	6
TAP	53	240	2
STR	53	240	4
SCR	53	240	4	96	96	7
TAP	54	144	1
TAP	54	192	1
TAP	54	288	2
TAP	54	288	6
HLD	55	0	7	96
TAP	55	96	4
TAP	55	144	4
TAP	55	240	2
TAP	55	240	5
TAP	55	336	1
TAP	55	336	4
STR	56	0	1
SI_	56	0	1	96	96	5
TAP	56	0	4
HLD	56	288	6	96
HLD	57	0	4	96
HLD	57	96	3	96
HLD	57	192	1	96
HLD	57	288	6	96
STR	58	0	4
SCL	58	0	4	96	96	1
TAP	58	240	7
TAP	58	288	7
TAP	59	0	2
TAP	59	0	5
TAP	59	96	3
TAP	59	96	4
TAP	59	144	3
TAP	59	144	4
BRK	59	240	1
BRK	59	240	6
TAP	60	0	5
TAP	60	48	5
TAP	60	96	4
HLD	60	144	6	96
TAP	60	240	0
TAP	60	288	0
TAP	61	0	1
TAP	61	0	7
TAP	61	96	1
TAP	61	96	3
TAP	61	192	3
TAP	61	192	5
STR	61	288	7
SI_	61	288	7	96	96	3
TAP	62	192	2
TAP	62	240	2
TAP	62	288	1
TAP	62	288	3
STR	63	0	0
SI_	63	0	0	96	96	3
STR	63	192	4
SI_	63	192	4	96	96	7
TAP	64	192	0
TAP	64	192	7
TAP	64	288	5
TAP	64	288	6
TAP	65	0	3
TAP	65	0	4
TAP	65	96	1
TAP	65	96	2
TAP	65	192	0
TAP	65	240	0
TAP	65	288	7
TAP	65	336	7
TAP	66	0	0
TAP	66	0	7
TAP	66	96	1
TAP	66	96	2
TAP	66	192	3
TAP	66	192	4
TAP	66	288	5
TAP	66	288	6
XTP	67	0	0
XTP	67	0	7
XTP	67	72	1
XTP	67	72	6
XTP	67	144	2
XTP	67	144	5
TAP	68	0	4
TAP	68	48	4
TAP	68	96	3
TAP	68	96	5
HLD	68	192	2	96
TAP	68	192	4
TAP	68	288	3
TAP	68	336	3
TAP	69	48	1
TAP	69	96	0
TAP	69	96	1
TAP	69	192	6
TAP	69	192	7
TAP	69	288	4
TAP	69	288	5
HLD	70	0	2	96
TAP	70	96	4
HLD	70	144	5	96
TAP	70	240	3
HLD	70	288	2	96
TAP	71	0	4
TAP	71	96	3
TAP	71	96	5
TAP	71	144	3
TAP	71	144	5
TAP	71	240	0
TAP	71	288	0
TAP	71	288	7
TAP	72	0	3
TAP	72	96	2
TAP	72	96	4
TAP	72	192	3
TAP	72	192	6
TAP	72	288	5
TAP	72	336	4
TAP	72	336	5
TAP	73	48	2
TAP	73	96	2
HLD	73	96	3	288
BRK	74	0	0
TAP	74	288	6
STR	74	336	6
SI_	74	336	6	96	96	2
XTP	75	192	1
XTP	75	288	2
XTP	75	288	3
STR	76	0	4
SI_	76	0	4	96	96	7
STR	76	192	3
SI_	76	192	3	96	96	0
STR	77	0	4
SI_	77	0	4	96	96	7
TAP	77	192	3
TAP	77	288	2
TAP	77	288	6
STR	78	0	3
SCL	78	0	3	96	96	0
STR	78	192	4
SCR	78	192	4	96	96	7
STR	79	0	3
SCL	79	0	3	96	96	0
TAP	79	192	4
TAP	79	288	1
TAP	79	288	5
STR	80	0	4
SI_	80	0	4	96	96	7
STR	80	192	3
SI_	80	192	3	96	96	0
STR	81	0	4
SI_	81	0	4	96	96	7
TAP	81	192	3
TAP	81	288	2
TAP	81	288	6
STR	82	0	0
SCR	82	0	0	96	96	3
TAP	82	192	7
STR	82	240	7
SCL	82	240	7	96	240	0
TTP	82	336	0	C	0	M1
TAP	84	0	5
TAP	84	96	4
TAP	84	96	6
TAP	84	192	2
TAP	84	288	1
TAP	84	288	3
STR	85	0	6
SUL	85	0	6	96	96	1
TAP	85	192	0
TAP	85	288	0
TAP	86	0	1
TAP	86	0	4
TAP	86	96	5
TAP	86	192	6
TAP	86	192	7
STR	86	288	0
SLR	86	288	0	96	192	4
TAP	87	192	7
TAP	87	288	7
HLD	88	0	4	96
HLD	88	0	6	96
HLD	88	144	0	96
HLD	88	144	7	96
TAP	88	288	1
TAP	88	288	3
HLD	89	0	1	96
HLD	89	0	3	96
HLD	89	144	0	96
HLD	89	144	7	96
TAP	89	288	4
TAP	89	288	6
TAP	90	0	4
HLD	90	0	6	96
TAP	90	96	7
HLD	90	144	7	96
TAP	90	240	0
HLD	90	288	0	96
TAP	91	0	1
HLD	91	48	1	96
TAP	91	144	3
TAP	91	192	3
TAP	91	288	2
TAP	91	288	5
TTP	92	0	0	C	1	M1
BRK	94	0	0
HLD	94	0	5	768
HLD	96	0	7	768
HLD	98	0	0	768
HLD	100	0	2	384
TAP	101	0	5
TAP	101	72	3
TAP	101	72	4
XTP	101	144	1
XTP	101	144	6
XTP	101	192	1
XTP	101	192	6
TTP	102	0	0	C	1	M1
TTP	102	0	2	B	0	M1
TTP	102	0	5	B	0	M1
TAP	102	144	7
TAP	102	192	7
TAP	102	240	1
TAP	102	288	1
TAP	102	288	3
TAP	103	0	2
TAP	103	0	4
TAP	103	48	2
TAP	103	48	4
TAP	103	144	3
TAP	103	144	6
STR	103	240	4
SUR	103	240	4	96	96	1
STR	103	240	5
SCR	103	240	5	96	96	0
TAP	104	144	2
HLD	104	192	2	96
TAP	104	288	3
XTP	105	0	3
XTP	105	0	4
XTP	105	64	4
XTP	105	64	6
XTP	105	128	0
XTP	105	128	7
XTP	105	192	1
XTP	105	192	3
XTP	105	256	3
XTP	105	256	4
XTP	105	320	4
XTP	105	320	6
BRK	106	0	7
STR	106	192	0
SCR	106	192	0	96	96	3
STR	107	0	7
SCL	107	0	7	96	96	4
STR	107	192	0
SCR	107	192	0	96	96	3
HLD	108	0	7	144
TAP	108	144	5
HLD	108	192	5	144
TAP	108	336	3
HLD	109	0	3	144
TAP	109	144	2
TAP	109	192	2
TAP	109	192	3
TAP	109	288	1
TAP	109	288	4
TAP	110	0	7
TAP	110	96	1
TAP	110	144	1
TAP	110	192	4
TAP	110	240	4
TAP	110	288	2
TAP	110	288	4
TAP	111	0	3
TAP	111	0	5
TAP	111	48	3
TAP	111	48	5
TAP	111	144	2
TAP	111	144	6
STR	111	240	4
SCL	111	240	4	96	96	0
TAP	111	240	5
TAP	112	144	6
TAP	112	192	6
TAP	112	240	4
TAP	112	288	4
TAP	112	288	5
HLD	113	0	0	96
TAP	113	96	3
TAP	113	144	3
TAP	113	240	2
TAP	113	240	5
TAP	113	336	3
TAP	113	336	6
STR	114	0	3
SI_	114	0	3	96	96	0
TAP	114	0	6
HLD	114	288	1	96
HLD	115	0	3	96
HLD	115	96	4	96
HLD	115	192	6	96
HLD	115	288	1	96
TAP	116	0	3
TAP	116	96	5
TAP	116	144	4
TAP	116	144	6
TAP	116	240	2
TAP	116	288	1
STR	116	288	3
SCL	116	288	3	96	240	4
TAP	118	0	2
TAP	118	96	2
TAP	118	96	3
TAP	118	192	1
TAP	118	240	1
TAP	118	288	0
TAP	119	0	5
TAP	119	96	4
TAP	119	96	5
TAP	119	192	6
TAP	119	240	6
TAP	119	288	7
HLD	120	0	2	96
HLD	120	96	0	96
HLD	120	192	7	96
TAP	120	288	5
TAP	121	0	4
TAP	121	96	4
TAP	121	96	5
TAP	121	192	3
TAP	121	288	2
TAP	121	288	3
TAP	122	0	5
TAP	122	96	4
TAP	122	96	5
TAP	122	192	6
TAP	122	240	6
TAP	122	288	7
TAP	123	0	2
TAP	123	96	2
TAP	123	96	3
TAP	123	192	1
TAP	123	240	1
TAP	123	288	0
HLD	124	0	6	96
HLD	124	96	4	96
HLD	124	192	3	96
HLD	124	288	1	96
TAP	125	0	4
TAP	125	96	3
TAP	125	96	6
TAP	125	192	0
TAP	125	216	7
TAP	125	240	0
TAP	125	264	7
STR	125	288	0
SI_	125	288	0	96	48	4

T_REC_TAP	377
T_REC_BRK	10
T_REC_XTP	57
T_REC_HLD	82
T_REC_XHO	2
T_REC_STR	40
T_REC_BST	0
T_REC_XST	0
T_REC_TTP	13
T_REC_THO	0
T_REC_SLD	40
T_REC_ALL	621
T_NUM_TAP	487
T_NUM_BRK	10
T_NUM_HLD	84
T_NUM_SLD	40
T_NUM_ALL	621
T_JUDGE_TAP	497
T_JUDGE_HLD	254
T_JUDGE_SLD	40
T_JUDGE_ALL	791
TTM_EACHPAIRS	151
TTM_SCR_TAP	243500
TTM_SCR_BRK	26000
TTM_SCR_HLD	84000
TTM_SCR_SLD	60000
TTM_SCR_ALL	413500
TTM_SCR_S	400150
TTM_SCR_SS	412500
TTM_RAT_ACV	10024

