VERSION	0.00.00	1.03.00
FES_MODE	0
BPM_DEF	192.000	192.000	192.000	192.000
MET_DEF	4	4
RESOLUTION	384
CLK_DEF	384
COMPATIBLE_CODE	MA2

BPM	0	0	192.000
MET	0	0	4	4

TAP	2	0	2
TAP	3	0	2
TAP	4	0	2
HLD	5	0	2	384
HLD	6	0	1	192
HLD	6	192	0	192
HLD	7	0	7	192
TAP	7	192	0
XHO	8	0	0	192
XHO	8	0	7	192
XTP	8	336	1
XTP	8	336	6
XTP	9	48	1
XTP	9	48	6
XTP	9	144	1
XTP	9	144	6
TAP	10	0	2
TAP	10	96	2
TAP	10	192	3
TAP	11	0	5
TAP	11	96	5
TAP	11	192	4
TAP	12	0	2
TAP	12	96	2
TAP	12	192	2
TAP	12	192	3
TAP	12	288	4
TAP	12	336	4
XTP	13	48	3
XTP	13	48	5
XTP	13	144	2
XTP	13	144	4
XTP	13	240	1
XTP	13	240	5
TAP	14	0	6
TAP	14	96	6
TAP	14	192	7
TAP	15	0	1
TAP	15	96	1
TAP	15	192	0
STR	16	0	0
SI_	16	0	0	96	288	3
STR	16	0	7
SI_	16	0	7	96	288	4
XTP	17	192	2
XTP	17	192	5
HLD	18	0	5	192
TAP	18	192	4
TAP	19	0	3
TAP	19	96	3
TAP	19	192	4
HLD	20	0	2	192
TAP	20	192	3
TAP	21	0	4
TAP	21	96	4
TAP	21	192	3
TAP	21	192	5
HLD	22	0	6	192
TAP	22	192	7
TAP	23	0	0
TAP	23	96	0
TAP	23	192	7
TAP	23	288	7
HLD	24	0	1	336
HLD	24	0	6	336
XTP	26	0	2
TAP	26	96	2
TAP	26	192	2
TAP	26	192	3
TAP	27	0	5
TAP	27	96	5
TAP	27	192	4
TAP	27	192	5
TAP	28	0	6
TAP	28	96	6
TAP	28	192	7
TAP	28	288	7
TAP	29	0	0
TAP	29	96	0
TAP	29	192	1
TAP	29	192	7
TAP	30	0	2
TAP	30	96	2
TAP	30	192	1
TAP	30	192	3
TAP	31	0	5
TAP	31	96	5
TAP	31	192	4
TAP	31	192	6
STR	32	0	7
SSR	32	0	7	96	288	3
XTP	33	192	2
XTP	33	192	4
HLD	34	0	1	192
HLD	34	192	2	192
TAP	35	0	3
TAP	35	192	3
TAP	35	192	4
HLD	36	0	6	192
HLD	36	192	5	192
TAP	37	0	4
TAP	37	192	3
TAP	37	192	4
STR	38	0	3
SI_	38	0	3	96	288	7
STR	38	0	4
SI_	38	0	4	96	288	0
XTP	39	192	1
XTP	39	192	6
STR	40	0	2
SLL	40	0	2	96	480	3
STR	40	0	5
SLR	40	0	5	96	480	4
THO	42	0	0	384	C	1	L1
XTP	43	192	0
XTP	43	192	7
TAP	44	0	1
TAP	44	96	1
TAP	44	192	2
TAP	44	288	3
TAP	45	0	4
TAP	45	0	5
TAP	45	96	4
TAP	45	96	5
TAP	45	192	3
TAP	45	192	6
TAP	45	288	3
TAP	45	288	6
TAP	46	0	6
TAP	46	96	5
TAP	46	192	4
TAP	46	288	3
TAP	47	0	2
TAP	47	0	3
TAP	47	96	2
TAP	47	96	3
BRK	47	192	1
BRK	47	192	4
STR	48	0	0
SI_	48	0	0	96	192	3
STR	49	0	4
SI_	49	0	4	96	192	7
TAP	50	0	0
TAP	50	96	0
TAP	50	192	7
TAP	50	288	7
HLD	51	0	0	96
HLD	51	0	7	96
BRK	51	192	1
BRK	51	192	6
TAP	52	0	2
TAP	52	96	1
TAP	52	96	3
TAP	52	192	5
TAP	52	288	4
TAP	52	288	6
TAP	53	0	2
TAP	53	96	1
TAP	53	96	3
TAP	53	192	0
TAP	53	240	0
XTP	53	288	0
TAP	54	0	7
TAP	54	96	6
TAP	54	192	4
TAP	54	192	5
TAP	54	288	4
TAP	54	288	5
TAP	55	0	3
TAP	55	96	2
TAP	55	192	1
TAP	55	192	4
TAP	56	0	1
TAP	56	96	0
TAP	56	96	1
TAP	56	192	2
TAP	56	192	7
TAP	56	288	2
TAP	56	288	7
TAP	57	0	6
TAP	57	96	6
TAP	57	96	7
TAP	57	192	0
TAP	57	192	5
XHO	58	0	1	192
XHO	58	0	6	192
TTP	59	0	0	C	1	L1
TTP	59	0	2	B	0	L1
TTP	59	0	5	B	0	L1
XST	60	0	0
SI_	60	0	0	96	192	4
TAP	61	0	5
TAP	61	96	5
TAP	61	192	3
TAP	61	192	5
STR	62	0	6
SI_	62	0	6	96	192	2
TAP	63	0	1
TAP	63	96	1
TAP	63	192	0
TAP	63	192	1
STR	64	0	7
SCL	64	0	7	96	192	4
STR	65	0	3
SCL	65	0	3	96	192	0
TAP	66	0	7
TAP	66	96	7
TAP	66	192	0
TAP	66	288	0
BRK	67	0	1
BRK	67	0	6
HLD	68	0	5	192
HLD	68	192	4	192
HLD	69	0	6	192
TAP	69	192	7
HLD	70	0	1	192
HLD	70	192	0	192
HLD	71	0	2	192
TAP	71	192	3
HLD	72	0	4	192
TAP	72	192	5
HLD	73	0	3	192
TAP	73	192	2
STR	74	0	1
SI_	74	0	1	96	288	5
XTP	75	192	4
XTP	75	192	6
TTP	76	0	7	E	0	L1
TTP	76	192	0	C	0	L1
TTP	77	0	3	E	0	L1
TTP	77	192	2	E	0	L1
TTP	78	0	1	E	0	L1
TTP	78	192	0	C	0	L1
TTP	79	0	5	E	0	L1
TTP	79	192	4	E	0	L1
TTP	80	0	3	E	0	L1
TTP	80	192	1	B	0	L1
TTP	80	192	2	E	0	L1
TTP	81	0	5	E	0	L1
TTP	81	192	6	B	0	L1
TTP	81	192	6	E	0	L1
THO	82	0	0	336	C	0	L1
XTP	83	192	0
XTP	83	192	7
TAP	84	0	1
TAP	84	96	2
TAP	84	192	3
TAP	84	288	4
TAP	85	0	5
TAP	85	96	6
TAP	85	192	0
TAP	85	192	7
TAP	85	288	0
TAP	85	288	7
TAP	86	0	6
TAP	86	96	5
TAP	86	192	4
TAP	86	288	3
TAP	87	0	2
TAP	87	96	2
TAP	87	192	1
TAP	87	192	3
STR	88	0	0
SCR	88	0	0	96	288	5
TAP	89	192	6
TAP	89	288	6
STR	90	0	7
SCL	90	0	7	96	288	2
BRK	91	192	1
BRK	91	192	7
THO	92	0	0	768	C	1	L1
HLD	98	0	4	1152
HLD	100	0	3	384
XTP	101	192	2
XTP	101	192	5
BRK	102	0	0
TAP	102	96	1
TAP	102	96	7
TAP	102	192	2
TAP	102	288	1
TAP	102	288	3
TAP	103	0	4
TAP	103	96	3
TAP	103	96	5
TAP	103	192	6
TAP	103	288	5
TAP	103	288	7
TAP	104	0	0
TAP	104	96	1
TAP	104	192	2
TAP	104	192	3
TAP	104	288	2
TAP	104	288	3
XHO	105	0	4	96
XHO	105	0	5	96
XHO	105	192	2	96
XHO	105	192	3	96
STR	106	0	4
SCR	106	0	4	96	192	7
STR	107	0	0
SCR	107	0	0	96	192	3
TAP	108	0	4
TAP	108	96	4
TAP	108	192	3
TAP	108	288	3
HLD	109	0	2	96
HLD	109	0	5	96
BRK	109	192	1
BRK	109	192	6
TAP	110	0	2
TAP	110	0	3
TAP	110	96	1
TAP	110	192	0
TAP	110	240	0
TAP	110	288	0
TAP	111	0	6
TAP	111	0	7
TAP	111	96	5
TAP	111	192	4
TAP	111	240	4
TAP	111	288	4
TAP	112	0	2
TAP	112	0	3
TAP	112	96	1
TAP	112	96	4
TAP	112	192	4
TAP	112	192	5
TAP	112	288	3
TAP	112	288	6
TAP	113	0	2
TAP	113	0	3
TAP	113	96	1
TAP	113	96	4
TAP	113	192	0
TAP	113	192	5
HLD	114	0	6	96
TAP	114	96	7
TAP	114	192	0
TAP	114	192	5
TAP	114	288	0
TAP	114	288	5
HLD	115	0	1	96
TAP	115	96	0
TAP	115	192	2
TAP	115	192	7
THO	116	0	0	288	C	1	L1
TTP	116	0	1	B	0	L1
TTP	116	0	6	B	0	L1
TAP	118	0	0
TAP	118	0	1
TAP	118	96	0
TAP	118	96	1
TAP	118	192	2
TAP	118	288	3
TAP	119	0	4
TAP	119	0	5
TAP	119	96	4
TAP	119	96	5
TAP	119	192	3
TAP	119	192	6
TAP	120	0	6
TAP	120	0	7
TAP	120	96	6
TAP	120	96	7
TAP	120	192	5
TAP	120	288	4
TAP	121	0	2
TAP	121	0	3
TAP	121	96	2
TAP	121	96	3
TAP	121	192	1
TAP	121	192	4
TAP	122	0	0
TAP	122	96	1
TAP	122	96	7
TAP	122	192	2
TAP	122	192	6
TAP	123	0	7
TAP	123	96	0
TAP	123	96	6
TAP	123	192	1
TAP	123	192	5
TAP	124	0	4
TAP	124	0	6
TAP	124	96	4
TAP	124	96	6
TAP	124	192	5
TAP	124	288	4
TAP	125	0	3
TAP	125	0	4
TAP	125	96	2
TAP	125	192	1
TAP	125	192	6
TAP	125	288	1
TAP	125	288	6
BRK	126	0	3
BRK	126	0	4

T_REC_TAP	260
T_REC_BRK	13
T_REC_XTP	28
T_REC_HLD	29
T_REC_XHO	8
T_REC_STR	17
T_REC_BST	0
T_REC_XST	1
T_REC_TTP	19
T_REC_THO	4
T_REC_SLD	18
T_REC_ALL	397
T_NUM_TAP	325
T_NUM_BRK	13
T_NUM_HLD	41
T_NUM_SLD	18
T_NUM_ALL	397
T_JUDGE_TAP	338
T_JUDGE_HLD	199
T_JUDGE_SLD	18
T_JUDGE_ALL	555
TTM_EACHPAIRS	97
TTM_SCR_TAP	162500
TTM_SCR_BRK	33800
TTM_SCR_HLD	41000
TTM_SCR_SLD	27000
TTM_SCR_ALL	264300
TTM_SCR_S	255150
TTM_SCR_SS	263000
TTM_RAT_ACV	10049

