VERSION	0.00.00	1.03.00
FES_MODE	0
BPM_DEF	192.000	192.000	192.000	192.000
MET_DEF	4	4
RESOLUTION	384
CLK_DEF	384
COMPATIBLE_CODE	MA2

BPM	0	0	192.000
MET	0	0	4	4

HLD	2	0	0	384
TAP	4	0	0
TAP	5	0	0
HLD	6	0	7	384
XTP	8	0	1
XTP	8	0	7
TAP	10	0	0
TAP	10	192	0
TAP	11	0	0
TAP	12	0	1
TAP	12	192	1
TAP	13	0	1
TAP	14	0	2
TAP	14	192	2
TAP	15	0	2
TAP	16	0	3
TAP	16	192	3
XTP	17	0	3
XTP	17	0	4
TAP	18	0	4
TAP	19	0	4
TAP	20	0	5
TAP	20	192	5
TAP	21	0	5
TAP	22	0	6
TAP	23	0	6
HLD	24	0	7	384
XTP	26	0	0
TAP	27	0	0
TAP	28	0	1
TAP	28	192	1
TAP	29	0	1
TAP	30	0	2
TAP	31	0	2
HLD	32	0	3	384
TTP	34	0	4	B	0	L1
TTP	35	0	3	B	0	L1
TTP	36	0	5	B	0	L1
TTP	37	0	2	B	0	L1
TTP	38	0	6	B	0	L1
TTP	39	0	1	B	0	L1
THO	40	0	0	768	C	1	L1
TAP	44	0	7
TAP	44	96	7
TAP	44	192	7
TAP	45	0	7
TAP	45	96	7
TAP	45	192	7
TAP	46	0	6
TAP	46	96	6
TAP	46	192	6
TAP	47	0	6
TAP	47	96	6
XTP	47	192	6
XTP	47	192	7
TAP	48	0	5
TAP	48	192	5
TAP	49	0	4
TAP	49	192	4
TAP	50	0	3
TAP	50	192	3
BRK	51	0	3
BRK	51	0	4
TAP	52	0	3
TAP	52	96	3
TAP	52	192	3
TAP	53	0	3
TAP	53	96	3
TAP	53	192	3
TAP	54	0	2
TAP	54	96	2
TAP	54	192	2
TAP	55	0	2
TAP	55	96	2
XTP	55	192	2
XTP	55	192	3
TAP	56	0	1
TAP	56	192	1
TAP	57	0	0
TAP	57	192	0
HLD	58	0	0	192
HLD	58	0	7	192
BRK	59	0	0
BRK	59	0	7
STR	60	0	0
SI_	60	0	0	96	288	4
TAP	62	0	7
TAP	63	0	0
TAP	63	0	7
STR	64	0	7
SI_	64	0	7	96	288	3
TAP	66	0	0
XTP	67	0	0
XTP	67	0	7
TAP	68	0	0
TAP	69	0	0
TAP	70	0	1
TAP	70	192	1
TAP	71	0	1
TAP	72	0	2
TAP	73	0	2
TAP	74	0	3
TAP	74	192	3
XTP	75	0	3
XTP	75	0	4
TAP	76	0	4
TAP	76	192	4
TAP	77	0	4
TAP	78	0	5
TAP	78	192	5
TAP	79	0	5
TAP	80	0	6
TAP	80	192	6
TAP	81	0	6
TAP	82	0	7
TAP	82	192	7
TAP	83	0	0
TAP	83	0	7
HLD	84	0	0	192
TAP	85	0	0
TAP	85	0	7
HLD	86	0	7	192
TAP	87	0	0
TAP	87	0	7
TAP	88	0	6
TAP	88	192	6
TAP	89	0	5
TAP	89	192	5
HLD	90	0	3	384
HLD	90	0	4	384
XTP	91	192	3
XTP	91	192	4
TTP	94	0	3	B	0	L1
TTP	95	0	4	B	0	L1
TTP	96	0	2	B	0	L1
TTP	97	0	5	B	0	L1
TTP	98	0	1	B	0	L1
TTP	99	0	6	B	0	L1
THO	100	0	0	384	C	1	L1
TAP	102	0	0
TAP	102	96	0
TAP	102	192	0
TAP	103	0	1
TAP	103	96	1
TAP	103	192	1
TAP	104	0	2
TAP	104	96	2
TAP	104	192	2
TAP	105	0	3
TAP	105	96	3
XTP	105	192	3
XTP	105	192	4
TAP	106	0	4
TAP	106	192	4
TAP	107	0	3
TAP	107	192	3
HLD	108	0	3	192
HLD	108	0	4	192
BRK	109	0	3
BRK	109	0	4
TAP	110	0	4
TAP	110	96	4
TAP	110	192	4
TAP	111	0	5
TAP	111	96	5
TAP	111	192	5
TAP	112	0	6
TAP	112	96	6
TAP	112	192	6
TAP	113	0	7
TAP	113	96	7
TAP	113	192	0
TAP	113	192	7
HLD	114	0	0	384
TAP	115	192	0
TAP	115	192	7
HLD	116	0	1	288
HLD	116	0	6	288
TAP	118	0	5
TAP	118	192	5
TAP	119	0	5
TAP	120	0	4
TAP	120	192	4
TAP	121	0	4
TAP	122	0	3
TAP	122	192	3
TAP	123	0	2
TAP	123	0	4
TAP	124	0	4
TAP	124	192	4
TAP	125	0	3
TAP	125	0	5
XTP	126	0	3
XTP	126	0	4

T_REC_TAP	136
T_REC_BRK	6
T_REC_XTP	19
T_REC_HLD	15
T_REC_XHO	0
T_REC_STR	2
T_REC_BST	0
T_REC_XST	0
T_REC_TTP	12
T_REC_THO	2
T_REC_SLD	2
T_REC_ALL	194
T_NUM_TAP	169
T_NUM_BRK	6
T_NUM_HLD	17
T_NUM_SLD	2
T_NUM_ALL	194
T_JUDGE_TAP	175
T_JUDGE_HLD	116
T_JUDGE_SLD	2
T_JUDGE_ALL	293
TTM_EACHPAIRS	24
TTM_SCR_TAP	84500
TTM_SCR_BRK	15600
TTM_SCR_HLD	17000
TTM_SCR_SLD	3000
TTM_SCR_ALL	120100
TTM_SCR_S	115950
TTM_SCR_SS	119500
TTM_RAT_ACV	10050

