VERSION	0.00.00	1.03.00
FES_MODE	0
BPM_DEF	183.000	183.000	183.000	183.000
MET_DEF	4	4
RESOLUTION	384
CLK_DEF	384
COMPATIBLE_CODE	MA2

BPM	0	0	183.000
MET	0	0	4	4
MET	60	0	4	3
MET	60	288	8	9
MET	61	336	4	3
MET	62	240	8	9
MET	63	288	4	3
MET	64	192	4	4
MET	65	192	4	5
MET	66	288	4	2
MET	67	96	4	4

TAP	1	0	2
HLD	1	0	5	144
TAP	1	144	3
TAP	1	336	2
HLD	1	336	6	192
TAP	2	144	4
HLD	3	0	2	144
TAP	3	0	5
TAP	3	144	3
TAP	3	240	3
STR	3	336	4
SI_	3	336	4	96	96	1
STR	3	336	5
SI_	3	336	5	96	96	0
TAP	4	288	1
TAP	4	288	6
TAP	5	0	1
TAP	5	0	4
TAP	5	48	2
TAP	5	72	3
TAP	5	96	2
STR	5	144	6
SI_	5	144	6	96	48	3
TAP	5	240	6
TAP	5	240	7
STR	5	336	1
SI_	5	336	1	96	48	4
TAP	6	48	0
TAP	6	48	1
STR	6	144	6
SI_	6	144	6	96	48	3
TAP	6	240	6
TAP	6	240	7
TAP	6	288	7
TAP	7	0	1
TAP	7	0	4
TAP	7	48	2
TAP	7	72	3
TAP	7	96	2
STR	7	144	6
SI_	7	144	6	96	48	3
STR	7	240	1
SCR	7	240	1	96	96	5
TAP	7	240	6
BRK	7	336	1
HLD	9	0	2	288
TAP	9	0	4
TAP	9	96	4
TAP	9	192	3
TAP	9	288	3
TAP	9	336	3
HLD	10	0	1	288
TAP	10	96	2
TAP	10	192	3
TAP	10	288	4
HLD	11	0	5	192
TAP	11	96	4
STR	11	192	4
SCL	11	192	4	96	48	2
HLD	12	0	4	96
TAP	12	96	3
TAP	12	192	2
TAP	12	192	5
TAP	13	0	4
HLD	13	0	5	96
TAP	13	96	4
TAP	13	144	4
HLD	13	192	5	96
TAP	13	288	4
TAP	14	0	3
TAP	14	96	2
TAP	14	96	4
TAP	14	192	1
TAP	14	192	4
TAP	14	288	2
TAP	14	288	5
STR	15	0	3
SCL	15	0	3	96	48	0
HLD	15	0	4	96
TAP	15	192	6
HLD	16	0	3	96
STR	16	0	4
SCR	16	0	4	96	48	7
TAP	16	192	1
TAP	16	288	0
TAP	16	288	7
TAP	17	0	1
TAP	17	0	2
TAP	17	96	1
TAP	17	96	2
TAP	17	192	1
TAP	17	192	3
TAP	17	288	1
TAP	17	288	4
TAP	18	0	1
TAP	18	0	5
TAP	18	96	1
TAP	18	96	6
TAP	18	192	1
TAP	18	192	7
TAP	18	288	0
TAP	18	288	1
STR	19	0	1
SUR	19	0	1	96	144	6
STR	19	0	6
SUL	19	0	6	96	144	1
TAP	20	0	2
TAP	20	48	2
TAP	20	96	3
HLD	20	144	3	96
TAP	20	240	1
TAP	20	288	1
HLD	21	0	3	96
TAP	21	0	4
TAP	21	96	4
STR	21	144	4
SI_	21	144	4	96	48	7
TAP	21	288	0
HLD	22	0	0	96
TAP	22	0	7
TAP	22	96	7
STR	22	144	7
SI_	22	144	7	96	48	4
TAP	22	288	3
TAP	23	0	2
TAP	23	0	3
TAP	23	96	2
TAP	23	96	3
STR	23	144	2
SI_	23	144	2	96	48	7
STR	23	144	3
SI_	23	144	3	96	48	6
TAP	23	336	0
TAP	23	336	5
TAP	24	48	6
TAP	24	72	7
TAP	24	96	6
STR	24	144	0
SI_	24	144	0	96	48	3
STR	24	144	7
SI_	24	144	7	96	48	4
XTP	24	240	0
XTP	24	240	7
STR	25	0	3
SCL	25	0	3	96	480	7
TAP	25	0	5
TTP	25	192	0	E	0	M1
TTP	25	288	7	E	0	M1
TTP	26	0	6	E	0	M1
TTP	26	96	5	E	0	M1
TTP	26	192	4	E	0	M1
TAP	27	0	2
STR	27	0	4
SCR	27	0	4	96	480	0
TTP	27	192	0	E	0	M1
TTP	27	288	1	E	0	M1
TTP	28	0	2	E	0	M1
TTP	28	96	3	E	0	M1
TTP	28	192	4	E	0	M1
TAP	28	288	3
TAP	28	288	4
HLD	29	0	1	288
TAP	29	0	3
TAP	29	96	4
TAP	29	144	4
TAP	29	192	5
TAP	29	240	5
TAP	29	288	6
TAP	30	0	4
HLD	30	0	6	288
TAP	30	96	3
TAP	30	144	3
TAP	30	192	2
TAP	30	240	2
BRK	30	288	1
TAP	31	0	0
STR	31	0	1
SCR	31	0	1	96	96	4
TAP	31	144	7
TAP	31	240	6
TAP	31	336	5
TAP	32	48	3
TAP	32	48	4
TAP	32	144	2
TAP	32	144	3
TAP	32	240	1
TAP	32	240	2
TAP	32	336	0
TAP	32	336	1
TAP	33	0	0
TAP	33	0	1
TAP	33	96	0
TAP	33	96	7
TAP	33	144	0
TAP	33	144	7
STR	33	240	6
SI_	33	240	6	96	48	2
STR	33	240	7
SI_	33	240	7	96	48	3
BRK	33	336	6
BRK	33	336	7
STR	34	144	0
SI_	34	144	0	96	48	4
STR	34	192	4
SCL	34	192	4	96	144	4
SCR	34	192	4	96	144	4
STR	35	144	7
SI_	35	144	7	96	48	3
STR	35	192	3
SCL	35	192	3	96	144	3
SCR	35	192	3	96	144	3
TAP	36	144	6
TAP	36	192	7
TAP	36	288	0
TAP	36	288	5
STR	37	0	2
SCL	37	0	2	96	48	7
STR	37	0	6
SCL	37	0	6	96	48	3
STR	37	192	3
SCR	37	192	3	96	48	6
STR	37	192	7
SCR	37	192	7	96	48	2
STR	38	0	2
SV_	38	0	2	96	48	0
STR	38	0	6
SV_	38	0	6	96	48	4
TAP	38	192	2
TAP	38	192	6
TAP	38	336	2
HLD	39	0	2	96
TAP	39	96	5
TAP	39	144	4
STR	39	192	4
SCR	39	192	4	96	48	7
TAP	39	288	3
TAP	39	336	4
STR	40	0	4
SCL	40	0	4	96	48	1
TAP	40	96	5
TAP	40	144	4
TAP	40	192	4
TAP	40	288	3
TAP	40	288	5
STR	40	336	3
SI_	40	336	3	96	48	0
TAP	41	48	3
TAP	41	48	4
STR	41	144	7
SI_	41	144	7	96	48	4
TAP	41	240	0
TAP	41	240	7
TAP	41	336	2
TAP	41	336	5
XTP	42	48	1
XTP	42	48	6
STR	42	144	7
SI_	42	144	7	96	48	3
STR	42	192	3
SCL	42	192	3	96	144	3
SCR	42	192	3	96	144	3
STR	43	144	0
SI_	43	144	0	96	48	4
STR	43	192	4
SCL	43	192	4	96	144	4
SCR	43	192	4	96	144	4
TAP	44	144	1
TAP	44	192	0
TAP	44	288	2
TAP	44	288	7
STR	45	0	1
SCR	45	0	1	96	48	4
STR	45	0	5
SCR	45	0	5	96	48	0
STR	45	192	0
SCL	45	192	0	96	48	5
STR	45	192	4
SCL	45	192	4	96	48	1
STR	46	0	1
SV_	46	0	1	96	48	3
STR	46	0	5
SV_	46	0	5	96	48	7
TAP	46	192	1
TAP	46	192	5
TAP	46	336	5
HLD	47	0	5	96
TAP	47	96	2
TAP	47	144	3
STR	47	192	3
SCL	47	192	3	96	48	0
TAP	47	288	4
TAP	47	336	3
STR	48	0	3
SCR	48	0	3	96	48	6
TAP	48	96	2
TAP	48	144	3
TAP	48	192	3
TAP	48	288	2
TAP	48	288	4
STR	48	336	4
SI_	48	336	4	96	48	7
TAP	49	48	3
TAP	49	48	4
STR	49	144	0
SI_	49	144	0	96	48	3
TAP	49	240	0
TAP	49	240	7
TAP	49	336	1
TAP	49	336	4
TAP	50	48	2
TAP	50	48	3
TAP	50	144	1
TAP	50	144	4
TAP	50	192	1
TAP	50	192	4
TAP	50	240	2
TAP	50	264	3
TAP	50	288	2
TAP	50	312	3
TAP	50	336	2
TAP	51	0	1
TAP	51	0	4
TAP	51	96	7
TAP	51	144	0
TAP	51	144	6
TAP	51	240	5
TAP	51	288	4
TAP	51	288	6
TAP	51	336	3
TAP	52	48	1
TAP	52	96	0
TAP	52	96	2
TAP	52	192	7
TAP	52	240	0
TAP	52	240	6
STR	52	288	1
SI_	52	288	1	96	48	6
TAP	52	288	5
TAP	53	0	5
TAP	53	144	5
TAP	53	144	6
STR	53	240	6
SI_	53	240	6	96	48	2
TAP	53	240	7
BRK	53	336	5
BRK	53	336	6
TTP	54	96	7	E	0	M1
TTP	54	128	6	E	0	M1
TTP	54	160	5	E	0	M1
TTP	54	192	1	E	0	M1
TTP	54	224	2	E	0	M1
TTP	54	256	3	E	0	M1
TTP	54	288	3	B	0	M1
TTP	54	288	4	B	0	M1
TTP	54	288	4	E	0	M1
TAP	55	0	1
TAP	55	0	5
TAP	55	96	0
TAP	55	96	1
TAP	55	144	0
TAP	55	144	1
TAP	55	192	2
TAP	55	192	7
TAP	55	240	2
TAP	55	240	7
TAP	55	288	3
TAP	55	288	6
TAP	56	0	1
TAP	56	0	5
TAP	56	96	6
TAP	56	96	7
TAP	56	144	6
TAP	56	144	7
TAP	56	192	0
TAP	56	192	5
TAP	56	240	0
TAP	56	240	5
TAP	56	288	1
TAP	56	288	4
TAP	56	336	4
STR	57	0	0
SLL	57	0	0	96	96	3
TAP	57	192	6
TAP	57	288	1
TAP	57	288	6
TAP	58	0	2
TAP	58	0	7
TAP	58	96	1
TAP	58	96	6
TAP	58	192	0
TAP	58	192	5
TAP	58	288	3
TAP	58	288	6
TAP	59	0	4
HLD	59	0	5	144
TTP	59	144	6	E	0	M1
TTP	59	144	7	E	0	M1
HLD	59	288	2	144
TAP	59	288	3
TTP	60	48	1	E	0	M1
TTP	60	48	2	E	0	M1
TAP	60	192	4
TAP	60	192	5
TAP	60	240	4
TAP	60	240	5
HLD	60	288	2	144
TAP	60	288	3
TTP	61	48	1	E	0	M1
TTP	61	48	2	E	0	M1
TAP	61	192	4
HLD	61	192	5	144
TTP	61	336	6	E	0	M1
TTP	61	336	7	E	0	M1
XTP	62	24	0
XTP	62	96	3
XTP	62	168	1
HLD	62	240	6	144
TAP	62	240	7
TTP	63	0	5	E	0	M1
TTP	63	0	6	E	0	M1
TAP	63	144	0
HLD	63	144	1	144
TTP	63	288	2	E	0	M1
TTP	63	288	3	E	0	M1
TTP	64	0	5	E	0	M1
TTP	64	0	6	E	0	M1
TTP	64	96	0	B	0	M1
TTP	64	96	7	B	0	M1
HLD	64	192	2	96
HLD	64	192	3	96
TTP	64	336	0	E	0	M1
TTP	64	336	6	B	0	M1
TTP	64	336	6	E	0	M1
TTP	64	336	7	B	0	M1
TTP	64	336	7	E	0	M1
HLD	65	96	4	96
HLD	65	96	5	96
TTP	65	240	0	B	0	M1
TTP	65	240	0	E	0	M1
TTP	65	240	1	B	0	M1
TTP	65	240	1	E	0	M1
TTP	65	240	2	E	0	M1
XTP	65	312	2
XTP	65	312	7
XTP	66	0	3
XTP	66	0	6
XTP	66	72	4
XTP	66	72	5
XTP	66	144	3
XTP	66	144	6
BRK	66	216	0
BRK	66	216	1
TTP	67	0	0	C	1	M1
TTP	67	0	1	B	0	M1
TTP	67	0	2	B	0	M1
TTP	67	0	5	B	0	M1
TTP	67	0	6	B	0	M1
HLD	67	96	0	336
TAP	67	96	7
TAP	67	144	7
TAP	67	192	6
TAP	67	240	6
TAP	67	288	5
TAP	67	336	5
TAP	68	0	4
HLD	68	48	3	96
TAP	68	144	0
TAP	68	192	0
TAP	68	240	1
TAP	68	240	7
TAP	68	288	1
TAP	68	288	7
TAP	68	336	2
TAP	68	336	6
TAP	69	48	5
TAP	69	96	3
TAP	69	120	4
TAP	69	144	3
TAP	69	168	4
TAP	69	192	2
TAP	69	216	5
TAP	69	240	2
TAP	69	264	5
TAP	69	288	1
TAP	69	312	6
TAP	69	336	1
TAP	69	360	6
TAP	70	0	0
TAP	70	24	7
TAP	70	48	0
XHO	70	96	5	72
XHO	70	168	4	72
XTP	70	240	3
XHO	70	288	3	72
XTP	70	360	1
TAP	71	96	2
TAP	71	96	6
TTP	71	288	0	E	0	M1
TTP	71	360	0	C	0	M1
TTP	72	48	4	E	0	M1
TTP	72	144	6	B	0	M1
TTP	72	144	7	B	0	M1
TTP	72	144	7	E	0	M1
TTP	72	240	2	B	0	M1
TTP	72	240	3	B	0	M1
TTP	72	240	3	E	0	M1
TTP	72	336	0	B	0	M1
TTP	72	336	0	E	0	M1
TTP	72	336	7	B	0	M1
TTP	73	48	3	B	0	M1
TTP	73	48	4	B	0	M1
TTP	73	48	4	E	0	M1
TTP	73	240	6	E	0	M1
TTP	73	264	0	C	0	M1
TTP	73	288	2	E	0	M1
TTP	73	360	0	E	0	M1
TTP	74	48	0	C	0	M1
TTP	74	96	4	E	0	M1
TTP	74	168	1	E	0	M1
TTP	74	168	7	E	0	M1
TTP	74	240	2	E	0	M1
TTP	74	240	6	E	0	M1
TTP	74	312	3	E	0	M1
TTP	74	312	5	E	0	M1
TTP	75	0	4	E	0	M1
XTP	75	96	7
TAP	75	120	6
TAP	75	144	5
TAP	75	168	4
TAP	75	192	3
XTP	75	240	0
TAP	75	264	1
TAP	75	288	2
TAP	75	312	3
TAP	75	336	4
TAP	76	0	0
TAP	76	0	7
TTP	76	96	7	E	0	M1
TTP	76	120	6	B	0	M1
TTP	76	144	5	B	0	M1
TTP	76	168	4	B	0	M1
TTP	76	192	4	E	0	M1
TTP	76	240	1	E	0	M1
TTP	76	264	1	B	0	M1
TTP	76	288	2	B	0	M1
TTP	76	312	3	B	0	M1
TTP	76	336	4	E	0	M1
TTP	77	0	0	C	0	M1
TTP	77	0	2	E	0	M1
TTP	77	0	6	E	0	M1
XTP	77	96	0
TAP	77	168	1
TAP	77	168	7
TAP	77	240	2
TAP	77	240	6
XTP	77	288	4
TAP	77	360	3
TAP	77	360	5
TAP	78	48	2
TAP	78	48	6
BST	78	96	0
SF_	78	96	0	96	96	4
HLD	79	96	2	576
HLD	79	96	6	768
STR	81	96	2
SCL	81	96	2	96	576	3
STR	83	96	2
SCL	83	96	2	96	288	3
TAP	83	96	5
TAP	84	96	6
TAP	84	288	2
TAP	84	320	4
TAP	84	352	2
TAP	85	0	3
TAP	85	32	1
TAP	85	64	3
HLD	85	96	1	144
TAP	85	240	3
TAP	85	288	3
TAP	85	336	4
TAP	86	0	5
HLD	86	96	4	72
HLD	86	168	5	72
HLD	86	240	6	72
HLD	86	312	7	72
TAP	87	0	0
XTP	87	96	1
XTP	87	108	2
XTP	87	120	3
XTP	87	132	4
XTP	87	144	5
XTP	87	156	6
XTP	87	168	7
XTP	87	180	0
BRK	87	192	1
STR	87	240	7
SI_	87	240	7	96	48	3
STR	87	288	3
SCL	87	288	3	96	144	3
SCR	87	288	3	96	144	3
TAP	88	240	1
TAP	88	288	0
TAP	89	0	2
TAP	89	0	7
STR	89	96	1
SCR	89	96	1	96	48	4
STR	89	96	5
SCR	89	96	5	96	48	0
STR	89	288	0
SCL	89	288	0	96	48	5
STR	89	288	4
SCL	89	288	4	96	48	1
STR	90	96	1
SV_	90	96	1	96	48	3
STR	90	96	5
SV_	90	96	5	96	48	7
TAP	90	288	1
TAP	90	288	5
TAP	91	48	5
HLD	91	96	5	96
TAP	91	192	2
TAP	91	240	3
STR	91	288	3
SCL	91	288	3	96	48	0
TAP	92	0	4
TAP	92	48	3
STR	92	96	3
SCR	92	96	3	96	48	6
TAP	92	192	2
TAP	92	240	3
TAP	92	288	3
TAP	93	0	1
TAP	93	0	6
STR	93	48	6
SI_	93	48	6	96	48	2
TAP	93	144	1
TAP	93	144	6
STR	93	240	1
SI_	93	240	1	96	48	5
TAP	93	336	1
TAP	93	336	6
TAP	94	48	1
TAP	94	48	4
TAP	94	144	2
TAP	94	144	3
TAP	94	240	1
TAP	94	240	4
TAP	94	288	1
TAP	94	288	4
TAP	94	336	2
TAP	94	360	3
TAP	95	0	2
TAP	95	24	3
TAP	95	48	2
TAP	95	96	1
TAP	95	96	4
TAP	95	192	7
TAP	95	240	0
TAP	95	240	6
TAP	95	336	5
TAP	96	0	4
TAP	96	0	6
TAP	96	48	3
TAP	96	144	1
TAP	96	192	0
TAP	96	192	2
TAP	96	288	7
TAP	96	336	0
TAP	96	336	6
STR	97	0	1
SI_	97	0	1	96	48	6
TAP	97	0	5
TAP	97	96	5
TAP	97	240	5
TAP	97	240	6
STR	97	336	6
SI_	97	336	6	96	48	2
TAP	97	336	7
BRK	98	48	5
BRK	98	48	6
TTP	98	192	7	E	0	M1
TTP	98	224	6	E	0	M1
TTP	98	256	5	E	0	M1
TTP	98	288	1	E	0	M1
TTP	98	320	2	E	0	M1
TTP	98	352	3	E	0	M1
TTP	99	0	3	B	0	M1
TTP	99	0	4	B	0	M1
TTP	99	0	4	E	0	M1
TAP	99	96	1
TAP	99	96	5
TAP	99	192	6
TAP	99	192	7
TAP	99	240	6
TAP	99	240	7
TAP	99	288	0
TAP	99	288	5
TAP	99	336	0
TAP	99	336	5
TAP	100	0	1
TAP	100	0	4
TAP	100	96	2
TAP	100	96	6
TAP	100	192	0
TAP	100	192	1
TAP	100	240	0
TAP	100	240	1
TAP	100	288	2
TAP	100	288	7
TAP	100	336	2
TAP	100	336	7
TAP	101	0	3
TAP	101	0	6
TAP	101	96	2
TAP	101	96	3
TAP	101	144	2
TAP	101	192	4
TAP	101	192	5
TAP	101	240	5
TAP	101	288	2
TAP	101	288	3
TAP	101	336	2
TAP	102	0	4
TAP	102	0	5
TAP	102	48	5
STR	102	96	1
SI_	102	96	1	96	48	6
TAP	102	96	4
TAP	102	192	6
TAP	102	288	3
STR	102	288	7
SI_	102	288	7	96	48	4
STR	103	0	4
SCL	103	0	4	96	192	5
HLD	103	96	0	672
TAP	104	96	4
TAP	104	192	5
TAP	104	288	6
TAP	105	0	7
TAP	105	96	0
TAP	105	192	3
TAP	105	192	7
TAP	105	288	2
TAP	105	288	6
STR	106	0	1
SI_	106	0	1	96	48	3
STR	106	0	5
SI_	106	0	5	96	48	3
TAP	106	96	1
TAP	106	96	5
STR	106	192	3
SI_	106	192	3	96	48	0
SI_	106	192	3	96	48	6
TAP	106	288	3
STR	107	0	7
SCL	107	0	7	96	288	7
SCR	107	0	7	96	288	7
TAP	107	96	7
TAP	108	96	0
TAP	108	96	4
TAP	108	192	1
TAP	108	192	5
TAP	108	288	2
TAP	108	288	6
TAP	108	336	6
STR	109	48	1
SI_	109	48	1	96	48	5
TAP	109	144	0
TAP	109	144	1
STR	109	240	6
SI_	109	240	6	96	48	2
TAP	109	336	6
TAP	109	336	7
STR	110	48	0
SCL	110	48	0	96	48	5
STR	110	48	1
SCR	110	48	1	96	48	4
TAP	110	144	0
TAP	110	144	1
STR	110	240	6
SCL	110	240	6	96	48	3
STR	110	240	7
SCR	110	240	7	96	48	2
TAP	110	336	6
TAP	110	336	7
TAP	111	96	1
TAP	111	96	6
TAP	111	144	0
TAP	111	168	7
TAP	111	192	0
STR	111	240	6
SI_	111	240	6	96	48	3
TAP	111	336	2
TAP	111	336	6
STR	112	48	1
SI_	112	48	1	96	48	4
TAP	112	144	1
TAP	112	144	5
STR	112	240	7
SI_	112	240	7	96	48	4
STR	112	336	3
SCL	112	336	3	96	96	7
TAP	112	336	7
HLD	113	48	5	336
TTP	114	0	7	E	0	M1
TTP	114	24	0	C	0	M1
TTP	114	48	3	E	0	M1
TAP	117	0	4
TAP	117	24	4
TAP	117	48	1

T_REC_TAP	441
T_REC_BRK	11
T_REC_XTP	29
T_REC_HLD	40
T_REC_XHO	3
T_REC_STR	87
T_REC_BST	1
T_REC_XST	0
T_REC_TTP	103
T_REC_THO	0
T_REC_SLD	95
T_REC_ALL	810
T_NUM_TAP	660
T_NUM_BRK	12
T_NUM_HLD	43
T_NUM_SLD	95
T_NUM_ALL	810
T_JUDGE_TAP	672
T_JUDGE_HLD	161
T_JUDGE_SLD	95
T_JUDGE_ALL	928
TTM_EACHPAIRS	183
TTM_SCR_TAP	330000
TTM_SCR_BRK	31200
TTM_SCR_HLD	43000
TTM_SCR_SLD	142500
TTM_SCR_ALL	546700
TTM_SCR_S	529150
TTM_SCR_SS	545500
TTM_RAT_ACV	10021

