VERSION	0.00.00	1.03.00
FES_MODE	0
BPM_DEF	183.000	183.000	183.000	183.000
MET_DEF	4	4
RESOLUTION	384
CLK_DEF	384
COMPATIBLE_CODE	MA2

BPM	0	0	183.000
MET	0	0	4	4
MET	60	0	4	3
MET	60	288	8	9
MET	61	336	4	3
MET	62	240	8	9
MET	63	288	4	3
MET	64	192	8	9
MET	66	288	4	2
MET	67	96	4	4

TAP	1	0	0
TAP	1	0	7
TAP	1	96	0
HLD	1	144	0	96
HLD	1	336	1	96
HLD	1	336	7	96
TAP	2	144	2
TAP	2	144	6
TAP	2	240	5
TAP	2	288	4
TAP	3	0	3
TAP	3	0	4
TAP	3	96	3
HLD	3	144	3	96
HLD	3	336	2	96
HLD	3	336	4	96
TAP	4	144	1
TAP	4	144	5
TAP	4	240	6
BRK	4	288	7
TAP	5	0	6
TAP	5	0	7
TAP	5	96	6
HLD	5	144	6	96
HLD	5	240	5	96
HLD	5	336	4	96
HLD	6	48	3	96
TAP	6	144	2
TAP	6	240	0
TAP	6	288	7
HLD	7	0	7	96
TAP	7	96	0
TAP	7	144	7
STR	7	240	0
SCL	7	240	0	96	240	4
STR	7	240	7
SCR	7	240	7	96	240	3
TAP	9	0	2
TAP	9	96	2
TAP	9	192	3
TAP	9	288	3
TAP	10	0	4
TAP	10	96	4
TAP	10	192	4
TAP	10	192	5
TAP	10	288	3
TAP	10	288	6
TAP	11	0	4
HLD	11	0	5	144
TAP	11	96	4
STR	11	144	4
SXL	11	144	4	96	240	0
TAP	12	192	7
TAP	12	288	1
TAP	12	288	6
TAP	13	0	5
TAP	13	96	4
TAP	13	192	2
TAP	13	192	3
TAP	13	288	0
TAP	13	288	1
TAP	14	0	2
TAP	14	96	3
TAP	14	192	4
TAP	14	192	5
TAP	14	288	6
TAP	14	288	7
STR	15	0	6
SCL	15	0	6	96	288	1
STR	15	0	7
SUL	15	0	7	96	288	0
TAP	16	192	0
TAP	16	240	7
BRK	16	288	1
BRK	16	288	6
TAP	17	0	2
TAP	17	96	1
TAP	17	96	4
TAP	17	192	2
TAP	17	240	3
TAP	17	288	1
TAP	17	288	4
TAP	18	0	5
TAP	18	96	3
TAP	18	96	6
TAP	18	192	5
TAP	18	240	4
TAP	18	288	3
TAP	18	288	6
HLD	19	0	2	144
TAP	19	96	3
STR	19	144	3
SXR	19	144	3	96	240	7
TAP	20	192	0
TAP	20	288	1
TAP	20	288	6
TAP	21	0	2
TAP	21	96	3
TAP	21	192	4
TAP	21	192	5
TAP	21	288	0
TAP	21	288	6
TAP	22	0	5
TAP	22	96	4
TAP	22	192	2
TAP	22	192	3
TAP	22	288	1
TAP	22	288	7
TAP	23	0	2
TAP	23	96	4
TAP	23	144	3
TAP	23	240	3
TAP	23	240	4
XTP	23	336	3
XTP	23	336	5
XTP	24	48	2
XTP	24	48	4
XTP	24	144	3
XTP	24	144	6
XTP	24	240	1
XTP	24	240	5
XHO	24	288	1	1440
XTP	24	288	5
TTP	25	0	6	B	0	M1
TTP	25	192	4	B	0	M1
TTP	26	0	2	B	0	M1
TTP	26	192	1	E	0	M1
TTP	27	0	0	E	0	M1
TTP	27	192	7	E	0	M1
THO	28	0	0	192	C	0	M1
TAP	29	0	0
TAP	29	0	6
TAP	29	96	6
TAP	29	144	7
TAP	29	240	5
TAP	29	288	4
TAP	30	0	1
TAP	30	0	7
TAP	30	96	1
TAP	30	144	0
TAP	30	240	2
TAP	30	288	3
HLD	31	0	1	192
HLD	31	192	3	192
HLD	32	0	4	192
TAP	32	192	6
TAP	33	0	6
TAP	33	0	7
TAP	33	96	0
HLD	33	144	7	96
TAP	33	240	0
TTP	33	336	0	C	1	M1
TTP	33	336	1	B	0	M1
TTP	33	336	2	B	0	M1
TTP	33	336	2	E	0	M1
TTP	33	336	5	B	0	M1
TTP	33	336	6	B	0	M1
TTP	33	336	6	E	0	M1
TAP	34	144	0
HLD	34	192	0	288
STR	34	288	1
SCR	34	288	1	96	96	4
TAP	35	192	0
HLD	35	192	7	288
STR	35	288	6
SCL	35	288	6	96	96	3
TAP	36	192	0
TAP	36	192	7
TAP	36	288	1
TAP	36	288	6
HLD	37	0	0	96
TAP	37	96	1
HLD	37	192	6	96
TAP	37	288	5
HLD	38	0	2	96
TAP	38	96	3
HLD	38	192	4	96
TAP	38	288	3
TAP	39	0	3
TAP	39	96	3
HLD	39	144	4	144
TAP	39	240	5
TAP	39	288	5
TAP	40	0	4
TAP	40	96	4
HLD	40	144	3	144
TAP	40	240	2
TAP	40	288	2
TAP	41	0	3
TAP	41	96	3
HLD	41	144	4	96
TAP	41	240	5
TAP	41	336	4
TAP	41	336	5
TAP	42	48	3
TAP	42	48	6
TAP	42	144	6
HLD	42	192	6	288
STR	42	288	7
SCR	42	288	7	96	96	2
TAP	43	192	0
HLD	43	192	1	288
STR	43	288	0
SCL	43	288	0	96	96	5
TAP	44	192	3
TAP	44	192	4
TAP	44	288	2
TAP	44	288	5
HLD	45	0	7	96
TAP	45	96	6
HLD	45	192	1	96
TAP	45	288	2
HLD	46	0	5	96
TAP	46	96	4
HLD	46	192	3	96
TAP	46	288	4
TAP	47	0	5
TAP	47	96	5
HLD	47	144	4	144
TAP	47	240	3
TAP	47	288	3
TAP	48	0	2
TAP	48	96	2
HLD	48	144	3	144
TAP	48	240	4
TAP	48	288	4
TAP	49	0	5
TAP	49	96	5
HLD	49	144	4	96
TAP	49	240	3
TAP	49	336	3
TAP	49	336	4
TAP	50	48	2
TAP	50	48	5
TAP	50	144	2
TAP	50	192	2
TAP	50	288	1
TAP	50	288	3
TAP	51	0	1
TAP	51	0	7
STR	51	96	0
SI_	51	96	0	96	96	4
TAP	51	144	0
TAP	51	240	5
TAP	51	288	5
TAP	52	0	0
TAP	52	0	6
STR	52	96	7
SI_	52	96	7	96	96	3
TAP	52	144	7
TAP	52	240	2
TAP	52	288	2
HLD	53	0	0	96
HLD	53	0	1	96
TAP	53	144	0
TAP	53	144	1
TAP	53	240	2
TAP	53	240	7
STR	53	336	3
SV_	53	336	3	96	144	0
STR	53	336	6
SV_	53	336	6	96	144	1
TAP	55	0	6
TAP	55	0	7
TAP	55	96	5
TAP	55	192	4
TAP	55	192	5
TAP	55	288	3
TAP	56	0	2
TAP	56	0	3
TAP	56	96	1
TAP	56	192	0
TAP	56	192	1
TAP	56	288	0
TAP	56	288	7
TAP	57	0	0
TAP	57	48	7
TAP	57	96	0
TAP	57	144	7
TAP	57	192	1
TAP	57	192	6
TAP	57	288	3
TAP	57	288	4
HLD	58	0	1	96
HLD	58	0	5	96
HLD	58	144	2	96
HLD	58	144	6	96
TAP	58	288	1
TAP	58	288	5
STR	59	0	3
SXR	59	0	3	96	432	3
STR	59	0	4
SXL	59	0	4	96	432	4
HLD	60	288	1	96
HLD	60	288	3	96
HLD	61	48	0	96
HLD	61	48	2	96
HLD	61	192	1	96
HLD	61	192	3	96
HLD	61	336	2	192
HLD	61	336	7	192
HLD	62	240	4	96
HLD	62	240	6	96
HLD	63	0	5	96
HLD	63	0	7	96
HLD	63	144	4	96
HLD	63	144	6	96
HLD	63	288	0	192
HLD	63	288	5	192
HLD	64	192	2	96
HLD	64	192	7	96
HLD	64	336	0	96
HLD	64	336	5	96
HLD	65	96	2	96
HLD	65	96	7	96
XTP	65	240	3
XTP	65	240	5
XTP	65	312	3
XTP	65	312	5
XTP	66	0	3
XTP	66	0	5
XTP	66	72	2
XTP	66	72	4
XTP	66	144	2
XTP	66	144	4
XHO	66	216	2	168
XTP	66	216	4
TTP	67	0	0	C	1	M1
TAP	67	96	1
TAP	67	192	0
TAP	67	192	2
TAP	67	288	1
TAP	67	336	0
TAP	68	0	2
TAP	68	96	6
TAP	68	192	5
TAP	68	192	7
TAP	68	288	6
TAP	68	336	7
TAP	69	0	5
TAP	69	96	5
TAP	69	144	4
TAP	69	192	5
TAP	69	240	3
HLD	69	288	5	96
TAP	70	0	0
TAP	70	96	2
TAP	70	144	3
TAP	70	192	2
TAP	70	240	4
HLD	70	288	2	96
TAP	71	0	7
HLD	71	96	6	192
HLD	71	288	4	192
HLD	72	96	1	192
HLD	72	288	3	192
HLD	73	96	5	192
HLD	73	288	4	192
HLD	74	96	3	192
TAP	74	288	2
TAP	75	96	1
TAP	75	96	4
TAP	75	192	2
TAP	75	240	3
TAP	75	336	3
TAP	76	0	4
TAP	76	96	3
TAP	76	96	6
TAP	76	192	5
TAP	76	240	4
TAP	76	336	4
TAP	77	0	3
STR	77	96	2
SI_	77	96	2	96	96	7
STR	77	288	4
SI_	77	288	4	96	96	0
BRK	78	96	1
TAP	79	96	0
STR	79	96	7
SCL	79	96	7	96	1248	0
TAP	83	96	1
TAP	83	96	3
TAP	84	96	4
TAP	84	96	6
TAP	84	288	3
TAP	84	336	4
TAP	85	0	3
XTP	85	96	2
XTP	85	96	4
XTP	85	240	3
XTP	85	240	5
XTP	86	0	1
XTP	86	0	4
XTP	86	144	3
XTP	86	144	6
TAP	86	288	0
TAP	86	336	7
TAP	87	0	0
TAP	87	96	0
TAP	87	96	1
BRK	87	192	2
BRK	87	192	7
TAP	87	288	3
TAP	87	336	5
TAP	88	0	4
TAP	88	96	6
TAP	88	96	7
TAP	88	192	0
TAP	88	192	5
TAP	88	288	4
TAP	88	336	2
TAP	89	0	3
STR	89	96	0
SI_	89	96	0	96	96	4
TAP	89	192	7
STR	89	288	7
SI_	89	288	7	96	96	3
TAP	90	0	1
STR	90	96	1
SI_	90	96	1	96	96	5
TAP	90	192	6
STR	90	288	6
SI_	90	288	6	96	96	2
TAP	91	0	3
TAP	91	96	3
TAP	91	192	3
TAP	91	240	4
TAP	91	336	6
TAP	92	0	6
TAP	92	0	7
TAP	92	96	4
TAP	92	192	4
TAP	92	240	3
TAP	92	336	1
TAP	93	0	0
TAP	93	0	1
TAP	93	96	3
TAP	93	192	3
TAP	93	240	4
TAP	93	336	6
TAP	94	0	6
STR	94	0	7
SCR	94	0	7	96	192	3
TAP	95	96	3
TAP	95	96	6
STR	95	192	7
SI_	95	192	7	96	96	3
TAP	95	240	7
TAP	95	336	2
TAP	96	0	2
TAP	96	96	1
TAP	96	96	4
STR	96	192	0
SI_	96	192	0	96	96	4
TAP	96	240	0
TAP	96	336	5
TAP	97	0	5
HLD	97	96	6	96
HLD	97	96	7	96
TAP	97	240	6
TAP	97	240	7
TAP	97	336	0
TAP	97	336	5
STR	98	48	1
SV_	98	48	1	96	144	7
STR	98	48	4
SV_	98	48	4	96	144	6
TAP	99	96	0
TAP	99	96	1
TAP	99	192	2
TAP	99	288	2
TAP	99	288	3
TAP	100	0	4
TAP	100	96	4
TAP	100	96	5
TAP	100	192	6
TAP	100	288	6
TAP	100	288	7
TAP	101	0	0
STR	101	0	7
SF_	101	0	7	96	144	3
TAP	102	0	5
TAP	102	96	4
TAP	102	96	5
TAP	102	192	3
TAP	102	192	6
TAP	102	288	2
TAP	102	288	7
TAP	103	0	0
TAP	103	0	1
STR	103	96	0
SCL	103	96	0	96	192	5
STR	103	96	1
SCR	103	96	1	96	192	4
TAP	104	96	4
TAP	104	96	5
TAP	104	288	6
TAP	104	288	7
STR	105	96	6
SCL	105	96	6	96	192	3
STR	105	96	7
SCR	105	96	7	96	192	2
HLD	106	96	2	96
HLD	106	96	3	96
TAP	106	288	2
TAP	106	288	3
XST	107	48	2
SUR	107	48	2	96	240	7
XST	107	48	3
SCR	107	48	3	96	240	6
TAP	108	96	4
TAP	108	96	5
TAP	108	288	3
TAP	108	288	6
STR	109	96	4
SCL	109	96	4	96	192	1
STR	109	96	5
SUL	109	96	5	96	192	0
TAP	110	96	2
TAP	110	96	3
TAP	110	288	1
TAP	110	288	4
TAP	111	96	3
TAP	111	144	4
TAP	111	192	3
TAP	111	240	2
TAP	111	240	4
TAP	111	336	3
TAP	111	336	5
TAP	112	48	1
TAP	112	48	4
TAP	112	144	3
TAP	112	144	6
TAP	112	240	0
TAP	112	240	4
TAP	112	336	3
TAP	112	336	7
STR	113	48	1
SCL	113	48	1	96	1104	2
HLD	113	48	5	1488
TTP	117	0	2	B	0	M1
TTP	117	24	3	B	0	M1
TTP	117	48	4	E	0	M1

T_REC_TAP	336
T_REC_BRK	6
T_REC_XTP	28
T_REC_HLD	77
T_REC_XHO	2
T_REC_STR	36
T_REC_BST	0
T_REC_XST	2
T_REC_TTP	17
T_REC_THO	1
T_REC_SLD	38
T_REC_ALL	543
T_NUM_TAP	419
T_NUM_BRK	6
T_NUM_HLD	80
T_NUM_SLD	38
T_NUM_ALL	543
T_JUDGE_TAP	425
T_JUDGE_HLD	271
T_JUDGE_SLD	38
T_JUDGE_ALL	734
TTM_EACHPAIRS	133
TTM_SCR_TAP	209500
TTM_SCR_BRK	15600
TTM_SCR_HLD	80000
TTM_SCR_SLD	57000
TTM_SCR_ALL	362100
TTM_SCR_S	350700
TTM_SCR_SS	361500
TTM_RAT_ACV	10016

