VERSION	0.00.00	1.03.00
FES_MODE	0
BPM_DEF	183.000	183.000	183.000	183.000
MET_DEF	4	4
RESOLUTION	384
CLK_DEF	384
COMPATIBLE_CODE	MA2

BPM	0	0	183.000
MET	0	0	4	4
MET	60	0	4	3
MET	60	288	8	9
MET	61	336	4	3
MET	62	240	8	9
MET	63	288	4	3
MET	64	192	4	4
MET	65	192	4	5
MET	66	288	4	2
MET	67	96	4	4

STR	1	0	3
SI_	1	0	3	96	336	0
STR	3	0	7
SI_	3	0	7	96	336	4
STR	5	0	3
SCL	5	0	3	96	336	0
STR	7	0	7
SI_	7	0	7	96	336	3
XTP	8	192	2
XTP	8	192	4
HLD	9	0	2	192
TAP	9	192	3
HLD	10	0	5	192
TAP	10	192	4
HLD	11	0	2	192
TAP	11	192	3
TAP	12	0	4
TAP	12	192	3
TAP	12	192	5
HLD	13	0	6	192
TAP	13	192	7
HLD	14	0	1	192
TAP	14	192	0
HLD	15	0	0	192
HLD	15	0	7	192
TAP	16	0	0
TAP	16	0	7
TAP	16	192	1
TAP	16	192	6
HLD	17	0	2	192
TAP	17	192	3
TAP	18	0	4
TAP	18	96	4
TAP	18	192	4
HLD	19	0	5	192
TAP	19	192	4
TAP	20	0	3
TAP	20	96	3
TAP	20	192	3
HLD	21	0	2	192
HLD	21	0	3	192
HLD	22	0	4	192
HLD	22	0	5	192
HLD	23	0	3	192
HLD	23	0	4	192
TAP	24	0	2
TAP	24	0	5
TAP	24	96	2
TAP	24	96	5
XTP	24	192	2
XTP	24	192	5
TTP	25	0	2	E	0	L1
TTP	25	192	3	E	0	L1
TTP	26	0	4	E	0	L1
TTP	27	0	6	E	0	L1
TTP	27	192	5	E	0	L1
TTP	28	0	4	E	0	L1
TTP	29	0	2	B	0	L1
TTP	29	0	3	E	0	L1
TTP	30	0	5	B	0	L1
TTP	30	0	6	B	0	L1
THO	31	0	0	384	C	0	L1
XST	33	0	0
SI_	33	0	0	96	288	3
XST	33	0	7
SI_	33	0	7	96	288	4
XTP	34	192	2
XTP	34	192	5
TAP	35	0	1
TAP	35	96	1
TAP	35	192	2
TAP	35	288	3
TAP	36	0	4
TAP	36	96	5
TAP	36	192	4
TAP	36	192	5
TAP	37	0	6
TAP	37	96	6
TAP	37	192	5
TAP	37	288	4
TAP	38	0	3
TAP	38	96	2
TAP	38	192	2
TAP	38	192	3
TAP	39	0	1
TAP	39	96	1
TAP	39	192	0
TAP	39	192	1
TAP	40	0	6
TAP	40	96	6
TAP	40	192	6
TAP	40	192	7
TAP	41	0	0
TAP	41	96	0
TAP	41	192	7
TAP	41	288	7
TAP	42	0	0
TAP	42	0	7
TAP	42	96	0
TAP	42	96	7
XTP	42	192	1
XTP	42	192	6
TAP	43	0	2
TAP	43	96	2
TAP	43	192	1
TAP	43	288	0
TAP	44	0	7
TAP	44	96	6
TAP	44	192	6
TAP	44	192	7
TAP	45	0	5
TAP	45	96	5
TAP	45	192	6
TAP	45	288	7
TAP	46	0	0
TAP	46	96	1
TAP	46	192	0
TAP	46	192	1
TAP	47	0	2
TAP	47	96	2
TAP	47	192	2
TAP	47	192	3
TAP	48	0	5
TAP	48	96	5
TAP	48	192	4
TAP	48	192	5
STR	49	0	3
SI_	49	0	3	96	288	0
STR	49	0	4
SI_	49	0	4	96	288	7
XTP	50	192	1
XTP	50	192	6
TAP	51	0	0
TAP	51	96	1
TAP	51	192	2
TAP	51	288	3
TAP	52	0	4
TAP	52	0	5
TAP	52	96	4
TAP	52	96	5
TAP	52	192	3
TAP	52	192	6
TAP	53	0	7
TAP	53	96	6
TAP	53	192	5
TAP	53	288	4
TAP	54	0	2
TAP	54	0	3
TAP	54	96	2
TAP	54	96	3
TAP	54	192	1
TAP	54	192	4
TAP	55	0	5
TAP	55	96	5
TAP	55	192	4
TAP	55	192	6
TAP	56	0	2
TAP	56	96	2
TAP	56	192	1
TAP	56	192	3
TAP	57	0	4
TAP	57	96	4
TAP	57	192	3
TAP	57	288	3
TAP	58	0	2
TAP	58	0	5
BRK	58	192	1
BRK	58	192	6
XST	59	0	0
SXL	59	0	0	96	432	3
XST	60	288	4
SXL	60	288	4	96	432	7
XST	62	240	0
SUR	62	240	0	96	432	3
THO	64	192	0	504	C	1	L1
XTP	67	0	0
XTP	67	0	7
TAP	67	96	1
TAP	67	192	1
TAP	67	288	2
TAP	68	0	3
TAP	68	96	4
TAP	68	192	4
TAP	68	288	3
TAP	68	288	5
TAP	69	96	6
TAP	69	192	6
TAP	69	288	6
TAP	69	288	7
TAP	70	96	1
TAP	70	192	1
TAP	70	288	0
TAP	70	288	1
HLD	71	96	1	192
HLD	71	288	2	192
TAP	72	96	3
TAP	72	288	3
TAP	72	288	4
HLD	73	96	6	192
HLD	73	288	5	192
TAP	74	96	4
TAP	74	288	3
TAP	74	288	4
TAP	75	96	3
TAP	75	192	2
TAP	75	288	1
TAP	76	0	0
TAP	76	96	7
TAP	76	192	6
TAP	76	288	5
TAP	77	0	4
STR	77	96	3
SCL	77	96	3	96	288	0
STR	77	96	4
SCR	77	96	4	96	288	7
THO	78	288	0	192	C	1	L1
XHO	81	96	0	384
XTP	82	96	7
TAP	82	288	1
TAP	82	288	6
XHO	83	96	2	192
XHO	83	96	5	192
XTP	84	96	3
XTP	84	96	4
TAP	84	288	3
TAP	84	288	4
TAP	85	0	2
TAP	85	0	5
STR	85	96	1
SLR	85	96	1	96	336	0
STR	85	96	6
SLL	85	96	6	96	336	7
XTP	86	288	1
XTP	86	288	6
TAP	87	96	2
XTP	87	192	1
XTP	87	192	3
TAP	87	288	5
TAP	88	0	4
TAP	88	0	6
TAP	88	96	3
TAP	88	192	2
TAP	88	192	4
TAP	88	288	1
TAP	88	288	5
TAP	89	96	1
TAP	89	192	0
TAP	89	192	2
TAP	89	288	6
TAP	90	0	5
TAP	90	0	7
TAP	90	96	0
TAP	90	192	1
TAP	90	192	7
TAP	90	288	2
TAP	90	288	6
TAP	91	96	5
TAP	91	192	4
TAP	91	288	3
TAP	91	288	6
TAP	92	0	3
TAP	92	0	6
TAP	92	96	2
TAP	92	192	3
TAP	92	288	1
TAP	92	288	4
TAP	93	0	1
TAP	93	0	4
TAP	93	96	0
TAP	93	192	0
TAP	93	288	7
TAP	94	0	7
TAP	94	96	0
TAP	94	96	7
TAP	94	192	1
TAP	94	192	6
XTP	94	288	2
XTP	94	288	5
TAP	95	96	4
TAP	95	192	5
TAP	95	288	6
TAP	96	0	7
TAP	96	96	0
TAP	96	96	1
TAP	96	192	0
TAP	96	192	1
TAP	96	288	2
TAP	96	288	7
TAP	97	96	3
TAP	97	192	2
TAP	97	288	1
TAP	98	0	0
TAP	98	96	6
TAP	98	96	7
TAP	98	192	6
TAP	98	192	7
TAP	98	288	0
TAP	98	288	5
TAP	99	96	1
TAP	99	192	1
TAP	99	288	0
TAP	99	288	2
TAP	100	96	6
TAP	100	192	6
TAP	100	288	5
TAP	100	288	7
TAP	101	96	0
TAP	101	192	0
TAP	101	288	7
TAP	102	0	7
TAP	102	96	1
TAP	102	96	6
BRK	102	288	2
BRK	102	288	5
THO	103	96	0	768	C	0	L1
XTP	106	0	0
XTP	106	0	7
TAP	106	96	1
TAP	106	96	6
TAP	106	192	1
TAP	106	192	6
TAP	106	288	2
TAP	106	288	5
STR	107	0	2
SLL	107	0	2	96	528	3
STR	107	0	5
SLR	107	0	5	96	528	4
XTP	109	96	2
TAP	109	192	3
TAP	109	288	4
TAP	110	0	5
TAP	110	96	4
TAP	110	192	3
TAP	110	288	3
TAP	110	288	4
HLD	111	96	3	720
THO	112	96	0	336	C	0	L1

T_REC_TAP	237
T_REC_BRK	4
T_REC_XTP	24
T_REC_HLD	20
T_REC_XHO	3
T_REC_STR	12
T_REC_BST	0
T_REC_XST	5
T_REC_TTP	10
T_REC_THO	5
T_REC_SLD	17
T_REC_ALL	337
T_NUM_TAP	288
T_NUM_BRK	4
T_NUM_HLD	28
T_NUM_SLD	17
T_NUM_ALL	337
T_JUDGE_TAP	292
T_JUDGE_HLD	153
T_JUDGE_SLD	17
T_JUDGE_ALL	462
TTM_EACHPAIRS	81
TTM_SCR_TAP	144000
TTM_SCR_BRK	10400
TTM_SCR_HLD	28000
TTM_SCR_SLD	25500
TTM_SCR_ALL	207900
TTM_SCR_S	201300
TTM_SCR_SS	207500
TTM_RAT_ACV	10019

