VERSION	0.00.00	1.03.00
FES_MODE	0
BPM_DEF	183.000	183.000	183.000	183.000
MET_DEF	4	4
RESOLUTION	384
CLK_DEF	384
COMPATIBLE_CODE	MA2

BPM	0	0	183.000
MET	0	0	4	4
MET	60	0	4	3
MET	60	288	8	9
MET	61	336	4	3
MET	62	240	8	9
MET	63	288	4	3
MET	64	192	4	4
MET	65	192	4	5
MET	66	288	4	2
MET	67	96	4	4

TAP	5	0	3
XTP	6	0	3
TAP	7	0	4
XTP	8	0	4
TAP	9	0	3
TAP	10	0	3
TAP	11	0	2
TAP	12	0	2
TAP	13	0	1
TAP	14	0	1
HLD	15	0	0	384
TAP	17	0	7
TAP	17	192	7
TAP	18	0	7
TAP	19	0	6
TAP	19	192	6
TAP	20	0	6
TAP	21	0	5
TAP	21	192	5
TAP	22	0	5
TAP	23	0	4
TAP	23	192	4
TAP	24	0	3
TAP	24	0	4
TTP	25	0	4	B	0	L1
TTP	26	0	5	B	0	L1
TTP	27	0	6	B	0	L1
TTP	28	0	7	B	0	L1
TTP	29	0	0	B	0	L1
TTP	30	0	1	B	0	L1
TTP	31	0	2	B	0	L1
TTP	32	0	3	B	0	L1
TTP	32	0	4	B	0	L1
THO	33	0	0	336	C	1	L1
TAP	35	0	7
TAP	35	192	7
TAP	36	0	7
TAP	37	0	6
TAP	37	192	6
TAP	38	0	6
TAP	39	0	5
TAP	39	192	5
TAP	40	0	4
TAP	40	192	4
HLD	41	0	3	384
HLD	41	0	4	384
TAP	43	0	3
TAP	43	192	3
TAP	44	0	3
TAP	45	0	2
TAP	45	192	2
TAP	46	0	2
TAP	47	0	1
TAP	47	192	1
TAP	48	0	0
TAP	48	192	0
HLD	49	0	0	384
HLD	49	0	7	384
TAP	51	0	7
TAP	51	192	7
TAP	52	0	0
TAP	52	0	6
TAP	53	0	0
TAP	53	192	0
TAP	54	0	1
TAP	54	0	7
HLD	55	0	7	192
TAP	56	0	7
TAP	56	192	0
TAP	56	192	7
HLD	57	0	0	192
TAP	58	0	0
BRK	58	192	0
BRK	58	192	7
STR	59	0	0
SI_	59	0	0	96	576	4
XST	62	240	7
SI_	62	240	7	96	624	3
XTP	67	96	0
TAP	67	288	0
TAP	68	96	1
TAP	68	288	1
TAP	69	96	2
TAP	69	192	2
TAP	69	288	2
TAP	70	96	3
TAP	70	192	3
BRK	70	288	3
TAP	71	96	4
TAP	71	288	4
TAP	72	96	5
TAP	72	288	5
TAP	73	96	6
TAP	73	288	6
TAP	74	96	7
BRK	74	288	7
TAP	75	96	0
TAP	75	192	0
TAP	75	288	0
TAP	76	96	7
TAP	76	192	7
TAP	76	288	7
HLD	77	96	0	192
HLD	77	96	1	192
HLD	78	96	6	192
HLD	78	96	7	192
XTP	79	96	0
TAP	81	96	0
TAP	83	96	7
TAP	84	96	7
HLD	85	96	0	384
HLD	85	96	7	384
XTP	87	96	0
TAP	87	288	0
TAP	88	96	1
TAP	88	192	1
TAP	88	288	1
TAP	89	96	2
TAP	89	288	2
TAP	90	96	3
TAP	90	288	3
TAP	91	96	4
TAP	91	192	4
TAP	91	288	4
TAP	92	96	3
TAP	92	192	3
TAP	92	288	3
HLD	93	96	2	384
HLD	93	96	4	384
TAP	95	96	4
TAP	95	288	4
TAP	96	96	5
TAP	96	288	5
HLD	97	96	6	384
TAP	99	96	7
TAP	99	288	7
TAP	100	96	0
TAP	100	288	0
HLD	101	96	1	384
HLD	101	96	6	384
STR	103	96	0
SI_	103	96	0	96	480	3
TAP	106	96	7
TAP	106	288	7
STR	107	96	7
SI_	107	96	7	96	480	4
TAP	110	96	3
TAP	110	288	3
HLD	111	96	4	384
XTP	112	288	4
XHO	113	96	3	1440
XHO	113	96	5	1440

T_REC_TAP	103
T_REC_BRK	4
T_REC_XTP	6
T_REC_HLD	19
T_REC_XHO	2
T_REC_STR	3
T_REC_BST	0
T_REC_XST	1
T_REC_TTP	9
T_REC_THO	1
T_REC_SLD	4
T_REC_ALL	152
T_NUM_TAP	122
T_NUM_BRK	4
T_NUM_HLD	22
T_NUM_SLD	4
T_NUM_ALL	152
T_JUDGE_TAP	126
T_JUDGE_HLD	195
T_JUDGE_SLD	4
T_JUDGE_ALL	325
TTM_EACHPAIRS	13
TTM_SCR_TAP	61000
TTM_SCR_BRK	10400
TTM_SCR_HLD	22000
TTM_SCR_SLD	6000
TTM_SCR_ALL	99400
TTM_SCR_S	96050
TTM_SCR_SS	99000
TTM_RAT_ACV	10040

