VERSION	0.00.00	1.03.00
FES_MODE	0
BPM_DEF	151.000	151.000	151.000	151.000
MET_DEF	4	4
RESOLUTION	384
CLK_DEF	384
COMPATIBLE_CODE	MA2

BPM	0	0	151.000
MET	0	0	4	4

TAP	1	192	3
TAP	1	192	6
TAP	1	288	1
TAP	1	288	4
STR	2	0	7
SCL	2	0	7	96	96	4
STR	2	192	3
SUR	2	192	3	96	96	0
HLD	3	0	4	288
TAP	3	96	7
HLD	3	192	5	96
STR	4	0	0
SCR	4	0	0	96	96	3
STR	4	192	4
SUL	4	192	4	96	96	7
HLD	5	0	3	288
TAP	5	96	0
HLD	5	192	2	96
STR	6	0	6
SCR	6	0	6	96	96	1
STR	6	192	2
SUL	6	192	2	96	96	5
HLD	7	0	7	288
TAP	7	96	5
HLD	7	192	3	96
TAP	7	336	1
TAP	7	336	5
TAP	8	0	1
TAP	8	0	5
TAP	8	96	4
TAP	8	144	3
TAP	8	192	2
TAP	8	192	7
TAP	8	288	0
TAP	8	288	5
TAP	9	0	2
TAP	9	0	6
TAP	9	48	2
TAP	9	48	6
TAP	9	96	1
TAP	9	96	5
TAP	9	144	1
TAP	9	144	5
STR	9	192	0
SI_	9	192	0	96	36	3
STR	9	192	4
SI_	9	192	4	96	36	7
XHO	10	0	2	96
XHO	10	0	5	96
TAP	10	144	2
TAP	10	168	3
HLD	10	192	1	96
HLD	10	192	4	96
TAP	10	336	1
TAP	10	360	0
HLD	11	0	2	96
HLD	11	0	7	96
TAP	11	144	7
TAP	11	168	0
STR	11	192	1
SI_	11	192	1	96	36	3
STR	11	192	6
SI_	11	192	6	96	36	4
XHO	12	0	2	96
XHO	12	0	5	96
TAP	12	144	5
TAP	12	168	4
HLD	12	192	3	96
HLD	12	192	6	96
TAP	12	336	6
TAP	12	360	7
TAP	13	0	0
TAP	13	0	5
TAP	13	96	2
TAP	13	96	7
TTP	13	192	1	E	0	M1
TTP	13	192	5	E	0	M1
TTP	13	240	3	E	0	M1
TTP	13	240	7	E	0	M1
TTP	13	288	2	E	0	M1
TTP	13	288	6	E	0	M1
TAP	14	0	4
TAP	14	48	3
TAP	14	48	5
TAP	14	96	2
TAP	14	144	1
TAP	14	144	3
STR	14	192	0
SI_	14	192	0	96	48	4
TAP	14	240	1
TAP	14	240	7
TAP	15	0	5
TAP	15	48	6
TAP	15	48	7
TAP	15	96	0
TAP	15	144	1
TAP	15	144	2
TAP	15	192	3
TAP	15	216	4
TAP	15	240	3
TAP	15	288	2
TAP	15	288	5
TAP	16	0	3
TAP	16	48	2
TAP	16	48	4
TAP	16	96	5
TAP	16	144	4
TAP	16	144	6
HLD	16	192	7	96
TAP	16	240	0
TAP	16	288	0
TAP	16	336	2
TAP	16	360	3
TAP	17	0	1
TAP	17	48	5
TAP	17	72	4
TAP	17	96	6
STR	17	144	0
SI_	17	144	0	96	48	4
TAP	17	192	0
TTP	17	240	5	B	0	M1
TTP	17	240	6	E	0	M1
TTP	17	288	7	B	0	M1
TTP	17	288	7	E	0	M1
HLD	18	0	2	96
TAP	18	96	3
TAP	18	144	2
HLD	18	192	1	96
HLD	18	192	4	96
TAP	18	336	5
HLD	19	0	5	96
TAP	19	96	4
TAP	19	144	5
HLD	19	192	3	96
HLD	19	192	6	96
TAP	19	336	1
HLD	20	0	1	96
TAP	20	96	0
TAP	20	144	7
HLD	20	192	6	96
TAP	20	288	7
TAP	20	336	0
STR	21	0	1
SI_	21	0	1	96	48	5
STR	21	96	7
SI_	21	96	7	96	48	3
HLD	21	192	2	96
HLD	22	0	5	96
TAP	22	96	4
TAP	22	144	5
HLD	22	192	3	96
HLD	22	192	6	96
TAP	22	336	5
TAP	23	0	5
TAP	23	48	4
TAP	23	96	3
TAP	23	144	2
TAP	23	192	2
TAP	23	192	3
TAP	23	240	3
TAP	23	240	4
TAP	23	288	4
TAP	23	288	5
HLD	24	0	6	96
TAP	24	96	4
TAP	24	144	3
HLD	24	192	1	96
TAP	24	288	3
TAP	24	336	4
STR	25	0	6
SCL	25	0	6	96	96	1
THO	25	96	0	96	C	0	M1
XTP	25	240	0
XTP	25	240	7
XTP	25	288	0
XTP	25	288	7
TAP	26	0	4
TAP	26	48	3
TAP	26	48	5
TAP	26	96	6
TAP	26	144	5
TAP	26	144	7
STR	26	192	0
SI_	26	192	0	96	48	4
TAP	26	240	5
TAP	26	336	5
TAP	27	0	3
TAP	27	48	2
TAP	27	48	4
TAP	27	96	1
TAP	27	144	0
TAP	27	144	2
STR	27	192	7
SI_	27	192	7	96	48	3
XTP	27	240	0
XTP	27	288	0
STR	28	0	2
SCL	28	0	2	96	60	6
TAP	28	0	5
TAP	28	96	3
TAP	28	144	4
STR	28	192	5
SCR	28	192	5	96	60	1
TAP	28	288	4
TAP	28	336	3
STR	29	0	2
SI_	29	0	2	96	48	6
XST	29	96	0
SI_	29	96	0	96	48	4
XTP	29	96	2
XTP	29	192	0
XTP	29	192	3
TTP	29	240	2	B	0	M1
TTP	29	240	2	E	0	M1
TTP	29	288	0	B	0	M1
TTP	29	288	1	E	0	M1
TAP	30	0	3
TAP	30	48	2
TAP	30	48	4
TAP	30	96	1
TAP	30	144	0
TAP	30	144	2
STR	30	192	7
SI_	30	192	7	96	48	3
TAP	30	240	2
TAP	30	336	2
TAP	31	0	4
TAP	31	48	3
TAP	31	48	5
TAP	31	96	6
TAP	31	144	5
TAP	31	144	7
STR	31	192	0
SI_	31	192	0	96	48	4
XTP	31	240	7
XTP	31	288	7
HLD	32	0	1	96
HLD	32	96	6	96
TAP	32	144	4
HLD	32	192	4	96
TAP	32	240	3
HLD	32	288	3	96
TAP	32	336	1
STR	33	0	1
SCR	33	0	1	96	96	6
THO	33	96	0	96	C	0	M1
XTP	33	240	0
XTP	33	240	7
XTP	33	288	0
XTP	33	288	7
HLD	34	0	2	96
STR	34	0	5
SI_	34	0	5	96	48	1
TAP	34	192	0
TAP	34	192	2
TAP	34	240	1
TAP	34	240	3
HLD	35	0	1	96
STR	35	0	6
SI_	35	0	6	96	48	2
TAP	35	192	1
TAP	35	192	3
TAP	35	240	0
TAP	35	240	2
TAP	36	0	1
TAP	36	0	4
TAP	36	48	2
TAP	36	96	3
TAP	36	96	6
TAP	36	144	5
STR	36	192	1
SI_	36	192	1	96	48	5
HLD	36	192	4	384
TTP	37	0	6	B	0	M1
TTP	37	0	7	B	0	M1
TTP	37	48	4	B	0	M1
TTP	37	48	5	B	0	M1
TTP	37	96	2	B	0	M1
TTP	37	96	3	B	0	M1
TTP	37	144	0	B	0	M1
TTP	37	144	1	B	0	M1
TTP	37	192	0	C	0	M1
STR	38	0	2
SI_	38	0	2	96	48	6
HLD	38	0	5	96
TAP	38	192	5
TAP	38	192	7
TAP	38	240	4
TAP	38	240	6
STR	39	0	1
SI_	39	0	1	96	48	5
HLD	39	0	6	96
STR	39	192	4
SI_	39	192	4	96	48	0
TAP	39	192	6
TAP	39	240	5
TAP	39	240	7
XTP	40	0	1
XTP	40	0	7
TAP	40	48	2
TAP	40	72	3
TAP	40	96	2
TAP	40	120	3
TAP	40	144	1
XTP	40	192	0
XTP	40	192	2
XTP	40	288	0
XTP	40	288	6
TAP	40	336	5
TAP	40	360	4
TAP	41	0	5
TAP	41	24	4
TAP	41	48	6
XTP	41	96	5
XTP	41	96	7
TAP	41	192	0
TAP	41	192	1
TAP	41	240	2
TAP	41	240	3
TAP	41	288	4
TAP	41	288	5
TAP	41	336	6
TAP	41	336	7
XHO	42	0	0	96
XST	42	0	1
SI_	42	0	1	96	32	5
TTP	42	104	1	B	0	M1
TTP	42	112	0	C	0	M1
TTP	42	120	5	B	0	M1
XST	42	192	6
SI_	42	192	6	96	32	2
XHO	42	192	7	96
TTP	42	296	6	B	0	M1
TTP	42	304	0	C	0	M1
TTP	42	312	2	B	0	M1
TAP	43	0	1
TAP	43	0	6
BRK	43	96	0
BRK	43	96	7
XTP	43	104	1
XTP	43	104	6
XTP	43	112	2
XTP	43	112	5
XTP	43	120	3
XTP	43	120	4
TTP	43	192	0	B	0	M1
TTP	43	192	0	C	1	M1
TTP	43	192	1	B	0	M1
TTP	43	192	2	B	0	M1
TTP	43	192	3	B	0	M1
TTP	43	192	4	B	0	M1
TTP	43	192	5	B	0	M1
TTP	43	192	6	B	0	M1
TTP	43	192	7	B	0	M1
TAP	44	0	4
STR	44	0	6
SI_	44	0	6	96	48	3
TAP	44	48	3
STR	44	96	2
SCR	44	96	2	96	96	7
TAP	44	144	1
HLD	44	192	0	96
TAP	44	192	2
TAP	44	336	1
TAP	44	336	5
XST	45	0	1
SUR	45	0	1	96	48	7
XST	45	0	5
SUL	45	0	5	96	48	7
XST	45	96	1
SUL	45	96	1	96	48	3
XST	45	96	5
SUR	45	96	5	96	48	3
TTP	45	288	0	B	0	M1
TTP	45	288	0	C	1	M1
TTP	45	288	1	B	0	M1
TTP	45	288	5	B	0	M1
TTP	45	288	6	B	0	M1
STR	46	0	7
SI_	46	0	7	96	48	3
STR	46	96	2
SCR	46	96	2	96	96	7
TAP	46	144	1
HLD	46	192	0	96
TAP	46	192	2
TAP	46	336	1
TAP	46	336	5
TAP	47	0	1
TAP	47	0	5
TAP	47	48	2
TAP	47	72	3
TAP	47	96	1
TAP	47	144	5
TAP	47	168	4
TAP	47	192	6
TTP	47	240	1	E	0	M1
TTP	47	240	5	E	0	M1
TTP	47	288	3	E	0	M1
TTP	47	288	7	E	0	M1
TAP	48	0	4
TAP	48	0	5
TAP	48	96	2
TAP	48	96	3
TAP	48	144	1
TAP	48	192	0
TAP	48	240	7
STR	48	288	0
SI_	48	288	0	96	36	2
STR	48	336	7
SI_	48	336	7	96	36	3
XST	49	0	0
SI_	49	0	0	96	36	4
XST	49	48	7
SI_	49	48	7	96	36	5
XST	49	96	0
SCR	49	96	0	96	96	7
XTP	49	144	7
XTP	49	192	0
TTP	49	288	0	B	0	M1
TTP	49	288	7	B	0	M1
TAP	50	0	1
TAP	50	0	6
TAP	50	96	4
TAP	50	96	5
TAP	50	144	3
TAP	50	192	1
TAP	50	192	2
TAP	50	240	0
TAP	50	288	6
TAP	50	288	7
TAP	50	336	5
TAP	51	0	3
TAP	51	0	4
TAP	51	48	1
TAP	51	72	0
TAP	51	96	2
TAP	51	144	6
TAP	51	168	7
TAP	51	192	5
BRK	51	240	2
BRK	51	240	7
BRK	51	288	0
BRK	51	288	5
STR	52	0	1
SI_	52	0	1	96	48	4
TAP	52	0	3
TAP	52	48	4
STR	52	96	5
SCL	52	96	5	96	96	0
TAP	52	144	6
TAP	52	192	5
HLD	52	192	7	96
TAP	52	336	2
TAP	52	336	6
XST	53	0	2
SUR	53	0	2	96	48	0
XST	53	0	6
SUL	53	0	6	96	48	0
XST	53	96	2
SUL	53	96	2	96	48	4
XST	53	96	6
SUR	53	96	6	96	48	4
TTP	53	288	0	C	1	M1
TTP	53	288	1	B	0	M1
TTP	53	288	2	B	0	M1
TTP	53	288	6	B	0	M1
TTP	53	288	7	B	0	M1
STR	54	0	0
SI_	54	0	0	96	48	4
STR	54	96	5
SCL	54	96	5	96	96	0
TAP	54	144	6
TAP	54	192	5
HLD	54	192	7	96
TAP	54	336	2
TAP	54	336	6
TAP	55	0	2
TAP	55	0	6
TAP	55	48	5
TAP	55	72	4
TAP	55	96	6
TAP	55	144	2
TAP	55	168	3
TAP	55	192	1
TTP	55	240	3	E	0	M1
TTP	55	240	7	E	0	M1
TTP	55	288	1	E	0	M1
TTP	55	288	5	E	0	M1
TAP	56	0	2
TAP	56	0	3
TAP	56	96	4
TAP	56	96	5
TAP	56	144	6
TAP	56	192	7
TAP	56	240	0
STR	56	288	7
SI_	56	288	7	96	36	5
STR	56	336	0
SI_	56	336	0	96	36	4
XST	57	0	7
SI_	57	0	7	96	36	3
XST	57	48	0
SI_	57	48	0	96	36	2
XST	57	96	7
SCL	57	96	7	96	96	0
XTP	57	144	0
XTP	57	192	7
TTP	57	288	0	B	0	M1
TTP	57	288	7	B	0	M1
TAP	58	0	1
TAP	58	0	6
TAP	58	96	2
TAP	58	96	3
TAP	58	144	4
TAP	58	192	5
TAP	58	192	6
TAP	58	240	7
TAP	58	288	0
TAP	58	288	1
TAP	58	336	2
TAP	59	0	3
TAP	59	0	4
TAP	59	48	6
TAP	59	72	7
TAP	59	96	5
TAP	59	144	1
TAP	59	168	0
TAP	59	192	2
BRK	59	240	0
BRK	59	240	5
BRK	59	288	2
BRK	59	288	7
TAP	60	0	7
TTP	60	48	0	B	0	M1
TTP	60	60	0	C	0	M1
TTP	60	72	4	B	0	M1
TAP	60	96	6
TTP	60	144	2	E	0	M1
TTP	60	156	2	B	0	M1
TTP	60	168	3	B	0	M1
TAP	60	192	5
TTP	60	240	0	B	0	M1
TTP	60	252	0	C	0	M1
TTP	60	264	4	B	0	M1
TAP	60	288	6
TTP	60	336	2	E	0	M1
TTP	60	348	2	B	0	M1
TTP	60	360	3	B	0	M1
TAP	61	0	7
TTP	61	48	0	B	0	M1
TTP	61	60	0	C	0	M1
TTP	61	72	4	B	0	M1
TAP	61	96	6
TTP	61	144	2	E	0	M1
TTP	61	156	2	B	0	M1
TTP	61	168	3	B	0	M1
BRK	61	192	5
TAP	61	240	0
TAP	61	264	7
TAP	61	288	0
TAP	61	336	6
TAP	61	336	7
TAP	62	0	0
STR	62	0	7
SI_	62	0	7	96	48	3
STR	62	96	1
SCL	62	96	1	96	48	5
TAP	62	144	1
STR	62	192	4
SI_	62	192	4	96	48	0
TAP	62	240	4
STR	62	288	1
SCR	62	288	1	96	48	5
TAP	62	336	1
TAP	63	0	7
TAP	63	48	7
TAP	63	96	1
TAP	63	120	0
TAP	63	144	3
TAP	63	168	4
TAP	63	192	7
TAP	63	216	6
XTP	63	240	0
XTP	63	240	5
XTP	63	288	2
XTP	63	288	7
TAP	64	0	0
TTP	64	48	7	B	0	M1
TTP	64	60	0	C	0	M1
TTP	64	72	3	B	0	M1
TAP	64	96	1
TTP	64	144	6	E	0	M1
TTP	64	156	5	B	0	M1
TTP	64	168	4	B	0	M1
TAP	64	192	2
TTP	64	240	7	B	0	M1
TTP	64	252	0	C	0	M1
TTP	64	264	3	B	0	M1
TAP	64	288	1
TTP	64	336	6	E	0	M1
TTP	64	348	5	B	0	M1
TTP	64	360	4	B	0	M1
TAP	65	0	0
TTP	65	48	7	B	0	M1
TTP	65	60	0	C	0	M1
TTP	65	72	3	B	0	M1
TAP	65	96	1
TTP	65	144	6	E	0	M1
TTP	65	156	5	B	0	M1
TTP	65	168	4	B	0	M1
BRK	65	192	2
TAP	65	240	7
TAP	65	264	0
TAP	65	288	7
TAP	65	336	0
TAP	65	336	1
STR	66	0	0
SI_	66	0	0	96	48	4
TAP	66	0	7
STR	66	96	6
SI_	66	96	6	96	48	3
TAP	66	144	6
STR	66	192	1
SI_	66	192	1	96	48	4
TAP	66	240	1
STR	66	288	5
SCR	66	288	5	96	96	2
TAP	66	336	5
BRK	67	0	2
BRK	67	0	5
TTP	67	192	1	B	0	M1
TTP	67	192	3	B	0	M1
TTP	67	192	5	B	0	M1
TTP	67	192	7	B	0	M1
TTP	67	288	0	B	0	M1
TTP	67	288	2	B	0	M1
TTP	67	288	4	B	0	M1
TTP	67	288	6	B	0	M1
TTP	68	0	0	C	1	M1
TTP	68	0	2	E	0	M1
TTP	68	0	6	E	0	M1
TAP	68	192	1
HLD	68	192	6	96
HLD	68	288	3	96
TAP	69	0	4
TAP	69	48	1
TAP	69	72	2
TAP	69	96	3
TAP	69	144	6
TAP	69	168	5
TAP	69	192	4
TAP	69	216	3
TAP	69	240	4
TAP	69	288	1
TAP	69	288	6
TAP	70	0	4
TAP	70	48	3
TAP	70	48	5
TAP	70	96	2
TAP	70	144	1
TAP	70	144	3
HLD	70	192	0	96
TAP	70	240	7
TAP	70	288	7
TAP	70	336	6
TAP	70	360	5
TAP	71	0	4
TAP	71	48	1
TAP	71	72	2
TAP	71	96	3
STR	71	144	7
SI_	71	144	7	96	48	3
TAP	71	192	7
TTP	71	240	2	B	0	M1
TTP	71	240	2	E	0	M1
TTP	71	288	0	B	0	M1
TTP	71	288	1	E	0	M1
TAP	72	0	3
TAP	72	0	4
TAP	72	48	5
TAP	72	72	4
TAP	72	96	7
TAP	72	144	2
TAP	72	168	3
STR	72	192	0
SI_	72	192	0	96	36	3
STR	72	192	4
SI_	72	192	4	96	36	7
TAP	72	240	2
TAP	72	240	6
STR	73	0	2
SI_	73	0	2	96	36	7
STR	73	0	6
SI_	73	0	6	96	36	3
TAP	73	48	0
TAP	73	48	4
TAP	73	192	4
TAP	73	216	3
TAP	73	240	4
TAP	73	288	1
TAP	73	288	6
TAP	74	0	3
TAP	74	0	4
TAP	74	48	2
TAP	74	72	3
TAP	74	96	0
TAP	74	144	5
TAP	74	168	4
HLD	74	192	7	96
TAP	74	240	2
TAP	74	288	1
TAP	74	336	0
TAP	74	360	7
TAP	75	0	0
XTP	75	48	1
TAP	75	64	2
TAP	75	80	3
XTP	75	96	7
TAP	75	112	6
TAP	75	128	5
TAP	75	144	0
TAP	75	144	4
BRK	75	192	2
BRK	75	192	6
BRK	75	240	0
BRK	75	240	4
TTP	75	288	0	C	1	M1
TTP	75	288	1	B	0	M1
TTP	75	288	2	B	0	M1
TTP	75	288	5	B	0	M1
TTP	75	288	6	B	0	M1

T_REC_TAP	364
T_REC_BRK	18
T_REC_XTP	39
T_REC_HLD	44
T_REC_XHO	6
T_REC_STR	54
T_REC_BST	0
T_REC_XST	17
T_REC_TTP	116
T_REC_THO	2
T_REC_SLD	71
T_REC_ALL	731
T_NUM_TAP	590
T_NUM_BRK	18
T_NUM_HLD	52
T_NUM_SLD	71
T_NUM_ALL	731
T_JUDGE_TAP	608
T_JUDGE_HLD	122
T_JUDGE_SLD	71
T_JUDGE_ALL	801
TTM_EACHPAIRS	133
TTM_SCR_TAP	295000
TTM_SCR_BRK	46800
TTM_SCR_HLD	52000
TTM_SCR_SLD	106500
TTM_SCR_ALL	500300
TTM_SCR_S	483550
TTM_SCR_SS	498500
TTM_RAT_ACV	10036

