VERSION	0.00.00	1.03.00
FES_MODE	0
BPM_DEF	151.000	151.000	151.000	151.000
MET_DEF	4	4
RESOLUTION	384
CLK_DEF	384
COMPATIBLE_CODE	MA2

BPM	0	0	151.000
MET	0	0	4	4

HLD	2	0	2	192
HLD	2	192	3	192
HLD	3	0	4	192
TAP	3	192	5
HLD	4	0	5	192
HLD	4	192	4	192
TAP	5	0	3
TAP	5	96	3
TAP	5	192	2
TAP	5	192	4
HLD	6	0	2	192
HLD	6	192	3	192
HLD	7	0	4	192
TAP	7	192	5
TAP	8	0	3
HLD	8	0	4	288
HLD	8	192	3	96
TAP	9	0	3
TAP	9	0	4
TAP	9	96	2
TAP	9	96	5
TAP	9	192	1
TAP	9	192	6
BST	9	288	0
SCR	9	288	0	96	576	7
BST	9	288	7
SCL	9	288	7	96	576	0
HLD	12	0	1	96
HLD	12	0	3	96
HLD	12	192	4	96
HLD	12	192	5	96
TAP	13	0	3
TAP	13	0	4
TAP	13	96	3
TAP	13	96	4
XTP	13	192	2
XTP	13	192	5
XTP	13	240	2
XTP	13	240	5
BRK	13	288	2
BRK	13	288	5
TAP	14	0	1
TAP	14	0	3
TAP	14	96	2
TAP	14	192	5
TAP	14	240	5
TAP	14	288	4
TAP	15	0	6
TAP	15	48	6
TAP	15	96	7
TAP	15	192	0
TAP	15	192	5
TAP	15	288	1
TAP	15	288	7
TAP	16	0	4
TAP	16	0	6
TAP	16	96	5
TAP	16	192	2
TAP	16	240	2
TAP	16	288	3
TAP	17	0	1
TAP	17	0	4
TAP	17	96	2
TAP	17	96	5
XTP	17	192	3
XTP	17	192	4
XTP	17	240	3
XTP	17	240	4
XTP	17	288	3
XTP	17	288	4
STR	18	0	2
SCR	18	0	2	96	144	5
TAP	18	0	5
HLD	18	192	6	192
HLD	19	0	5	96
HLD	19	96	4	96
TAP	19	192	3
TAP	19	288	3
TAP	19	288	4
TAP	20	0	2
STR	20	0	5
SCL	20	0	5	96	144	2
HLD	20	192	1	192
HLD	21	0	2	96
TAP	21	96	3
TAP	21	192	1
TAP	21	192	4
TAP	22	0	3
STR	22	0	6
SCL	22	0	6	96	144	3
TAP	22	192	2
TAP	22	288	1
STR	23	0	1
SCR	23	0	1	96	144	4
TAP	23	0	4
TAP	23	192	5
TAP	23	288	6
HLD	24	0	6	96
HLD	24	0	7	96
HLD	24	192	0	96
HLD	24	192	1	96
TAP	25	0	0
TAP	25	0	7
TAP	25	96	0
TAP	25	96	7
XTP	25	192	2
XTP	25	192	5
TAP	26	0	6
TAP	26	48	6
TAP	26	48	7
TAP	26	144	0
TAP	26	144	6
TAP	26	240	2
TAP	26	240	3
TAP	26	336	4
TAP	26	336	5
TAP	27	0	5
TAP	27	48	3
TAP	27	48	6
TAP	27	144	1
TAP	27	144	4
TAP	27	240	6
TAP	27	240	7
TAP	27	336	0
TAP	27	336	1
TAP	28	0	1
TAP	28	48	2
TAP	28	48	7
TAP	28	144	0
TAP	28	144	5
TAP	28	240	4
TAP	28	240	5
TAP	28	336	1
TAP	29	0	1
TAP	29	0	4
TTP	29	96	2	B	0	M1
TTP	29	96	2	E	0	M1
TTP	29	96	3	B	0	M1
TTP	29	192	4	B	0	M1
TTP	29	192	5	B	0	M1
TTP	29	192	6	E	0	M1
TAP	30	0	2
TAP	30	48	2
TAP	30	48	3
TAP	30	144	1
TAP	30	144	5
TAP	30	240	3
TAP	30	240	6
TAP	30	336	0
TAP	30	336	1
TAP	31	0	1
TAP	31	48	2
TAP	31	48	7
TAP	31	144	0
TAP	31	144	5
TAP	31	240	2
TAP	31	240	4
TAP	31	336	6
TAP	31	336	7
TAP	32	0	6
TAP	32	48	0
TAP	32	48	5
TAP	32	144	2
TAP	32	144	4
TAP	32	240	0
TAP	32	240	1
TAP	32	336	2
STR	33	0	2
SUL	33	0	2	96	96	5
TAP	33	0	3
XTP	33	288	0
XTP	33	288	7
HLD	34	0	1	96
HLD	34	0	3	96
TAP	34	192	2
TAP	34	240	1
TAP	34	240	3
HLD	35	0	4	96
HLD	35	0	6	96
TAP	35	192	5
TAP	35	240	4
TAP	35	240	6
HLD	36	0	4	288
HLD	36	0	5	96
HLD	36	192	3	192
TTP	37	0	3	E	0	M1
TTP	37	96	2	E	0	M1
TTP	37	192	1	E	0	M1
TTP	37	192	7	E	0	M1
HLD	38	0	4	192
HLD	38	0	5	96
TAP	38	192	5
TAP	38	240	4
TAP	38	240	6
HLD	39	0	2	96
HLD	39	0	3	192
TAP	39	192	2
TAP	39	240	1
TAP	39	240	3
TTP	40	0	3	E	0	M1
TTP	40	96	4	B	0	M1
TTP	40	192	6	E	0	M1
TTP	40	192	7	E	0	M1
TTP	40	288	5	E	0	M1
TTP	41	0	3	B	0	M1
TTP	41	96	1	E	0	M1
TTP	41	96	2	E	0	M1
TTP	41	192	0	E	0	M1
TTP	41	288	4	E	0	M1
HLD	42	0	2	96
HLD	42	0	5	96
HLD	42	192	3	96
HLD	42	192	4	96
XTP	43	0	3
XTP	43	0	4
XTP	43	96	2
XTP	43	96	5
TTP	43	192	0	C	1	M1
TTP	43	192	1	B	0	M1
TTP	43	192	2	B	0	M1
TTP	43	192	5	B	0	M1
TTP	43	192	6	B	0	M1
XST	44	0	0
SI_	44	0	0	96	48	4
STR	44	96	6
SCR	44	96	6	96	96	3
BRK	44	192	3
STR	45	0	2
SI_	45	0	2	96	48	6
STR	45	96	7
SCL	45	96	7	96	96	2
BRK	45	192	0
XTP	45	336	1
XTP	46	0	1
XTP	46	0	7
TAP	46	96	2
TAP	46	96	3
TAP	46	144	1
TAP	46	192	0
TAP	46	192	6
TAP	46	288	4
TAP	46	288	5
TAP	46	336	6
HLD	47	0	1	96
STR	47	0	7
SI_	47	0	7	96	48	3
BRK	47	192	0
BRK	47	192	5
TAP	48	0	6
TAP	48	48	6
TAP	48	96	3
TAP	48	144	4
TAP	48	192	1
TAP	48	240	1
TAP	48	288	0
TAP	48	288	1
TAP	49	0	2
TAP	49	0	7
TAP	49	96	3
TAP	49	96	4
BRK	49	192	0
BRK	49	192	5
TAP	49	288	0
TAP	49	288	5
STR	50	0	2
SCL	50	0	2	96	96	7
TAP	50	96	5
TAP	50	144	5
STR	50	192	5
SCL	50	192	5	96	96	2
TAP	50	288	1
TAP	50	336	1
TAP	51	0	1
TAP	51	96	0
TAP	51	96	7
TAP	51	192	2
TAP	51	192	3
TAP	51	240	1
TAP	51	240	4
BRK	51	288	0
BRK	51	288	5
XST	52	0	7
SI_	52	0	7	96	48	3
STR	52	96	1
SCL	52	96	1	96	96	4
BRK	52	192	4
STR	53	0	5
SI_	53	0	5	96	48	1
STR	53	96	0
SCR	53	96	0	96	96	5
BRK	53	192	7
XTP	53	336	6
XTP	54	0	0
XTP	54	0	6
TAP	54	96	4
TAP	54	96	5
TAP	54	144	6
TAP	54	192	1
TAP	54	192	7
TAP	54	288	2
TAP	54	288	3
TAP	54	336	1
STR	55	0	0
SI_	55	0	0	96	48	4
STR	55	0	6
SI_	55	0	6	96	48	3
BRK	55	192	1
BRK	55	192	5
TAP	56	0	5
TAP	56	48	5
TAP	56	96	0
TAP	56	144	7
TAP	56	192	2
TAP	56	240	2
TAP	56	288	2
TAP	56	288	3
TAP	57	0	1
TAP	57	0	4
TAP	57	96	0
TAP	57	96	7
BRK	57	192	3
BRK	57	192	6
TAP	57	288	3
TAP	57	288	6
STR	58	0	1
SCR	58	0	1	96	96	4
TAP	58	96	6
TAP	58	144	6
STR	58	192	6
SCR	58	192	6	96	96	1
TAP	58	288	2
TAP	58	336	2
TAP	59	0	2
TAP	59	96	3
TAP	59	96	4
TAP	59	192	6
TAP	59	192	7
TAP	59	240	0
TAP	59	240	5
BRK	59	288	1
BRK	59	288	4
XST	60	0	2
SI_	60	0	2	96	48	0
STR	60	96	4
SI_	60	96	4	96	48	6
STR	60	192	3
SI_	60	192	3	96	48	0
STR	60	288	4
SI_	60	288	4	96	48	7
STR	61	0	3
SI_	61	0	3	96	48	1
STR	61	96	5
SI_	61	96	5	96	48	7
XTP	61	192	0
XTP	61	240	0
XTP	61	288	1
XTP	61	288	7
TAP	62	0	1
TAP	62	48	1
TAP	62	96	3
TAP	62	192	5
TAP	62	240	5
TAP	62	288	4
STR	63	0	2
SI_	63	0	2	96	48	7
STR	63	0	6
SI_	63	0	6	96	48	3
BRK	63	192	1
BRK	63	192	5
XST	64	0	5
SI_	64	0	5	96	48	7
STR	64	96	3
SI_	64	96	3	96	48	1
STR	64	192	4
SI_	64	192	4	96	48	7
STR	64	288	3
SI_	64	288	3	96	48	0
STR	65	0	4
SI_	65	0	4	96	48	6
STR	65	96	2
SI_	65	96	2	96	48	0
XTP	65	192	7
XTP	65	240	7
XTP	65	288	0
XTP	65	288	6
TAP	66	0	4
TAP	66	0	5
TAP	66	96	2
TAP	66	96	3
TAP	66	192	4
TAP	66	192	6
STR	66	288	0
SCR	66	288	0	96	96	3
STR	66	288	7
SCL	66	288	7	96	96	4
TTP	67	192	5	B	0	M1
TTP	67	192	5	E	0	M1
TTP	67	192	6	E	0	M1
TTP	67	288	2	B	0	M1
TTP	67	288	2	E	0	M1
TTP	67	288	3	E	0	M1
TTP	68	0	0	C	1	M1
TTP	68	0	1	B	0	M1
TTP	68	0	6	B	0	M1
XTP	68	288	0
XTP	68	288	7
TAP	69	0	1
TAP	69	48	1
TAP	69	96	3
TAP	69	192	5
TAP	69	240	5
TAP	69	288	4
HLD	70	0	6	96
HLD	70	96	4	96
HLD	70	192	2	96
TAP	70	288	0
TAP	71	0	1
TAP	71	0	3
TAP	71	96	2
TAP	71	96	4
TAP	71	192	5
XTP	71	240	6
XTP	71	240	7
XTP	71	288	6
XTP	71	288	7
STR	72	0	0
SCR	72	0	0	96	96	3
STR	72	192	4
SCR	72	192	4	96	96	7
TAP	73	0	1
TAP	73	48	1
TAP	73	96	0
TAP	73	192	6
TAP	73	240	6
TAP	73	288	4
HLD	74	0	1	96
HLD	74	96	3	96
HLD	74	192	5	96
TAP	74	288	7
TAP	75	0	4
TAP	75	0	6
TAP	75	96	1
TAP	75	96	3
XTP	75	192	0
XTP	75	192	7
XTP	75	240	1
XTP	75	240	6
BRK	75	288	2
BRK	75	288	5

T_REC_TAP	226
T_REC_BRK	22
T_REC_XTP	42
T_REC_HLD	45
T_REC_XHO	0
T_REC_STR	34
T_REC_BST	2
T_REC_XST	4
T_REC_TTP	34
T_REC_THO	0
T_REC_SLD	40
T_REC_ALL	449
T_NUM_TAP	340
T_NUM_BRK	24
T_NUM_HLD	45
T_NUM_SLD	40
T_NUM_ALL	449
T_JUDGE_TAP	364
T_JUDGE_HLD	124
T_JUDGE_SLD	40
T_JUDGE_ALL	528
TTM_EACHPAIRS	119
TTM_SCR_TAP	170000
TTM_SCR_BRK	62400
TTM_SCR_HLD	45000
TTM_SCR_SLD	60000
TTM_SCR_ALL	337400
TTM_SCR_S	324950
TTM_SCR_SS	335000
TTM_RAT_ACV	10071

